  0
SECTION
  2
HEADER
  9
$ACADVER
  1
AC1015
  9
$ACADMAINTVER
 70
    20
  9
$DWGCODEPAGE
  3
ANSI_1252
  9
$INSBASE
 10
0.0
 20
0.0
 30
0.0
  9
$EXTMIN
 10
10496.63156968688
 20
-2300.980638613257
 30
-11.00134271196864
  9
$EXTMAX
 10
15364.22572877859
 20
648.3583423003547
 30
11.00134291686587
  9
$LIMMIN
 10
-1091.180495341761
 20
-619.6501650024412
  9
$LIMMAX
 10
1056.97244419739
 20
951.0353648293053
  9
$ORTHOMODE
 70
     0
  9
$REGENMODE
 70
     1
  9
$FILLMODE
 70
     1
  9
$QTEXTMODE
 70
     0
  9
$MIRRTEXT
 70
     1
  9
$LTSCALE
 40
1.0
  9
$ATTMODE
 70
     1
  9
$TEXTSIZE
 40
4.0
  9
$TRACEWID
 40
0.05
  9
$TEXTSTYLE
  7
AN150
  9
$CLAYER
  8
18
  9
$CELTYPE
  6
BYLAYER
  9
$CECOLOR
 62
     2
  9
$CELTSCALE
 40
1.0
  9
$DISPSILH
 70
     0
  9
$DIMSCALE
 40
100.0
  9
$DIMASZ
 40
0.25
  9
$DIMEXO
 40
0.5
  9
$DIMDLI
 40
0.5
  9
$DIMRND
 40
0.0
  9
$DIMDLE
 40
0.0
  9
$DIMEXE
 40
0.25
  9
$DIMTP
 40
0.0
  9
$DIMTM
 40
0.0
  9
$DIMTXT
 40
0.25
  9
$DIMCEN
 40
0.09
  9
$DIMTSZ
 40
0.0
  9
$DIMTOL
 70
     0
  9
$DIMLIM
 70
     0
  9
$DIMTIH
 70
     0
  9
$DIMTOH
 70
     0
  9
$DIMSE1
 70
     0
  9
$DIMSE2
 70
     0
  9
$DIMTAD
 70
     1
  9
$DIMZIN
 70
     0
  9
$DIMBLK
  1

  9
$DIMASO
 70
     1
  9
$DIMSHO
 70
     1
  9
$DIMPOST
  1

  9
$DIMAPOST
  1

  9
$DIMALT
 70
     0
  9
$DIMALTD
 70
     2
  9
$DIMALTF
 40
25.4
  9
$DIMLFAC
 40
1.0
  9
$DIMTOFL
 70
     0
  9
$DIMTVP
 40
0.0
  9
$DIMTIX
 70
     0
  9
$DIMSOXD
 70
     0
  9
$DIMSAH
 70
     0
  9
$DIMBLK1
  1

  9
$DIMBLK2
  1

  9
$DIMSTYLE
  2
TYPENBLATT_M10
  9
$DIMCLRD
 70
     0
  9
$DIMCLRE
 70
     0
  9
$DIMCLRT
 70
     0
  9
$DIMTFAC
 40
1.0
  9
$DIMGAP
 40
0.075
  9
$DIMJUST
 70
     0
  9
$DIMSD1
 70
     0
  9
$DIMSD2
 70
     0
  9
$DIMTOLJ
 70
     1
  9
$DIMTZIN
 70
     0
  9
$DIMALTZ
 70
     0
  9
$DIMALTTZ
 70
     0
  9
$DIMUPT
 70
     0
  9
$DIMDEC
 70
     0
  9
$DIMTDEC
 70
     4
  9
$DIMALTU
 70
     2
  9
$DIMALTTD
 70
     2
  9
$DIMTXSTY
  7
VOEST
  9
$DIMAUNIT
 70
     0
  9
$DIMADEC
 70
     0
  9
$DIMALTRND
 40
0.0
  9
$DIMAZIN
 70
     0
  9
$DIMDSEP
 70
    46
  9
$DIMATFIT
 70
     3
  9
$DIMFRAC
 70
     0
  9
$DIMLDRBLK
  1

  9
$DIMLUNIT
 70
     2
  9
$DIMLWD
 70
    -2
  9
$DIMLWE
 70
    -2
  9
$DIMTMOVE
 70
     0
  9
$LUNITS
 70
     2
  9
$LUPREC
 70
     4
  9
$SKETCHINC
 40
0.1
  9
$FILLETRAD
 40
10.0
  9
$AUNITS
 70
     0
  9
$AUPREC
 70
     4
  9
$MENU
  1
acad
  9
$ELEVATION
 40
0.0
  9
$PELEVATION
 40
0.0
  9
$THICKNESS
 40
0.0
  9
$LIMCHECK
 70
     0
  9
$CHAMFERA
 40
0.0
  9
$CHAMFERB
 40
0.0
  9
$CHAMFERC
 40
1.0
  9
$CHAMFERD
 40
0.0
  9
$SKPOLY
 70
     0
  9
$TDCREATE
 40
2451353.418328530
  9
$TDUCREATE
 40
2451353.376661864
  9
$TDUPDATE
 40
2454802.404232350
  9
$TDUUPDATE
 40
2454802.362565683
  9
$TDINDWG
 40
3.4117604630
  9
$TDUSRTIMER
 40
3.4117604630
  9
$USRTIMER
 70
     1
  9
$ANGBASE
 50
0.0
  9
$ANGDIR
 70
     0
  9
$PDMODE
 70
     0
  9
$PDSIZE
 40
0.0
  9
$PLINEWID
 40
0.0
  9
$SPLFRAME
 70
     0
  9
$SPLINETYPE
 70
     6
  9
$SPLINESEGS
 70
    50
  9
$HANDSEED
  5
57D0
  9
$SURFTAB1
 70
     6
  9
$SURFTAB2
 70
     6
  9
$SURFTYPE
 70
     6
  9
$SURFU
 70
     6
  9
$SURFV
 70
     6
  9
$UCSBASE
  2

  9
$UCSNAME
  2

  9
$UCSORG
 10
0.0
 20
0.0
 30
0.0
  9
$UCSXDIR
 10
1.0
 20
0.0
 30
0.0
  9
$UCSYDIR
 10
0.0
 20
1.0
 30
0.0
  9
$UCSORTHOREF
  2

  9
$UCSORTHOVIEW
 70
     0
  9
$UCSORGTOP
 10
0.0
 20
0.0
 30
0.0
  9
$UCSORGBOTTOM
 10
0.0
 20
0.0
 30
0.0
  9
$UCSORGLEFT
 10
0.0
 20
0.0
 30
0.0
  9
$UCSORGRIGHT
 10
0.0
 20
0.0
 30
0.0
  9
$UCSORGFRONT
 10
0.0
 20
0.0
 30
0.0
  9
$UCSORGBACK
 10
0.0
 20
0.0
 30
0.0
  9
$PUCSBASE
  2

  9
$PUCSNAME
  2

  9
$PUCSORG
 10
0.0
 20
0.0
 30
0.0
  9
$PUCSXDIR
 10
1.0
 20
0.0
 30
0.0
  9
$PUCSYDIR
 10
0.0
 20
1.0
 30
0.0
  9
$PUCSORTHOREF
  2

  9
$PUCSORTHOVIEW
 70
     0
  9
$PUCSORGTOP
 10
0.0
 20
0.0
 30
0.0
  9
$PUCSORGBOTTOM
 10
0.0
 20
0.0
 30
0.0
  9
$PUCSORGLEFT
 10
0.0
 20
0.0
 30
0.0
  9
$PUCSORGRIGHT
 10
0.0
 20
0.0
 30
0.0
  9
$PUCSORGFRONT
 10
0.0
 20
0.0
 30
0.0
  9
$PUCSORGBACK
 10
0.0
 20
0.0
 30
0.0
  9
$USERI1
 70
     0
  9
$USERI2
 70
     0
  9
$USERI3
 70
     0
  9
$USERI4
 70
     0
  9
$USERI5
 70
     0
  9
$USERR1
 40
0.0
  9
$USERR2
 40
0.0
  9
$USERR3
 40
0.0
  9
$USERR4
 40
0.0
  9
$USERR5
 40
0.0
  9
$WORLDVIEW
 70
     1
  9
$SHADEDGE
 70
     3
  9
$SHADEDIF
 70
    70
  9
$TILEMODE
 70
     1
  9
$MAXACTVP
 70
    48
  9
$PINSBASE
 10
0.0
 20
0.0
 30
0.0
  9
$PLIMCHECK
 70
     0
  9
$PEXTMIN
 10
1.000000000000000E+20
 20
1.000000000000000E+20
 30
1.000000000000000E+20
  9
$PEXTMAX
 10
-1.000000000000000E+20
 20
-1.000000000000000E+20
 30
-1.000000000000000E+20
  9
$PLIMMIN
 10
-6.805083274841308
 20
-5.535083293914794
  9
$PLIMMAX
 10
203.1682443618775
 20
291.3909115791321
  9
$UNITMODE
 70
     0
  9
$VISRETAIN
 70
     1
  9
$PLINEGEN
 70
     0
  9
$PSLTSCALE
 70
     1
  9
$TREEDEPTH
 70
  3020
  9
$CMLSTYLE
  2
STANDARD
  9
$CMLJUST
 70
     0
  9
$CMLSCALE
 40
1.0
  9
$PROXYGRAPHICS
 70
     1
  9
$MEASUREMENT
 70
     0
  9
$CELWEIGHT
370
    -1
  9
$ENDCAPS
280
     0
  9
$JOINSTYLE
280
     0
  9
$LWDISPLAY
290
     0
  9
$INSUNITS
 70
     0
  9
$HYPERLINKBASE
  1

  9
$STYLESHEET
  1

  9
$XEDIT
290
     1
  9
$CEPSNTYPE
380
     0
  9
$PSTYLEMODE
290
     1
  9
$FINGERPRINTGUID
  2
{9534987B-55C5-11D5-8B32-0050046A49B2}
  9
$VERSIONGUID
  2
{FEF63FD6-B6E1-4E3F-8B58-9B1277FE62AA}
  9
$EXTNAMES
290
     1
  9
$PSVPSCALE
 40
0.0
  9
$OLESTARTUP
290
     0
  0
ENDSEC
  0
SECTION
  2
CLASSES
  0
CLASS
  1
DICTIONARYVAR
  2
AcDbDictionaryVar
  3
ObjectDBX Classes
 90
        0
280
     0
281
     0
  0
CLASS
  1
ACDBDICTIONARYWDFLT
  2
AcDbDictionaryWithDefault
  3
ObjectDBX Classes
 90
        0
280
     0
281
     0
  0
CLASS
  1
ACDBPLACEHOLDER
  2
AcDbPlaceHolder
  3
ObjectDBX Classes
 90
        0
280
     0
281
     0
  0
CLASS
  1
LAYOUT
  2
AcDbLayout
  3
ObjectDBX Classes
 90
        0
280
     0
281
     0
  0
CLASS
  1
RASTERVARIABLES
  2
AcDbRasterVariables
  3
ISM
 90
        0
280
     0
281
     0
  0
CLASS
  1
IMAGEDEF
  2
AcDbRasterImageDef
  3
ISM
 90
        0
280
     0
281
     0
  0
CLASS
  1
IMAGEDEF_REACTOR
  2
AcDbRasterImageDefReactor
  3
ISM
 90
    32769
280
     0
281
     0
  0
CLASS
  1
IMAGE
  2
AcDbRasterImage
  3
ISM
 90
    34943
280
     0
281
     1
  0
CLASS
  1
DIMASSOC
  2
AcDbDimAssoc
  3
"AcDbDimAssoc|Product Desc:     AcDim ARX App For Dimension|Company:          Autodesk, Inc.|WEB Address:      www.autodesk.com"
 90
        0
280
     0
281
     0
  0
CLASS
  1
MATERIAL
  2
AcDbMaterial
  3
ObjectDBX Classes
 90
     1153
280
     0
281
     0
  0
CLASS
  1
VISUALSTYLE
  2
AcDbVisualStyle
  3
ObjectDBX Classes
 90
     4095
280
     0
281
     0
  0
CLASS
  1
TABLESTYLE
  2
AcDbTableStyle
  3
ObjectDBX Classes
 90
     4095
280
     0
281
     0
  0
CLASS
  1
SCALE
  2
AcDbScale
  3
ObjectDBX Classes
 90
     1153
280
     0
281
     0
  0
CLASS
  1
MLEADERSTYLE
  2
AcDbMLeaderStyle
  3
ACDB_MLEADERSTYLE_CLASS
 90
     4095
280
     0
281
     0
  0
CLASS
  1
CELLSTYLEMAP
  2
AcDbCellStyleMap
  3
ObjectDBX Classes
 90
     1152
280
     0
281
     0
  0
ENDSEC
  0
SECTION
  2
TABLES
  0
TABLE
  2
VPORT
  5
8
330
0
100
AcDbSymbolTable
 70
     1
  0
VPORT
  5
562B
330
8
100
AcDbSymbolTableRecord
100
AcDbViewportTableRecord
  2
*Active
 70
     0
 10
0.0
 20
0.0
 11
1.0
 21
1.0
 12
12930.42864923273
 22
-826.3111481564511
 13
0.0
 23
0.0
 14
0.5
 24
0.5
 15
0.5
 25
0.5
 16
0.0
 26
0.0
 36
1.0
 17
0.0
 27
0.0
 37
0.0
 40
2969.214827365386
 41
1.788313120176406
 42
50.0
 43
0.0
 44
0.0
 50
0.0
 51
0.0
 71
     0
 72
   100
 73
     1
 74
     1
 75
     0
 76
     0
 77
     0
 78
     0
281
     0
 65
     1
110
0.0
120
0.0
130
0.0
111
1.0
121
0.0
131
0.0
112
0.0
122
1.0
132
0.0
 79
     0
146
0.0
  0
ENDTAB
  0
TABLE
  2
LTYPE
  5
5
330
0
100
AcDbSymbolTable
 70
     5
  0
LTYPE
  5
12
330
5
100
AcDbSymbolTableRecord
100
AcDbLinetypeTableRecord
  2
BYBLOCK
 70
     0
  3

 72
    65
 73
     0
 40
0.0
  0
LTYPE
  5
13
330
5
100
AcDbSymbolTableRecord
100
AcDbLinetypeTableRecord
  2
BYLAYER
 70
     0
  3

 72
    65
 73
     0
 40
0.0
  0
LTYPE
  5
14
330
5
100
AcDbSymbolTableRecord
100
AcDbLinetypeTableRecord
  2
CONTINUOUS
 70
     0
  3
Solid line
 72
    65
 73
     0
 40
0.0
  0
LTYPE
  5
222
330
5
100
AcDbSymbolTableRecord
100
AcDbLinetypeTableRecord
  2
STRICHPUNKT
 70
     0
  3
Strichpunkt __ . __ . __ . __ . __ . __ . __ . 
 72
    65
 73
     4
 40
25.4
 49
12.7
 74
     0
 49
-6.349999999999999
 74
     0
 49
0.0
 74
     0
 49
-6.349999999999999
 74
     0
  0
LTYPE
  5
223
330
5
100
AcDbSymbolTableRecord
100
AcDbLinetypeTableRecord
  2
STRICHLINIE
 70
     0
  3
Strichlinie __ __ __ __ __ __ __ __ __ __ __ __
 72
    65
 73
     2
 40
19.05
 49
12.7
 74
     0
 49
-6.349999999999999
 74
     0
  0
LTYPE
  5
3BCD
330
5
100
AcDbSymbolTableRecord
100
AcDbLinetypeTableRecord
  2
VERDECKT
 70
     0
  3
Verdeckt __ __ __ __ __ __ __ __ __ __ __ __ __
 72
    65
 73
     2
 40
0.375
 49
0.25
 74
     0
 49
-0.125
 74
     0
  0
ENDTAB
  0
TABLE
  2
LAYER
  5
2
102
{ACAD_XDICTIONARY
360
56AF
102
}
330
0
100
AcDbSymbolTable
 70
     8
  0
LAYER
  5
E
102
{ACAD_XDICTIONARY
360
571F
102
}
330
2
100
AcDbSymbolTableRecord
100
AcDbLayerTableRecord
  2
0
 70
     0
 62
     7
  6
CONTINUOUS
370
    -3
390
16EB
  0
LAYER
  5
12F
102
{ACAD_XDICTIONARY
360
5721
102
}
330
2
100
AcDbSymbolTableRecord
100
AcDbLayerTableRecord
  2
25
 70
     0
 62
     7
  6
CONTINUOUS
370
    -3
390
16EB
  0
LAYER
  5
1DA
102
{ACAD_XDICTIONARY
360
5723
102
}
330
2
100
AcDbSymbolTableRecord
100
AcDbLayerTableRecord
  2
35
 70
     0
 62
     2
  6
CONTINUOUS
370
    -3
390
16EB
  0
LAYER
  5
224
102
{ACAD_XDICTIONARY
360
5725
102
}
330
2
100
AcDbSymbolTableRecord
100
AcDbLayerTableRecord
  2
KOTIERUNG
 70
     0
 62
     7
  6
CONTINUOUS
370
    -3
390
16EB
  0
LAYER
  5
225
330
2
100
AcDbSymbolTableRecord
100
AcDbLayerTableRecord
  2
DEFPOINTS
 70
     0
 62
     7
  6
CONTINUOUS
290
     0
370
    -3
390
16EB
  0
LAYER
  5
226
102
{ACAD_XDICTIONARY
360
5727
102
}
330
2
100
AcDbSymbolTableRecord
100
AcDbLayerTableRecord
  2
18
 70
     0
 62
     1
  6
CONTINUOUS
370
    -3
390
16EB
  0
LAYER
  5
425
102
{ACAD_XDICTIONARY
360
5729
102
}
330
2
100
AcDbSymbolTableRecord
100
AcDbLayerTableRecord
  2
50
 70
     0
 62
    33
  6
CONTINUOUS
370
    -3
390
16EB
  0
LAYER
  5
3BCE
102
{ACAD_XDICTIONARY
360
572B
102
}
330
2
100
AcDbSymbolTableRecord
100
AcDbLayerTableRecord
  2
Anker
 70
     0
 62
     2
  6
CONTINUOUS
370
    -3
390
16EB
  0
ENDTAB
  0
TABLE
  2
STYLE
  5
3
330
0
100
AcDbSymbolTable
 70
     3
  0
STYLE
  5
F
330
3
100
AcDbSymbolTableRecord
100
AcDbTextStyleTableRecord
  2
STANDARD
 70
     0
 40
0.0
 41
1.0
 50
0.0
 71
     0
 42
25.0
  3
ARIALN.TTF
  4

1001
ACAD
1000
Arial Narrow
1071
       34
  0
STYLE
  5
428
330
3
100
AcDbSymbolTableRecord
100
AcDbTextStyleTableRecord
  2
VOEST
 70
     0
 40
0.0
 41
1.0
 50
0.0
 71
     0
 42
4.0
  3
ARIALN.TTF
  4

1001
ACAD
1000
Arial Narrow
1071
       34
  0
STYLE
  5
1A75
330
3
100
AcDbSymbolTableRecord
100
AcDbTextStyleTableRecord
  2
AN150
 70
     0
 40
0.0
 41
1.5
 50
0.0
 71
     0
 42
4.0
  3
ARIALN.TTF
  4

1001
ACAD
1000
Arial Narrow
1071
       34
  0
ENDTAB
  0
TABLE
  2
VIEW
  5
6
330
0
100
AcDbSymbolTable
 70
     1
  0
ENDTAB
  0
TABLE
  2
UCS
  5
7
330
0
100
AcDbSymbolTable
 70
     0
  0
ENDTAB
  0
TABLE
  2
APPID
  5
9
330
0
100
AcDbSymbolTable
 70
     7
  0
APPID
  5
10
330
9
100
AcDbSymbolTableRecord
100
AcDbRegAppTableRecord
  2
ACAD
 70
     0
  0
APPID
  5
24
330
9
100
AcDbSymbolTableRecord
100
AcDbRegAppTableRecord
  2
CONTENTTABDATA
 70
     0
  0
APPID
  5
25
330
9
100
AcDbSymbolTableRecord
100
AcDbRegAppTableRecord
  2
CONTENTCURRENTTAB
 70
     0
  0
APPID
  5
116
330
9
100
AcDbSymbolTableRecord
100
AcDbRegAppTableRecord
  2
CONTENTBLOCKICON
 70
     0
  0
APPID
  5
117
330
9
100
AcDbSymbolTableRecord
100
AcDbRegAppTableRecord
  2
CONTENTBLOCKDESCRIPTION
 70
     0
  0
APPID
  5
56A7
330
9
100
AcDbSymbolTableRecord
100
AcDbRegAppTableRecord
  2
ACAD_MLEADERVER
 70
     0
  0
APPID
  5
56F9
330
9
100
AcDbSymbolTableRecord
100
AcDbRegAppTableRecord
  2
ACAD_EXEMPT_FROM_CAD_STANDARDS
 70
     0
  0
ENDTAB
  0
TABLE
  2
DIMSTYLE
  5
A
330
0
100
AcDbSymbolTable
 70
     3
100
AcDbDimStyleTable
 71
     2
340
1D2F
340
EF9
  0
DIMSTYLE
105
1D
330
A
100
AcDbSymbolTableRecord
100
AcDbDimStyleTableRecord
  2
STANDARD
 70
     0
340
F
  0
DIMSTYLE
105
EF9
330
A
100
AcDbSymbolTableRecord
100
AcDbDimStyleTableRecord
  2
TYPENBLATT_M10
 70
     0
 40
100.0
 41
0.25
 42
0.5
 43
0.5
 44
0.25
 73
     0
 74
     0
 77
     1
140
0.25
147
0.075
271
     0
340
428
  0
DIMSTYLE
105
1D2F
102
{ACAD_REACTORS
330
40BF
330
4006
330
40BC
330
40BD
330
40BE
330
4005
330
48D0
330
400D
330
400C
330
4935
330
40A7
330
40AD
330
409C
330
409F
330
40AA
330
40B6
330
56B9
330
56DA
330
5741
102
}
330
A
100
AcDbSymbolTableRecord
100
AcDbDimStyleTableRecord
  2
ISO-25
 70
     0
 40
10.0
 41
2.5
 42
0.625
 43
3.75
 44
1.25
 73
     0
 74
     0
 77
     1
 78
     8
140
2.5
141
2.5
143
0.03937007874016
147
0.625
171
     3
172
     1
271
     2
272
     2
274
     3
278
    44
283
     0
284
     8
340
F
  0
ENDTAB
  0
TABLE
  2
BLOCK_RECORD
  5
1
330
0
100
AcDbSymbolTable
 70
    20
  0
BLOCK_RECORD
  5
18
330
1
100
AcDbSymbolTableRecord
100
AcDbBlockTableRecord
  2
*MODEL_SPACE
340
16EE
  0
BLOCK_RECORD
  5
4F18
330
1
100
AcDbSymbolTableRecord
100
AcDbBlockTableRecord
  2
*Paper_Space
340
4F19
  0
BLOCK_RECORD
  5
4153
330
1
100
AcDbSymbolTableRecord
100
AcDbBlockTableRecord
  2
*D0
340
0
  0
BLOCK_RECORD
  5
4161
330
1
100
AcDbSymbolTableRecord
100
AcDbBlockTableRecord
  2
*D1
340
0
  0
BLOCK_RECORD
  5
4179
330
1
100
AcDbSymbolTableRecord
100
AcDbBlockTableRecord
  2
*D2
340
0
  0
BLOCK_RECORD
  5
4185
330
1
100
AcDbSymbolTableRecord
100
AcDbBlockTableRecord
  2
*D3
340
0
  0
BLOCK_RECORD
  5
419A
330
1
100
AcDbSymbolTableRecord
100
AcDbBlockTableRecord
  2
*D4
340
0
  0
BLOCK_RECORD
  5
41A7
330
1
100
AcDbSymbolTableRecord
100
AcDbBlockTableRecord
  2
*D5
340
0
  0
BLOCK_RECORD
  5
41B3
330
1
100
AcDbSymbolTableRecord
100
AcDbBlockTableRecord
  2
*D6
340
0
  0
BLOCK_RECORD
  5
41BF
330
1
100
AcDbSymbolTableRecord
100
AcDbBlockTableRecord
  2
*D7
340
0
  0
BLOCK_RECORD
  5
41CB
330
1
100
AcDbSymbolTableRecord
100
AcDbBlockTableRecord
  2
*D8
340
0
  0
BLOCK_RECORD
  5
420C
330
1
100
AcDbSymbolTableRecord
100
AcDbBlockTableRecord
  2
*D9
340
0
  0
BLOCK_RECORD
  5
4218
330
1
100
AcDbSymbolTableRecord
100
AcDbBlockTableRecord
  2
*D10
340
0
  0
BLOCK_RECORD
  5
4223
330
1
100
AcDbSymbolTableRecord
100
AcDbBlockTableRecord
  2
*D11
340
0
  0
BLOCK_RECORD
  5
422F
330
1
100
AcDbSymbolTableRecord
100
AcDbBlockTableRecord
  2
*D12
340
0
  0
BLOCK_RECORD
  5
423B
330
1
100
AcDbSymbolTableRecord
100
AcDbBlockTableRecord
  2
*D13
340
0
  0
BLOCK_RECORD
  5
4247
330
1
100
AcDbSymbolTableRecord
100
AcDbBlockTableRecord
  2
*D14
340
0
  0
BLOCK_RECORD
  5
48D1
330
1
100
AcDbSymbolTableRecord
100
AcDbBlockTableRecord
  2
*D15
340
0
  0
BLOCK_RECORD
  5
4936
330
1
100
AcDbSymbolTableRecord
100
AcDbBlockTableRecord
  2
*D16
340
0
  0
BLOCK_RECORD
  5
56BA
330
1
100
AcDbSymbolTableRecord
100
AcDbBlockTableRecord
  2
*D17
340
0
  0
BLOCK_RECORD
  5
56DB
330
1
100
AcDbSymbolTableRecord
100
AcDbBlockTableRecord
  2
*D18
340
0
  0
BLOCK_RECORD
  5
5742
330
1
100
AcDbSymbolTableRecord
100
AcDbBlockTableRecord
  2
*D19
340
0
  0
ENDTAB
  0
ENDSEC
  0
SECTION
  2
BLOCKS
  0
BLOCK
  5
19
330
18
100
AcDbEntity
  8
0
100
AcDbBlockBegin
  2
*MODEL_SPACE
 70
     0
 10
0.0
 20
0.0
 30
0.0
  3
*MODEL_SPACE
  1

  0
ENDBLK
  5
1A
330
18
100
AcDbEntity
  8
0
100
AcDbBlockEnd
  0
BLOCK
  5
4F1A
330
4F18
100
AcDbEntity
 67
     1
  8
0
100
AcDbBlockBegin
  2
*Paper_Space
 70
     0
 10
0.0
 20
0.0
 30
0.0
  3
*Paper_Space
  1

  0
ENDBLK
  5
4F1B
330
4F18
100
AcDbEntity
 67
     1
  8
0
100
AcDbBlockEnd
  0
BLOCK
  5
415F
330
4153
100
AcDbEntity
  8
0
100
AcDbBlockBegin
  2
*D0
 70
     1
 10
0.0
 20
0.0
 30
0.0
  3
*D0
  1

  0
LINE
  5
5566
330
4153
100
AcDbEntity
  8
0
 62
     0
370
    -2
100
AcDbLine
 10
12955.85643019016
 20
-798.9513889389418
 30
0.0
 11
12955.85643019016
 21
-915.1314377239369
 31
0.0
  0
LINE
  5
5567
330
4153
100
AcDbEntity
  8
0
 62
     0
370
    -2
100
AcDbLine
 10
12895.85643019016
 20
-844.0606239608314
 30
0.0
 11
12895.85643019016
 21
-915.1314377239369
 31
0.0
  0
LINE
  5
5568
330
4153
100
AcDbEntity
  8
0
 62
     0
370
    -2
100
AcDbLine
 10
12985.85643019016
 20
-900.1314377239369
 30
0.0
 11
13015.85643019016
 21
-900.1314377239369
 31
0.0
  0
LINE
  5
5569
330
4153
100
AcDbEntity
  8
0
 62
     0
370
    -2
100
AcDbLine
 10
12865.85643019016
 20
-900.1314377239369
 30
0.0
 11
12835.85643019016
 21
-900.1314377239369
 31
0.0
  0
LINE
  5
556A
330
4153
100
AcDbEntity
  8
0
 62
     0
370
    -2
100
AcDbLine
 10
12955.85643019016
 20
-900.1314377239369
 30
0.0
 11
12895.85643019016
 21
-900.1314377239369
 31
0.0
  0
SOLID
  5
556B
330
4153
100
AcDbEntity
  8
0
 62
     0
100
AcDbTrace
 10
12985.85643019016
 20
-895.1314377239368
 30
0.0
 11
12985.85643019016
 21
-905.1314377239368
 31
0.0
 12
12955.85643019016
 22
-900.1314377239369
 32
0.0
 13
12955.85643019016
 23
-900.1314377239369
 33
0.0
  0
SOLID
  5
556C
330
4153
100
AcDbEntity
  8
0
 62
     0
100
AcDbTrace
 10
12865.85643019016
 20
-895.1314377239368
 30
0.0
 11
12865.85643019016
 21
-905.1314377239368
 31
0.0
 12
12895.85643019016
 22
-900.1314377239369
 32
0.0
 13
12895.85643019016
 23
-900.1314377239369
 33
0.0
  0
MTEXT
  5
556D
330
4153
100
AcDbEntity
  8
0
 62
     0
100
AcDbMText
 10
12925.85643019016
 20
-877.314248092286
 30
0.0
 40
30.0
 41
0.0
 71
     5
 72
     1
  1
60
 73
     1
 44
1.0
1001
ACAD
1000
MTEXTBEGIN
1070
    73
1070
     1
1070
    44
1040
1.0
1070
    74
1070
     0
1000
MTEXTEND
  0
POINT
  5
556E
330
4153
100
AcDbEntity
  8
DEFPOINTS
 62
     0
100
AcDbPoint
 10
12955.85643019016
 20
-791.4513889389418
 30
0.0
  0
POINT
  5
556F
330
4153
100
AcDbEntity
  8
DEFPOINTS
 62
     0
100
AcDbPoint
 10
12895.85643019016
 20
-836.5606239608315
 30
0.0
  0
POINT
  5
5570
330
4153
100
AcDbEntity
  8
DEFPOINTS
 62
     0
100
AcDbPoint
 10
12895.85643019016
 20
-900.1314377239369
 30
0.0
  0
ENDBLK
  5
4160
330
4153
100
AcDbEntity
  8
0
100
AcDbBlockEnd
  0
BLOCK
  5
416B
330
4161
100
AcDbEntity
  8
0
100
AcDbBlockBegin
  2
*D1
 70
     1
 10
0.0
 20
0.0
 30
0.0
  3
*D1
  1

  0
LINE
  5
555D
330
4161
100
AcDbEntity
  8
0
 62
     0
370
    -2
100
AcDbLine
 10
13155.85643019016
 20
-844.0606239608314
 30
0.0
 11
13155.85643019016
 21
-983.292761297147
 31
0.0
  0
LINE
  5
555E
330
4161
100
AcDbEntity
  8
0
 62
     0
370
    -2
100
AcDbLine
 10
12895.85643019016
 20
-844.0606239608314
 30
0.0
 11
12895.85643019016
 21
-983.292761297147
 31
0.0
  0
LINE
  5
555F
330
4161
100
AcDbEntity
  8
0
 62
     0
370
    -2
100
AcDbLine
 10
13125.85643019016
 20
-968.292761297147
 30
0.0
 11
12925.85643019016
 21
-968.292761297147
 31
0.0
  0
SOLID
  5
5560
330
4161
100
AcDbEntity
  8
0
 62
     0
100
AcDbTrace
 10
13125.85643019016
 20
-963.2927612971471
 30
0.0
 11
13125.85643019016
 21
-973.2927612971471
 31
0.0
 12
13155.85643019016
 22
-968.292761297147
 32
0.0
 13
13155.85643019016
 23
-968.292761297147
 33
0.0
  0
SOLID
  5
5561
330
4161
100
AcDbEntity
  8
0
 62
     0
100
AcDbTrace
 10
12925.85643019016
 20
-963.2927612971471
 30
0.0
 11
12925.85643019016
 21
-973.2927612971471
 31
0.0
 12
12895.85643019016
 22
-968.292761297147
 32
0.0
 13
12895.85643019016
 23
-968.292761297147
 33
0.0
  0
MTEXT
  5
5562
330
4161
100
AcDbEntity
  8
0
 62
     0
100
AcDbMText
 10
13025.85643019017
 20
-945.4755716654963
 30
0.0
 40
30.0
 41
0.0
 71
     5
 72
     1
  1
260
 73
     1
 44
1.0
1001
ACAD
1000
MTEXTBEGIN
1070
    73
1070
     1
1070
    44
1040
1.0
1070
    74
1070
     0
1000
MTEXTEND
  0
POINT
  5
5563
330
4161
100
AcDbEntity
  8
DEFPOINTS
 62
     0
100
AcDbPoint
 10
13155.85643019016
 20
-836.5606239608315
 30
0.0
  0
POINT
  5
5564
330
4161
100
AcDbEntity
  8
DEFPOINTS
 62
     0
100
AcDbPoint
 10
12895.85643019016
 20
-836.5606239608315
 30
0.0
  0
POINT
  5
5565
330
4161
100
AcDbEntity
  8
DEFPOINTS
 62
     0
100
AcDbPoint
 10
12895.85643019016
 20
-968.292761297147
 30
0.0
  0
ENDBLK
  5
416C
330
4161
100
AcDbEntity
  8
0
100
AcDbBlockEnd
  0
BLOCK
  5
4183
330
4179
100
AcDbEntity
  8
0
100
AcDbBlockBegin
  2
*D2
 70
     1
 10
0.0
 20
0.0
 30
0.0
  3
*D2
  1

  0
LINE
  5
5554
330
4179
100
AcDbEntity
  8
0
 62
     0
370
    -2
100
AcDbLine
 10
12928.35643019016
 20
-526.6698589827283
 30
0.0
 11
12835.99598473319
 21
-526.6698589827283
 31
0.0
  0
LINE
  5
5555
330
4179
100
AcDbEntity
  8
0
 62
     0
370
    -2
100
AcDbLine
 10
12930.00450937516
 20
-766.4513889389418
 30
0.0
 11
12835.99598473319
 21
-766.4513889389418
 31
0.0
  0
LINE
  5
5556
330
4179
100
AcDbEntity
  8
0
 62
     0
370
    -2
100
AcDbLine
 10
12850.99598473319
 20
-556.6698589827283
 30
0.0
 11
12850.99598473319
 21
-736.4513889389418
 31
0.0
  0
SOLID
  5
5557
330
4179
100
AcDbEntity
  8
0
 62
     0
100
AcDbTrace
 10
12845.99598473319
 20
-556.6698589827283
 30
0.0
 11
12855.99598473319
 21
-556.6698589827283
 31
0.0
 12
12850.99598473319
 22
-526.6698589827283
 32
0.0
 13
12850.99598473319
 23
-526.6698589827283
 33
0.0
  0
SOLID
  5
5558
330
4179
100
AcDbEntity
  8
0
 62
     0
100
AcDbTrace
 10
12845.99598473319
 20
-736.4513889389418
 30
0.0
 11
12855.99598473319
 21
-736.4513889389418
 31
0.0
 12
12850.99598473319
 22
-766.4513889389418
 32
0.0
 13
12850.99598473319
 23
-766.4513889389418
 33
0.0
  0
MTEXT
  5
5559
330
4179
100
AcDbEntity
  8
0
 62
     0
100
AcDbMText
 10
12828.17879510154
 20
-646.5606239608314
 30
0.0
 40
30.0
 41
0.0
 71
     5
 72
     1
  1
240
 11
0.0000000000000001
 21
1.0
 31
0.0
 73
     1
 44
1.0
1001
ACAD
1000
MTEXTBEGIN
1070
    73
1070
     1
1070
    44
1040
1.0
1070
    74
1070
     0
1000
MTEXTEND
  0
POINT
  5
555A
330
4179
100
AcDbEntity
  8
DEFPOINTS
 62
     0
100
AcDbPoint
 10
12935.85643019016
 20
-526.6698589827283
 30
0.0
  0
POINT
  5
555B
330
4179
100
AcDbEntity
  8
DEFPOINTS
 62
     0
100
AcDbPoint
 10
12937.50450937516
 20
-766.4513889389418
 30
0.0
  0
POINT
  5
555C
330
4179
100
AcDbEntity
  8
DEFPOINTS
 62
     0
100
AcDbPoint
 10
12850.99598473319
 20
-766.4513889389418
 30
0.0
  0
ENDBLK
  5
4184
330
4179
100
AcDbEntity
  8
0
100
AcDbBlockEnd
  0
BLOCK
  5
418E
330
4185
100
AcDbEntity
  8
0
100
AcDbBlockBegin
  2
*D3
 70
     1
 10
0.0
 20
0.0
 30
0.0
  3
*D3
  1

  0
LINE
  5
5540
330
4185
100
AcDbEntity
  8
0
 62
     0
370
    -2
100
AcDbLine
 10
12903.22716786918
 20
-526.6698589827283
 30
0.0
 11
12835.99598473319
 21
-526.6698589827283
 31
0.0
  0
LINE
  5
5541
330
4185
100
AcDbEntity
  8
0
 62
     0
370
    -2
100
AcDbLine
 10
12888.35643019016
 20
-456.5606239608314
 30
0.0
 11
12835.99598473319
 21
-456.5606239608314
 31
0.0
  0
LINE
  5
5542
330
4185
100
AcDbEntity
  8
0
 62
     0
370
    -2
100
AcDbLine
 10
12850.99598473319
 20
-556.6698589827283
 30
0.0
 11
12850.99598473319
 21
-586.6698589827283
 31
0.0
  0
LINE
  5
5543
330
4185
100
AcDbEntity
  8
0
 62
     0
370
    -2
100
AcDbLine
 10
12850.99598473319
 20
-426.5606239608314
 30
0.0
 11
12850.99598473319
 21
-396.5606239608314
 31
0.0
  0
LINE
  5
5544
330
4185
100
AcDbEntity
  8
0
 62
     0
370
    -2
100
AcDbLine
 10
12850.99598473319
 20
-526.6698589827283
 30
0.0
 11
12850.99598473319
 21
-456.5606239608314
 31
0.0
  0
SOLID
  5
5545
330
4185
100
AcDbEntity
  8
0
 62
     0
100
AcDbTrace
 10
12845.99598473319
 20
-556.6698589827283
 30
0.0
 11
12855.99598473319
 21
-556.6698589827283
 31
0.0
 12
12850.99598473319
 22
-526.6698589827283
 32
0.0
 13
12850.99598473319
 23
-526.6698589827283
 33
0.0
  0
SOLID
  5
5546
330
4185
100
AcDbEntity
  8
0
 62
     0
100
AcDbTrace
 10
12845.99598473319
 20
-426.5606239608314
 30
0.0
 11
12855.99598473319
 21
-426.5606239608314
 31
0.0
 12
12850.99598473319
 22
-456.5606239608314
 32
0.0
 13
12850.99598473319
 23
-456.5606239608314
 33
0.0
  0
MTEXT
  5
5547
330
4185
100
AcDbEntity
  8
0
 62
     0
100
AcDbMText
 10
12828.17879510154
 20
-491.6152414717778
 30
0.0
 40
30.0
 41
0.0
 71
     5
 72
     1
  1
70
 11
0.0000000000000001
 21
1.0
 31
0.0
 73
     1
 44
1.0
1001
ACAD
1000
MTEXTBEGIN
1070
    73
1070
     1
1070
    44
1040
1.0
1070
    74
1070
     0
1000
MTEXTEND
  0
POINT
  5
5548
330
4185
100
AcDbEntity
  8
DEFPOINTS
 62
     0
100
AcDbPoint
 10
12910.72716786918
 20
-526.6698589827283
 30
0.0
  0
POINT
  5
5549
330
4185
100
AcDbEntity
  8
DEFPOINTS
 62
     0
100
AcDbPoint
 10
12895.85643019016
 20
-456.5606239608314
 30
0.0
  0
POINT
  5
554A
330
4185
100
AcDbEntity
  8
DEFPOINTS
 62
     0
100
AcDbPoint
 10
12850.99598473319
 20
-456.5606239608314
 30
0.0
  0
ENDBLK
  5
418F
330
4185
100
AcDbEntity
  8
0
100
AcDbBlockEnd
  0
BLOCK
  5
41A5
330
419A
100
AcDbEntity
  8
0
100
AcDbBlockBegin
  2
*D4
 70
     1
 10
0.0
 20
0.0
 30
0.0
  3
*D4
  1

  0
LINE
  5
5595
330
419A
100
AcDbEntity
  8
0
 62
     0
370
    -2
100
AcDbLine
 10
12944.31322081953
 20
-157.6027145726266
 30
0.0
 11
12973.75813076402
 21
-156.8724881069278
 31
0.0
  0
LINE
  5
5596
330
419A
100
AcDbEntity
  8
0
 62
     0
370
    -2
100
AcDbLine
 10
12947.90807956755
 20
-302.5581456215586
 30
0.0
 11
12977.35298951204
 21
-301.8279191558598
 31
0.0
  0
LINE
  5
5597
330
419A
100
AcDbEntity
  8
0
 62
     0
370
    -2
100
AcDbLine
 10
12959.50650522406
 20
-187.2351488840886
 30
0.0
 11
12961.61383621428
 21
-272.2090222576004
 31
0.0
  0
SOLID
  5
5598
330
419A
100
AcDbEntity
  8
0
 62
     0
100
AcDbTrace
 10
12964.50496836368
 20
-187.111188237605
 30
0.0
 11
12954.50804208444
 21
-187.3591095305721
 31
0.0
 12
12958.76274134516
 22
-157.2443700463785
 32
0.0
 13
12958.76274134516
 23
-157.2443700463785
 33
0.0
  0
SOLID
  5
5599
330
419A
100
AcDbEntity
  8
0
 62
     0
100
AcDbTrace
 10
12966.6122993539
 20
-272.0850616111168
 30
0.0
 11
12956.61537307466
 21
-272.332982904084
 31
0.0
 12
12962.35760009318
 22
-302.1998010953105
 32
0.0
 13
12962.35760009318
 23
-302.1998010953105
 33
0.0
  0
MTEXT
  5
559A
330
419A
100
AcDbEntity
  8
0
 62
     0
100
AcDbMText
 10
12983.37034698387
 20
-229.1563988553071
 30
0.0
 40
30.0
 41
0.0
 71
     5
 72
     1
  1
130
 11
0.0247921292967133
 21
-0.9996926279236708
 31
0.0
 73
     1
 44
1.0
1001
ACAD
1000
MTEXTBEGIN
1070
    73
1070
     1
1070
    44
1040
1.0
1070
    74
1070
     0
1000
MTEXTEND
  0
POINT
  5
559B
330
419A
100
AcDbEntity
  8
DEFPOINTS
 62
     0
100
AcDbPoint
 10
12936.8155261101
 20
-157.788655542352
 30
0.0
  0
POINT
  5
559C
330
419A
100
AcDbEntity
  8
DEFPOINTS
 62
     0
100
AcDbPoint
 10
12940.41038485812
 20
-302.744086591284
 30
0.0
  0
POINT
  5
559D
330
419A
100
AcDbEntity
  8
DEFPOINTS
 62
     0
100
AcDbPoint
 10
12962.35760009318
 20
-302.1998010953105
 30
0.0
  0
ENDBLK
  5
41A6
330
419A
100
AcDbEntity
  8
0
100
AcDbBlockEnd
  0
BLOCK
  5
41B1
330
41A7
100
AcDbEntity
  8
0
100
AcDbBlockBegin
  2
*D5
 70
     1
 10
0.0
 20
0.0
 30
0.0
  3
*D5
  1

  0
LINE
  5
4F71
330
41A7
100
AcDbEntity
  8
KOTIERUNG
 62
     0
370
    -2
100
AcDbLine
 10
12225.62825083486
 20
-1801.630400554224
 30
0.0
 11
12225.62825083486
 21
-1664.333600918675
 31
0.0
  0
LINE
  5
4F72
330
41A7
100
AcDbEntity
  8
KOTIERUNG
 62
     0
370
    -2
100
AcDbLine
 10
10892.29491683486
 20
-1801.630400554224
 30
0.0
 11
10892.29491683486
 21
-1664.333600918675
 31
0.0
  0
LINE
  5
4F73
330
41A7
100
AcDbEntity
  8
KOTIERUNG
 62
     0
370
    -2
100
AcDbLine
 10
12125.62825083486
 20
-1714.333600918675
 30
0.0
 11
10992.29491683486
 21
-1714.333600918675
 31
0.0
  0
SOLID
  5
4F74
330
41A7
100
AcDbEntity
  8
KOTIERUNG
 62
     0
100
AcDbTrace
 10
12125.62825083486
 20
-1697.666934252008
 30
0.0
 11
12125.62825083486
 21
-1731.000267585342
 31
0.0
 12
12225.62825083486
 22
-1714.333600918675
 32
0.0
 13
12225.62825083486
 23
-1714.333600918675
 33
0.0
  0
SOLID
  5
4F75
330
41A7
100
AcDbEntity
  8
KOTIERUNG
 62
     0
100
AcDbTrace
 10
10992.29491683486
 20
-1697.666934252008
 30
0.0
 11
10992.29491683486
 21
-1731.000267585342
 31
0.0
 12
10892.29491683486
 22
-1714.333600918675
 32
0.0
 13
10892.29491683486
 23
-1714.333600918675
 33
0.0
  0
MTEXT
  5
4F76
330
41A7
100
AcDbEntity
  8
KOTIERUNG
 62
     0
100
AcDbMText
 10
11558.96158383486
 20
-1629.23810296506
 30
0.0
 40
100.0
 41
0.0
 71
     5
 72
     1
  1
1333,33
 73
     1
 44
1.0
1001
ACAD
1000
MTEXTBEGIN
1070
    73
1070
     1
1070
    44
1040
1.0
1070
    74
1070
     0
1000
MTEXTEND
  0
POINT
  5
4F77
330
41A7
100
AcDbEntity
  8
DEFPOINTS
 62
     0
100
AcDbPoint
 10
12225.62825083486
 20
-1826.630400554224
 30
0.0
  0
POINT
  5
4F78
330
41A7
100
AcDbEntity
  8
DEFPOINTS
 62
     0
100
AcDbPoint
 10
10892.29491683486
 20
-1826.630400554224
 30
0.0
  0
POINT
  5
4F79
330
41A7
100
AcDbEntity
  8
DEFPOINTS
 62
     0
100
AcDbPoint
 10
10892.29491683486
 20
-1714.333600918675
 30
0.0
  0
ENDBLK
  5
41B2
330
41A7
100
AcDbEntity
  8
0
100
AcDbBlockEnd
  0
BLOCK
  5
41BD
330
41B3
100
AcDbEntity
  8
0
100
AcDbBlockBegin
  2
*D6
 70
     1
 10
0.0
 20
0.0
 30
0.0
  3
*D6
  1

  0
LINE
  5
4F7A
330
41B3
100
AcDbEntity
  8
KOTIERUNG
 62
     0
370
    -2
100
AcDbLine
 10
13558.96158383486
 20
-1801.630400554224
 30
0.0
 11
13558.96158383486
 21
-1664.333600918675
 31
0.0
  0
LINE
  5
4F7B
330
41B3
100
AcDbEntity
  8
KOTIERUNG
 62
     0
370
    -2
100
AcDbLine
 10
12225.62825083486
 20
-1801.630400554224
 30
0.0
 11
12225.62825083486
 21
-1664.333600918675
 31
0.0
  0
LINE
  5
4F7C
330
41B3
100
AcDbEntity
  8
KOTIERUNG
 62
     0
370
    -2
100
AcDbLine
 10
13458.96158383486
 20
-1714.333600918675
 30
0.0
 11
12325.62825083486
 21
-1714.333600918675
 31
0.0
  0
SOLID
  5
4F7D
330
41B3
100
AcDbEntity
  8
KOTIERUNG
 62
     0
100
AcDbTrace
 10
13458.96158383486
 20
-1697.666934252008
 30
0.0
 11
13458.96158383486
 21
-1731.000267585342
 31
0.0
 12
13558.96158383486
 22
-1714.333600918675
 32
0.0
 13
13558.96158383486
 23
-1714.333600918675
 33
0.0
  0
SOLID
  5
4F7E
330
41B3
100
AcDbEntity
  8
KOTIERUNG
 62
     0
100
AcDbTrace
 10
12325.62825083486
 20
-1697.666934252008
 30
0.0
 11
12325.62825083486
 21
-1731.000267585342
 31
0.0
 12
12225.62825083486
 22
-1714.333600918675
 32
0.0
 13
12225.62825083486
 23
-1714.333600918675
 33
0.0
  0
MTEXT
  5
4F7F
330
41B3
100
AcDbEntity
  8
KOTIERUNG
 62
     0
100
AcDbMText
 10
12892.29491733486
 20
-1629.23810296506
 30
0.0
 40
100.0
 41
0.0
 71
     5
 72
     1
  1
1333,33
 73
     1
 44
1.0
1001
ACAD
1000
MTEXTBEGIN
1070
    73
1070
     1
1070
    44
1040
1.0
1070
    74
1070
     0
1000
MTEXTEND
  0
POINT
  5
4F80
330
41B3
100
AcDbEntity
  8
DEFPOINTS
 62
     0
100
AcDbPoint
 10
13558.96158383486
 20
-1826.630400554224
 30
0.0
  0
POINT
  5
4F81
330
41B3
100
AcDbEntity
  8
DEFPOINTS
 62
     0
100
AcDbPoint
 10
12225.62825083486
 20
-1826.630400554224
 30
0.0
  0
POINT
  5
4F82
330
41B3
100
AcDbEntity
  8
DEFPOINTS
 62
     0
100
AcDbPoint
 10
12225.62825083486
 20
-1714.333600918675
 30
0.0
  0
ENDBLK
  5
41BE
330
41B3
100
AcDbEntity
  8
0
100
AcDbBlockEnd
  0
BLOCK
  5
41C9
330
41BF
100
AcDbEntity
  8
0
100
AcDbBlockBegin
  2
*D7
 70
     1
 10
0.0
 20
0.0
 30
0.0
  3
*D7
  1

  0
LINE
  5
4F68
330
41BF
100
AcDbEntity
  8
KOTIERUNG
 62
     0
370
    -2
100
AcDbLine
 10
14892.29491683486
 20
-1801.630400554224
 30
0.0
 11
14892.29491683486
 21
-1664.333600918675
 31
0.0
  0
LINE
  5
4F69
330
41BF
100
AcDbEntity
  8
KOTIERUNG
 62
     0
370
    -2
100
AcDbLine
 10
13558.96158383486
 20
-1801.630400554225
 30
0.0
 11
13558.96158383486
 21
-1664.333600918675
 31
0.0
  0
LINE
  5
4F6A
330
41BF
100
AcDbEntity
  8
KOTIERUNG
 62
     0
370
    -2
100
AcDbLine
 10
14792.29491683486
 20
-1714.333600918676
 30
0.0
 11
13658.96158383486
 21
-1714.333600918676
 31
0.0
  0
SOLID
  5
4F6B
330
41BF
100
AcDbEntity
  8
KOTIERUNG
 62
     0
100
AcDbTrace
 10
14792.29491683486
 20
-1697.666934252009
 30
0.0
 11
14792.29491683486
 21
-1731.000267585342
 31
0.0
 12
14892.29491683486
 22
-1714.333600918676
 32
0.0
 13
14892.29491683486
 23
-1714.333600918676
 33
0.0
  0
SOLID
  5
4F6C
330
41BF
100
AcDbEntity
  8
KOTIERUNG
 62
     0
100
AcDbTrace
 10
13658.96158383486
 20
-1697.666934252009
 30
0.0
 11
13658.96158383486
 21
-1731.000267585342
 31
0.0
 12
13558.96158383486
 22
-1714.333600918676
 32
0.0
 13
13558.96158383486
 23
-1714.333600918676
 33
0.0
  0
MTEXT
  5
4F6D
330
41BF
100
AcDbEntity
  8
KOTIERUNG
 62
     0
100
AcDbMText
 10
14225.62825033486
 20
-1629.23810296506
 30
0.0
 40
100.0
 41
0.0
 71
     5
 72
     1
  1
1333,33
 73
     1
 44
1.0
1001
ACAD
1000
MTEXTBEGIN
1070
    73
1070
     1
1070
    44
1040
1.0
1070
    74
1070
     0
1000
MTEXTEND
  0
POINT
  5
4F6E
330
41BF
100
AcDbEntity
  8
DEFPOINTS
 62
     0
100
AcDbPoint
 10
14892.29491683486
 20
-1826.630400554224
 30
0.0
  0
POINT
  5
4F6F
330
41BF
100
AcDbEntity
  8
DEFPOINTS
 62
     0
100
AcDbPoint
 10
13558.96158383486
 20
-1826.630400554225
 30
0.0
  0
POINT
  5
4F70
330
41BF
100
AcDbEntity
  8
DEFPOINTS
 62
     0
100
AcDbPoint
 10
13558.96158383486
 20
-1714.333600918676
 30
0.0
  0
ENDBLK
  5
41CA
330
41BF
100
AcDbEntity
  8
0
100
AcDbBlockEnd
  0
BLOCK
  5
41D5
330
41CB
100
AcDbEntity
  8
0
100
AcDbBlockBegin
  2
*D8
 70
     1
 10
0.0
 20
0.0
 30
0.0
  3
*D8
  1

  0
LINE
  5
4F5F
330
41CB
100
AcDbEntity
  8
KOTIERUNG
 62
     0
370
    -2
100
AcDbLine
 10
14892.29491683487
 20
-1781.75575458914
 30
0.0
 11
14892.29491683487
 21
-1457.908922481787
 31
0.0
  0
LINE
  5
4F60
330
41CB
100
AcDbEntity
  8
KOTIERUNG
 62
     0
370
    -2
100
AcDbLine
 10
10892.29491683485
 20
-1801.630400554223
 30
0.0
 11
10892.29491683485
 21
-1457.908922481787
 31
0.0
  0
LINE
  5
4F61
330
41CB
100
AcDbEntity
  8
KOTIERUNG
 62
     0
370
    -2
100
AcDbLine
 10
14792.29491683487
 20
-1507.908922481787
 30
0.0
 11
10992.29491683485
 21
-1507.908922481787
 31
0.0
  0
SOLID
  5
4F62
330
41CB
100
AcDbEntity
  8
KOTIERUNG
 62
     0
100
AcDbTrace
 10
14792.29491683487
 20
-1491.24225581512
 30
0.0
 11
14792.29491683487
 21
-1524.575589148454
 31
0.0
 12
14892.29491683487
 22
-1507.908922481787
 32
0.0
 13
14892.29491683487
 23
-1507.908922481787
 33
0.0
  0
SOLID
  5
4F63
330
41CB
100
AcDbEntity
  8
KOTIERUNG
 62
     0
100
AcDbTrace
 10
10992.29491683485
 20
-1491.24225581512
 30
0.0
 11
10992.29491683485
 21
-1524.575589148454
 31
0.0
 12
10892.29491683485
 22
-1507.908922481787
 32
0.0
 13
10892.29491683485
 23
-1507.908922481787
 33
0.0
  0
MTEXT
  5
4F64
102
{ACAD_XDICTIONARY
360
57C6
102
}
330
41CB
100
AcDbEntity
  8
KOTIERUNG
 62
     0
100
AcDbMText
 10
12892.29491683486
 20
-1431.851623709618
 30
0.0
 40
100.0
 41
0.0
 71
     5
 72
     1
  1
4000\U+00B17
 73
     1
 44
1.0
1001
ACAD
1000
MTEXTBEGIN
1070
    73
1070
     1
1070
    44
1040
1.0
1070
    74
1070
     0
1000
MTEXTEND
  0
POINT
  5
4F65
330
41CB
100
AcDbEntity
  8
DEFPOINTS
 62
     0
100
AcDbPoint
 10
14892.29491683487
 20
-1806.75575458914
 30
0.0
  0
POINT
  5
4F66
330
41CB
100
AcDbEntity
  8
DEFPOINTS
 62
     0
100
AcDbPoint
 10
10892.29491683485
 20
-1826.630400554223
 30
0.0
  0
POINT
  5
4F67
330
41CB
100
AcDbEntity
  8
DEFPOINTS
 62
     0
100
AcDbPoint
 10
10892.29491683485
 20
-1507.908922481787
 30
0.0
  0
ENDBLK
  5
41D6
330
41CB
100
AcDbEntity
  8
0
100
AcDbBlockEnd
  0
BLOCK
  5
4216
330
420C
100
AcDbEntity
  8
0
100
AcDbBlockBegin
  2
*D9
 70
     1
 10
0.0
 20
0.0
 30
0.0
  3
*D9
  1

  0
LINE
  5
557A
330
420C
100
AcDbEntity
  8
0
 62
     0
370
    -2
100
AcDbLine
 10
12666.95097935939
 20
-234.2952312479974
 30
0.0
 11
12630.2028341603
 21
-234.2952312479974
 31
0.0
  0
LINE
  5
557B
330
420C
100
AcDbEntity
  8
0
 62
     0
370
    -2
100
AcDbLine
 10
12898.42194059326
 20
79.54834850618408
 30
0.0
 11
12630.2028341603
 21
79.54834850618417
 31
0.0
  0
LINE
  5
557C
330
420C
100
AcDbEntity
  8
0
 62
     0
370
    -2
100
AcDbLine
 10
12645.2028341603
 20
-204.2952312479974
 30
0.0
 11
12645.2028341603
 21
49.54834850618416
 31
0.0
  0
SOLID
  5
557D
330
420C
100
AcDbEntity
  8
0
 62
     0
100
AcDbTrace
 10
12640.2028341603
 20
-204.2952312479974
 30
0.0
 11
12650.2028341603
 21
-204.2952312479974
 31
0.0
 12
12645.2028341603
 22
-234.2952312479974
 32
0.0
 13
12645.2028341603
 23
-234.2952312479974
 33
0.0
  0
SOLID
  5
557E
330
420C
100
AcDbEntity
  8
0
 62
     0
100
AcDbTrace
 10
12640.2028341603
 20
49.54834850618416
 30
0.0
 11
12650.2028341603
 21
49.54834850618416
 31
0.0
 12
12645.2028341603
 22
79.54834850618415
 32
0.0
 13
12645.2028341603
 23
79.54834850618415
 33
0.0
  0
MTEXT
  5
557F
102
{ACAD_XDICTIONARY
360
57C8
102
}
330
420C
100
AcDbEntity
  8
0
 62
     0
100
AcDbMText
 10
12622.38564452865
 20
-57.34784959515855
 30
0.0
 40
30.0
 41
0.0
 71
     5
 72
     1
  1
\A1;310{\H0.75x;\U+00B140}
 11
0.0000000000000001
 21
1.0
 31
0.0
 73
     1
 44
1.0
1001
ACAD
1000
MTEXTBEGIN
1070
    73
1070
     1
1070
    44
1040
1.0
1070
    74
1070
     0
1000
MTEXTEND
  0
POINT
  5
5580
330
420C
100
AcDbEntity
  8
DEFPOINTS
 62
     0
100
AcDbPoint
 10
12674.45097935939
 20
-234.2952312479974
 30
0.0
  0
POINT
  5
5581
330
420C
100
AcDbEntity
  8
DEFPOINTS
 62
     0
100
AcDbPoint
 10
12905.92194059327
 20
79.54834850618408
 30
0.0
  0
POINT
  5
5582
330
420C
100
AcDbEntity
  8
DEFPOINTS
 62
     0
100
AcDbPoint
 10
12645.2028341603
 20
79.54834850618415
 30
0.0
  0
ENDBLK
  5
4217
330
420C
100
AcDbEntity
  8
0
100
AcDbBlockEnd
  0
BLOCK
  5
4221
330
4218
100
AcDbEntity
  8
0
100
AcDbBlockBegin
  2
*D10
 70
     1
 10
0.0
 20
0.0
 30
0.0
  3
*D10
  1

  0
LINE
  5
55DD
330
4218
100
AcDbEntity
  8
0
 62
     0
370
    -2
100
AcDbLine
 10
12661.0828739463
 20
272.3555341048749
 30
0.0
 11
12661.70949621938
 21
247.0882543404363
 31
0.0
  0
LINE
  5
55DE
330
4218
100
AcDbEntity
  8
0
 62
     0
370
    -2
100
AcDbLine
 10
12960.93391115288
 20
281.424457010792
 30
0.0
 11
12961.60099888375
 21
254.5254892477958
 31
0.0
  0
LINE
  5
55DF
330
4218
100
AcDbEntity
  8
0
 62
     0
370
    -2
100
AcDbLine
 10
12691.32839311764
 20
262.8274076381911
 30
0.0
 11
12931.23833810659
 21
268.7771147877512
 31
0.0
  0
SOLID
  5
55E0
330
4218
100
AcDbEntity
  8
0
 62
     0
100
AcDbTrace
 10
12691.20443247116
 20
267.8258707778094
 30
0.0
 11
12691.45235376413
 21
257.8289444985727
 31
0.0
 12
12661.33761427993
 22
262.0836437592914
 32
0.0
 13
12661.33761427993
 23
262.0836437592914
 33
0.0
  0
SOLID
  5
55E1
330
4218
100
AcDbEntity
  8
0
 62
     0
100
AcDbTrace
 10
12931.11437746011
 20
273.7755779273695
 30
0.0
 11
12931.36229875308
 21
263.7786516481328
 31
0.0
 12
12961.2291169443
 22
269.5208786666508
 32
0.0
 13
12961.2291169443
 23
269.5208786666508
 33
0.0
  0
MTEXT
  5
55E2
330
4218
100
AcDbEntity
  8
0
 62
     0
100
AcDbMText
 10
12823.50336110114
 20
288.9295192261056
 30
0.0
 40
30.0
 41
0.0
 71
     5
 72
     1
  1
300
 11
0.9996926279236722
 21
0.0247921292966571
 31
0.0
 73
     1
 44
1.0
1001
ACAD
1000
MTEXTBEGIN
1070
    73
1070
     1
1070
    44
1040
1.0
1070
    74
1070
     0
1000
MTEXTEND
  0
POINT
  5
55E3
330
4218
100
AcDbEntity
  8
DEFPOINTS
 62
     0
100
AcDbPoint
 10
12660.89693297657
 20
279.8532288143024
 30
0.0
  0
POINT
  5
55E4
330
4218
100
AcDbEntity
  8
DEFPOINTS
 62
     0
100
AcDbPoint
 10
12960.74797018316
 20
288.9221517202195
 30
0.0
  0
POINT
  5
55E5
330
4218
100
AcDbEntity
  8
DEFPOINTS
 62
     0
100
AcDbPoint
 10
12961.2291169443
 20
269.5208786666508
 30
0.0
  0
ENDBLK
  5
4222
330
4218
100
AcDbEntity
  8
0
100
AcDbBlockEnd
  0
BLOCK
  5
422D
330
4223
100
AcDbEntity
  8
0
100
AcDbBlockBegin
  2
*D11
 70
     1
 10
0.0
 20
0.0
 30
0.0
  3
*D11
  1

  0
LINE
  5
55B0
330
4223
100
AcDbEntity
  8
0
 62
     0
370
    -2
100
AcDbLine
 10
12751.49108877622
 20
635.8907097217334
 30
0.0
 11
13245.16243003993
 21
648.1336365786951
 31
0.0
  0
LINE
  5
55B1
330
4223
100
AcDbEntity
  8
0
 62
     0
370
    -2
100
AcDbLine
 10
13101.95378074757
 20
544.5513509264547
 30
0.0
 11
13247.6416429697
 21
548.1643737860901
 31
0.0
  0
LINE
  5
55B2
330
4223
100
AcDbEntity
  8
0
 62
     0
370
    -2
100
AcDbLine
 10
13230.91080450001
 20
617.7709758015221
 30
0.0
 11
13231.90248967191
 21
577.7832706843361
 31
0.0
  0
SOLID
  5
55B3
330
4223
100
AcDbEntity
  8
0
 62
     0
100
AcDbTrace
 10
13235.90926763962
 20
617.8949364480099
 30
0.0
 11
13225.91234136039
 21
617.6470151550343
 31
0.0
 12
13230.16704062108
 22
647.7617546392316
 32
0.0
 13
13230.16704062108
 23
647.7617546392316
 33
0.0
  0
SOLID
  5
55B4
330
4223
100
AcDbEntity
  8
0
 62
     0
100
AcDbTrace
 10
13236.90095281153
 20
577.907231330824
 30
0.0
 11
13226.9040265323
 21
577.6593100378483
 31
0.0
 12
13232.64625355084
 22
547.7924918466266
 32
0.0
 13
13232.64625355084
 23
547.7924918466266
 33
0.0
  0
MTEXT
  5
55B5
330
4223
100
AcDbEntity
  8
0
 62
     0
100
AcDbMText
 10
13254.21682335066
 20
598.3428099582734
 30
0.0
 40
30.0
 41
0.0
 71
     5
 72
     1
  1
100
 11
0.0247921292975666
 21
-0.9996926279236499
 31
0.0
 73
     1
 44
1.0
1001
ACAD
1000
MTEXTBEGIN
1070
    73
1070
     1
1070
    44
1040
1.0
1070
    74
1070
     0
1000
MTEXTEND
  0
POINT
  5
55B6
330
4223
100
AcDbEntity
  8
DEFPOINTS
 62
     0
100
AcDbPoint
 10
12743.99339406679
 20
635.7047687520016
 30
0.0
  0
POINT
  5
55B7
330
4223
100
AcDbEntity
  8
DEFPOINTS
 62
     0
100
AcDbPoint
 10
13094.45608603814
 20
544.3654099567229
 30
0.0
  0
POINT
  5
55B8
330
4223
100
AcDbEntity
  8
DEFPOINTS
 62
     0
100
AcDbPoint
 10
13232.64625355084
 20
547.7924918466266
 30
0.0
  0
ENDBLK
  5
422E
330
4223
100
AcDbEntity
  8
0
100
AcDbBlockEnd
  0
BLOCK
  5
4239
330
422F
100
AcDbEntity
  8
0
100
AcDbBlockBegin
  2
*D12
 70
     1
 10
0.0
 20
0.0
 30
0.0
  3
*D12
  1

  0
LINE
  5
5583
330
422F
100
AcDbEntity
  8
0
 62
     0
370
    -2
100
AcDbLine
 10
13101.95378074757
 20
544.5513509264547
 30
0.0
 11
13247.64164296946
 21
548.1643737860842
 31
0.0
  0
LINE
  5
5584
330
422F
100
AcDbEntity
  8
0
 62
     0
370
    -2
100
AcDbLine
 10
13144.25174640426
 20
-152.6442887132452
 30
0.0
 11
13264.94729292855
 21
-149.6510690860427
 31
0.0
  0
LINE
  5
5585
330
422F
100
AcDbEntity
  8
0
 62
     0
370
    -2
100
AcDbLine
 10
13233.39001742953
 20
517.8017130089113
 30
0.0
 11
13249.20813963077
 21
-120.0321721877967
 31
0.0
  0
SOLID
  5
5586
330
422F
100
AcDbEntity
  8
0
 62
     0
100
AcDbTrace
 10
13238.38848056915
 20
517.9256736553991
 30
0.0
 11
13228.39155428991
 21
517.6777523624235
 31
0.0
 12
13232.64625355061
 22
547.7924918466207
 32
0.0
 13
13232.64625355061
 23
547.7924918466207
 33
0.0
  0
SOLID
  5
5587
330
422F
100
AcDbEntity
  8
0
 62
     0
100
AcDbTrace
 10
13254.20660277038
 20
-119.9082115413089
 30
0.0
 11
13244.20967649115
 21
-120.1561328342845
 31
0.0
 12
13249.95190350969
 22
-150.0229510255062
 32
0.0
 13
13249.95190350969
 23
-150.0229510255062
 33
0.0
  0
MTEXT
  5
5588
330
422F
100
AcDbEntity
  8
0
 62
     0
100
AcDbMText
 10
13261.8027032782
 20
292.4574965556304
 30
0.0
 40
30.0
 41
0.0
 71
     5
 72
     1
  1
700
 11
0.0247921292975666
 21
-0.9996926279236499
 31
0.0
 73
     1
 44
1.0
1001
ACAD
1000
MTEXTBEGIN
1070
    73
1070
     1
1070
    44
1040
1.0
1070
    74
1070
     0
1000
MTEXTEND
  0
POINT
  5
5589
330
422F
100
AcDbEntity
  8
DEFPOINTS
 62
     0
100
AcDbPoint
 10
13094.45608603814
 20
544.3654099567229
 30
0.0
  0
POINT
  5
558A
330
422F
100
AcDbEntity
  8
DEFPOINTS
 62
     0
100
AcDbPoint
 10
13136.75405169483
 20
-152.830229682977
 30
0.0
  0
POINT
  5
558B
330
422F
100
AcDbEntity
  8
DEFPOINTS
 62
     0
100
AcDbPoint
 10
13249.95190350969
 20
-150.0229510255062
 30
0.0
  0
ENDBLK
  5
423A
330
422F
100
AcDbEntity
  8
0
100
AcDbBlockEnd
  0
BLOCK
  5
4245
330
423B
100
AcDbEntity
  8
0
100
AcDbBlockBegin
  2
*D13
 70
     1
 10
0.0
 20
0.0
 30
0.0
  3
*D13
  1

  0
LINE
  5
5716
330
423B
100
AcDbEntity
  8
0
 62
     0
370
    -2
100
AcDbLine
 10
12736.49339406679
 20
635.7047687520016
 30
0.0
 11
12556.6059242214
 21
635.7047687520016
 31
0.0
  0
LINE
  5
5717
330
423B
100
AcDbEntity
  8
0
 62
     0
370
    -2
100
AcDbLine
 10
12666.95097935939
 20
-234.2952312479984
 30
0.0
 11
12556.6059242214
 21
-234.2952312479983
 31
0.0
  0
LINE
  5
5718
330
423B
100
AcDbEntity
  8
0
 62
     0
370
    -2
100
AcDbLine
 10
12571.6059242214
 20
605.7047687520016
 30
0.0
 11
12571.6059242214
 21
-204.2952312479983
 31
0.0
  0
SOLID
  5
5719
330
423B
100
AcDbEntity
  8
0
 62
     0
100
AcDbTrace
 10
12566.6059242214
 20
605.7047687520016
 30
0.0
 11
12576.6059242214
 21
605.7047687520016
 31
0.0
 12
12571.6059242214
 22
635.7047687520016
 32
0.0
 13
12571.6059242214
 23
635.7047687520016
 33
0.0
  0
SOLID
  5
571A
330
423B
100
AcDbEntity
  8
0
 62
     0
100
AcDbTrace
 10
12566.6059242214
 20
-204.2952312479983
 30
0.0
 11
12576.6059242214
 21
-204.2952312479983
 31
0.0
 12
12571.6059242214
 22
-234.2952312479983
 32
0.0
 13
12571.6059242214
 23
-234.2952312479983
 33
0.0
  0
MTEXT
  5
571B
102
{ACAD_XDICTIONARY
360
57CE
102
}
330
423B
100
AcDbEntity
  8
0
 62
     0
100
AcDbMText
 10
12548.78873458975
 20
199.6557145567449
 30
0.0
 40
30.0
 41
0.0
 71
     5
 72
     1
  1
\A1;{\H0.875x;\U+2265}870{\H22.500000;\U+00B140}
 11
0.0000000000000001
 21
1.0
 31
0.0
 73
     1
 44
1.0
1001
ACAD
1000
MTEXTBEGIN
1070
    73
1070
     1
1070
    44
1040
1.0
1070
    74
1070
     0
1000
MTEXTEND
  0
POINT
  5
571C
330
423B
100
AcDbEntity
  8
DEFPOINTS
 62
     0
100
AcDbPoint
 10
12743.99339406679
 20
635.7047687520016
 30
0.0
  0
POINT
  5
571D
330
423B
100
AcDbEntity
  8
DEFPOINTS
 62
     0
100
AcDbPoint
 10
12674.45097935939
 20
-234.2952312479984
 30
0.0
  0
POINT
  5
571E
330
423B
100
AcDbEntity
  8
DEFPOINTS
 62
     0
100
AcDbPoint
 10
12571.6059242214
 20
-234.2952312479983
 30
0.0
  0
ENDBLK
  5
4246
330
423B
100
AcDbEntity
  8
0
100
AcDbBlockEnd
  0
BLOCK
  5
424F
330
4247
100
AcDbEntity
  8
0
100
AcDbBlockBegin
  2
*D14
 70
     1
 10
0.0
 20
0.0
 30
0.0
  3
*D14
  1

  0
LINE
  5
55A7
330
4247
100
AcDbEntity
  8
0
 62
     0
370
    -2
100
AcDbLine
 10
12960.93391115288
 20
281.424457010792
 30
0.0
 11
12961.60099888375
 21
254.5254892478701
 31
0.0
  0
LINE
  5
55A8
330
4247
100
AcDbEntity
  8
0
 62
     0
370
    -2
100
AcDbLine
 10
13102.79900940123
 20
207.9538463697083
 30
0.0
 11
13100.81420291419
 21
287.9871661871128
 31
0.0
  0
LINE
  5
55A9
330
4247
100
AcDbEntity
  8
0
 62
     0
370
    -2
100
AcDbLine
 10
12991.21989578201
 20
270.2646425456249
 30
0.0
 11
13071.19530601593
 21
272.2480128893581
 31
0.0
  0
SOLID
  5
55AA
330
4247
100
AcDbEntity
  8
0
 62
     0
100
AcDbTrace
 10
12991.09593513553
 20
275.2631056852433
 30
0.0
 11
12991.3438564285
 21
265.2661794060066
 31
0.0
 12
12961.2291169443
 22
269.5208786667253
 32
0.0
 13
12961.2291169443
 23
269.5208786667253
 33
0.0
  0
SOLID
  5
55AB
330
4247
100
AcDbEntity
  8
0
 62
     0
100
AcDbTrace
 10
13071.07134536945
 20
277.2464760289764
 30
0.0
 11
13071.31926666241
 21
267.2495497497397
 31
0.0
 12
13101.18608485364
 22
272.9917767682577
 32
0.0
 13
13101.18608485364
 23
272.9917767682577
 33
0.0
  0
MTEXT
  5
55AC
330
4247
100
AcDbEntity
  8
0
 62
     0
100
AcDbMText
 10
13030.64191418344
 20
294.0665039821892
 30
0.0
 40
30.0
 41
0.0
 71
     5
 72
     1
  1
140
 11
0.9996926279236722
 21
0.0247921292966571
 31
0.0
 73
     1
 44
1.0
1001
ACAD
1000
MTEXTBEGIN
1070
    73
1070
     1
1070
    44
1040
1.0
1070
    74
1070
     0
1000
MTEXTEND
  0
POINT
  5
55AD
330
4247
100
AcDbEntity
  8
DEFPOINTS
 62
     0
100
AcDbPoint
 10
12960.74797018316
 20
288.9221517202195
 30
0.0
  0
POINT
  5
55AE
330
4247
100
AcDbEntity
  8
DEFPOINTS
 62
     0
100
AcDbPoint
 10
13102.98495037096
 20
200.4561516602808
 30
0.0
  0
POINT
  5
55AF
330
4247
100
AcDbEntity
  8
DEFPOINTS
 62
     0
100
AcDbPoint
 10
13101.18608485364
 20
272.9917767682577
 30
0.0
  0
ENDBLK
  5
4250
330
4247
100
AcDbEntity
  8
0
100
AcDbBlockEnd
  0
BLOCK
  5
48DB
330
48D1
100
AcDbEntity
  8
0
100
AcDbBlockBegin
  2
*D15
 70
     1
 10
0.0
 20
0.0
 30
0.0
  3
*D15
  1

  0
LINE
  5
554B
330
48D1
100
AcDbEntity
  8
0
 62
     0
370
    -2
100
AcDbLine
 10
12888.35643019016
 20
-456.5606239608314
 30
0.0
 11
12775.04611161693
 21
-456.5606239608314
 31
0.0
  0
LINE
  5
554C
330
48D1
100
AcDbEntity
  8
0
 62
     0
370
    -2
100
AcDbLine
 10
12888.35643019016
 20
-836.5606239608315
 30
0.0
 11
12775.04611161693
 21
-836.5606239608315
 31
0.0
  0
LINE
  5
554D
330
48D1
100
AcDbEntity
  8
0
 62
     0
370
    -2
100
AcDbLine
 10
12790.04611161693
 20
-486.5606239608314
 30
0.0
 11
12790.04611161693
 21
-806.5606239608314
 31
0.0
  0
SOLID
  5
554E
330
48D1
100
AcDbEntity
  8
0
 62
     0
100
AcDbTrace
 10
12785.04611161693
 20
-486.5606239608314
 30
0.0
 11
12795.04611161693
 21
-486.5606239608314
 31
0.0
 12
12790.04611161693
 22
-456.5606239608314
 32
0.0
 13
12790.04611161693
 23
-456.5606239608314
 33
0.0
  0
SOLID
  5
554F
330
48D1
100
AcDbEntity
  8
0
 62
     0
100
AcDbTrace
 10
12785.04611161693
 20
-806.5606239608314
 30
0.0
 11
12795.04611161693
 21
-806.5606239608314
 31
0.0
 12
12790.04611161693
 22
-836.5606239608315
 32
0.0
 13
12790.04611161693
 23
-836.5606239608315
 33
0.0
  0
MTEXT
  5
5550
330
48D1
100
AcDbEntity
  8
0
 62
     0
100
AcDbMText
 10
12767.22892198528
 20
-646.5606239608294
 30
0.0
 40
30.0
 41
0.0
 71
     5
 72
     1
  1
380
 11
0.0000000000000001
 21
1.0
 31
0.0
 73
     1
 44
1.0
1001
ACAD
1000
MTEXTBEGIN
1070
    73
1070
     1
1070
    44
1040
1.0
1070
    74
1070
     0
1000
MTEXTEND
  0
POINT
  5
5551
330
48D1
100
AcDbEntity
  8
DEFPOINTS
 62
     0
100
AcDbPoint
 10
12895.85643019016
 20
-456.5606239608314
 30
0.0
  0
POINT
  5
5552
330
48D1
100
AcDbEntity
  8
DEFPOINTS
 62
     0
100
AcDbPoint
 10
12895.85643019016
 20
-836.5606239608315
 30
0.0
  0
POINT
  5
5553
330
48D1
100
AcDbEntity
  8
DEFPOINTS
 62
     0
100
AcDbPoint
 10
12790.04611161693
 20
-836.5606239608315
 30
0.0
  0
ENDBLK
  5
48DC
330
48D1
100
AcDbEntity
  8
0
100
AcDbBlockEnd
  0
BLOCK
  5
4940
330
4936
100
AcDbEntity
  8
0
100
AcDbBlockBegin
  2
*D16
 70
     1
 10
0.0
 20
0.0
 30
0.0
  3
*D16
  1

  0
LINE
  5
558C
330
4936
100
AcDbEntity
  8
0
 62
     0
370
    -2
100
AcDbLine
 10
12674.45097935939
 20
-226.7952312479983
 30
0.0
 11
12674.45097935939
 21
-45.40281665633483
 31
0.0
  0
LINE
  5
558D
330
4936
100
AcDbEntity
  8
0
 62
     0
370
    -2
100
AcDbLine
 10
12936.17733646192
 20
-124.5549446994337
 30
0.0
 11
12936.17733646192
 21
-45.40281665633483
 31
0.0
  0
LINE
  5
558E
330
4936
100
AcDbEntity
  8
0
 62
     0
370
    -2
100
AcDbLine
 10
12704.45097935939
 20
-60.40281665633483
 30
0.0
 11
12906.17733646192
 21
-60.40281665633483
 31
0.0
  0
SOLID
  5
558F
330
4936
100
AcDbEntity
  8
0
 62
     0
100
AcDbTrace
 10
12704.45097935939
 20
-55.40281665633483
 30
0.0
 11
12704.45097935939
 21
-65.40281665633483
 31
0.0
 12
12674.45097935939
 22
-60.40281665633483
 32
0.0
 13
12674.45097935939
 23
-60.40281665633483
 33
0.0
  0
SOLID
  5
5590
330
4936
100
AcDbEntity
  8
0
 62
     0
100
AcDbTrace
 10
12906.17733646192
 20
-55.40281665633483
 30
0.0
 11
12906.17733646192
 21
-65.40281665633483
 31
0.0
 12
12936.17733646192
 22
-60.40281665633483
 32
0.0
 13
12936.17733646192
 23
-60.40281665633483
 33
0.0
  0
MTEXT
  5
5591
330
4936
100
AcDbEntity
  8
0
 62
     0
100
AcDbMText
 10
12805.31415791065
 20
-37.58562702468409
 30
0.0
 40
30.0
 41
0.0
 71
     5
 72
     1
  1
262
 73
     1
 44
1.0
1001
ACAD
1000
MTEXTBEGIN
1070
    73
1070
     1
1070
    44
1040
1.0
1070
    74
1070
     0
1000
MTEXTEND
  0
POINT
  5
5592
330
4936
100
AcDbEntity
  8
DEFPOINTS
 62
     0
100
AcDbPoint
 10
12674.45097935939
 20
-234.2952312479984
 30
0.0
  0
POINT
  5
5593
330
4936
100
AcDbEntity
  8
DEFPOINTS
 62
     0
100
AcDbPoint
 10
12936.17733646192
 20
-132.0549446994337
 30
0.0
  0
POINT
  5
5594
330
4936
100
AcDbEntity
  8
DEFPOINTS
 62
     0
100
AcDbPoint
 10
12936.17733646192
 20
-60.40281665633483
 30
0.0
  0
ENDBLK
  5
4941
330
4936
100
AcDbEntity
  8
0
100
AcDbBlockEnd
  0
BLOCK
  5
56BB
330
56BA
100
AcDbEntity
  8
0
 62
     2
100
AcDbBlockBegin
  2
*D17
 70
     1
 10
0.0
 20
0.0
 30
0.0
  3
*D17
  1

  0
LINE
  5
56C6
330
56BA
100
AcDbEntity
  8
0
 62
     0
370
    -2
100
AcDbLine
 10
12666.95097935938
 20
-234.2952312479984
 30
0.0
 11
12620.82876364107
 21
-234.2952312479984
 31
0.0
  0
LINE
  5
56C7
330
56BA
100
AcDbEntity
  8
0
 62
     0
370
    -2
100
AcDbLine
 10
12686.75277920425
 20
-164.2952312479983
 30
0.0
 11
12620.82876364107
 21
-164.2952312479983
 31
0.0
  0
LINE
  5
56C8
330
56BA
100
AcDbEntity
  8
0
 62
     0
370
    -2
100
AcDbLine
 10
12635.82876364107
 20
-264.2952312479983
 30
0.0
 11
12635.82876364107
 21
-294.2952312479983
 31
0.0
  0
LINE
  5
56C9
330
56BA
100
AcDbEntity
  8
0
 62
     0
370
    -2
100
AcDbLine
 10
12635.82876364107
 20
-134.2952312479983
 30
0.0
 11
12635.82876364107
 21
-104.2952312479983
 31
0.0
  0
LINE
  5
56CA
330
56BA
100
AcDbEntity
  8
0
 62
     0
370
    -2
100
AcDbLine
 10
12635.82876364107
 20
-234.2952312479984
 30
0.0
 11
12635.82876364107
 21
-164.2952312479983
 31
0.0
  0
SOLID
  5
56CB
330
56BA
100
AcDbEntity
  8
0
 62
     0
100
AcDbTrace
 10
12630.82876364107
 20
-264.2952312479983
 30
0.0
 11
12640.82876364107
 21
-264.2952312479983
 31
0.0
 12
12635.82876364107
 22
-234.2952312479984
 32
0.0
 13
12635.82876364107
 23
-234.2952312479984
 33
0.0
  0
SOLID
  5
56CC
330
56BA
100
AcDbEntity
  8
0
 62
     0
100
AcDbTrace
 10
12630.82876364107
 20
-134.2952312479983
 30
0.0
 11
12640.82876364107
 21
-134.2952312479983
 31
0.0
 12
12635.82876364107
 22
-164.2952312479983
 32
0.0
 13
12635.82876364107
 23
-164.2952312479983
 33
0.0
  0
MTEXT
  5
56CD
330
56BA
100
AcDbEntity
  8
0
 62
     0
100
AcDbMText
 10
12613.01157400942
 20
-199.2952312479963
 30
0.0
 40
30.0
 41
0.0
 71
     5
 72
     1
  1
70
 11
0.0000000000000001
 21
1.0
 31
0.0
 73
     1
 44
1.0
1001
ACAD
1000
MTEXTBEGIN
1070
    73
1070
     1
1070
    44
1040
1.0
1070
    74
1070
     0
1000
MTEXTEND
  0
POINT
  5
56CE
330
56BA
100
AcDbEntity
  8
DEFPOINTS
 62
     0
100
AcDbPoint
 10
12674.45097935938
 20
-234.2952312479984
 30
0.0
  0
POINT
  5
56CF
330
56BA
100
AcDbEntity
  8
DEFPOINTS
 62
     0
100
AcDbPoint
 10
12694.25277920425
 20
-164.2952312479983
 30
0.0
  0
POINT
  5
56D0
330
56BA
100
AcDbEntity
  8
DEFPOINTS
 62
     0
100
AcDbPoint
 10
12635.82876364107
 20
-164.2952312479983
 30
0.0
  0
ENDBLK
  5
56BC
330
56BA
100
AcDbEntity
  8
0
 62
     2
100
AcDbBlockEnd
  0
BLOCK
  5
56DC
330
56DB
100
AcDbEntity
  8
0
 62
     2
100
AcDbBlockBegin
  2
*D18
 70
     1
 10
0.0
 20
0.0
 30
0.0
  3
*D18
  1

  0
LINE
  5
56E7
330
56DB
100
AcDbEntity
  8
0
 62
     0
370
    -2
100
AcDbLine
 10
12686.75277920425
 20
-164.2952312479983
 30
0.0
 11
12620.82876364107
 21
-164.2952312479983
 31
0.0
  0
LINE
  5
56E8
330
56DB
100
AcDbEntity
  8
0
 62
     0
370
    -2
100
AcDbLine
 10
12736.49339406679
 20
635.7047687520016
 30
0.0
 11
12620.82876364107
 21
635.7047687520016
 31
0.0
  0
LINE
  5
56E9
330
56DB
100
AcDbEntity
  8
0
 62
     0
370
    -2
100
AcDbLine
 10
12635.82876364107
 20
-134.2952312479983
 30
0.0
 11
12635.82876364107
 21
605.7047687520016
 31
0.0
  0
SOLID
  5
56EA
330
56DB
100
AcDbEntity
  8
0
 62
     0
100
AcDbTrace
 10
12630.82876364107
 20
-134.2952312479983
 30
0.0
 11
12640.82876364107
 21
-134.2952312479983
 31
0.0
 12
12635.82876364107
 22
-164.2952312479983
 32
0.0
 13
12635.82876364107
 23
-164.2952312479983
 33
0.0
  0
SOLID
  5
56EB
330
56DB
100
AcDbEntity
  8
0
 62
     0
100
AcDbTrace
 10
12630.82876364107
 20
605.7047687520016
 30
0.0
 11
12640.82876364107
 21
605.7047687520016
 31
0.0
 12
12635.82876364107
 22
635.7047687520016
 32
0.0
 13
12635.82876364107
 23
635.7047687520016
 33
0.0
  0
MTEXT
  5
56EC
330
56DB
100
AcDbEntity
  8
0
 62
     0
100
AcDbMText
 10
12613.01157400942
 20
235.7047687520037
 30
0.0
 40
30.0
 41
0.0
 71
     5
 72
     1
  1
800
 11
0.0000000000000001
 21
1.0
 31
0.0
 73
     1
 44
1.0
1001
ACAD
1000
MTEXTBEGIN
1070
    73
1070
     1
1070
    44
1040
1.0
1070
    74
1070
     0
1000
MTEXTEND
  0
POINT
  5
56ED
330
56DB
100
AcDbEntity
  8
DEFPOINTS
 62
     0
100
AcDbPoint
 10
12694.25277920425
 20
-164.2952312479983
 30
0.0
  0
POINT
  5
56EE
330
56DB
100
AcDbEntity
  8
DEFPOINTS
 62
     0
100
AcDbPoint
 10
12743.99339406679
 20
635.7047687520016
 30
0.0
  0
POINT
  5
56EF
330
56DB
100
AcDbEntity
  8
DEFPOINTS
 62
     0
100
AcDbPoint
 10
12635.82876364107
 20
635.7047687520016
 30
0.0
  0
ENDBLK
  5
56DD
330
56DB
100
AcDbEntity
  8
0
 62
     2
100
AcDbBlockEnd
  0
BLOCK
  5
5743
330
5742
100
AcDbEntity
  8
0
 62
     2
100
AcDbBlockBegin
  2
*D19
 70
     1
 10
0.0
 20
0.0
 30
0.0
  3
*D19
  1

  0
LINE
  5
5760
330
5742
100
AcDbEntity
  8
0
 62
     0
370
    -2
100
AcDbLine
 10
12701.75277920425
 20
-164.2952312479983
 30
0.0
 11
12741.77927396051
 21
-164.2952312479984
 31
0.0
  0
LINE
  5
5761
330
5742
100
AcDbEntity
  8
0
 62
     0
370
    -2
100
AcDbLine
 10
12898.52110911045
 20
75.54957799448935
 30
0.0
 11
12711.77927396051
 21
75.54957799448941
 31
0.0
  0
LINE
  5
5762
330
5742
100
AcDbEntity
  8
0
 62
     0
370
    -2
100
AcDbLine
 10
12726.77927396051
 20
-134.2952312479983
 30
0.0
 11
12726.77927396051
 21
45.54957799448941
 31
0.0
  0
SOLID
  5
5763
330
5742
100
AcDbEntity
  8
0
 62
     0
100
AcDbTrace
 10
12721.77927396051
 20
-134.2952312479983
 30
0.0
 11
12731.77927396051
 21
-134.2952312479983
 31
0.0
 12
12726.77927396051
 22
-164.2952312479983
 32
0.0
 13
12726.77927396051
 23
-164.2952312479983
 33
0.0
  0
SOLID
  5
5764
330
5742
100
AcDbEntity
  8
0
 62
     0
100
AcDbTrace
 10
12721.77927396051
 20
45.54957799448941
 30
0.0
 11
12731.77927396051
 21
45.54957799448941
 31
0.0
 12
12726.77927396051
 22
75.54957799448941
 32
0.0
 13
12726.77927396051
 23
75.54957799448941
 33
0.0
  0
MTEXT
  5
5765
330
5742
100
AcDbEntity
  8
0
 62
     0
100
AcDbMText
 10
12703.96208432886
 20
-3.295964931379157
 30
0.0
 40
30.0
 41
0.0
 71
     5
 72
     1
  1
240
 11
0.0000000000000001
 21
1.0
 31
0.0
 73
     1
 44
1.0
1001
ACAD
1000
MTEXTBEGIN
1070
    73
1070
     1
1070
    44
1040
1.0
1070
    74
1070
     0
1000
MTEXTEND
  0
POINT
  5
5766
330
5742
100
AcDbEntity
  8
DEFPOINTS
 62
     0
100
AcDbPoint
 10
12694.25277920425
 20
-164.2952312479983
 30
0.0
  0
POINT
  5
5767
330
5742
100
AcDbEntity
  8
DEFPOINTS
 62
     0
100
AcDbPoint
 10
12906.02110911045
 20
75.54957799448935
 30
0.0
  0
POINT
  5
5768
330
5742
100
AcDbEntity
  8
DEFPOINTS
 62
     0
100
AcDbPoint
 10
12726.77927396051
 20
75.54957799448941
 30
0.0
  0
ENDBLK
  5
5744
330
5742
100
AcDbEntity
  8
0
 62
     2
100
AcDbBlockEnd
  0
ENDSEC
  0
SECTION
  2
ENTITIES
  0
MTEXT
  5
10E0
330
18
100
AcDbEntity
  8
KOTIERUNG
100
AcDbMText
 10
7495.698312492914
 20
470.9395909145314
 30
0.0
 40
25.0
 41
0.0
 71
     4
 72
     1
  1
\A1;
  7
VOEST
 73
     1
 44
1.0
1001
ACAD
1000
MTEXTBEGIN
1070
    73
1070
     1
1070
    44
1040
1.0
1070
    74
1070
     0
1000
MTEXTEND
  0
LINE
  5
3E95
330
18
100
AcDbEntity
  8
25
100
AcDbLine
 10
10567.29491683487
 20
-1979.603075977499
 30
0.0
 11
10567.29491683487
 21
-2044.115932112554
 31
0.0
  0
LINE
  5
3E96
330
18
100
AcDbEntity
  8
18
  6
STRICHLINIE
 48
0.09
100
AcDbLine
 10
10757.29491683487
 20
-1979.603075977499
 30
0.0
 11
10757.29491683487
 21
-2044.115932112554
 31
0.0
  0
LINE
  5
3E97
330
18
100
AcDbEntity
  8
18
  6
STRICHLINIE
 48
0.09
100
AcDbLine
 10
14757.29491683487
 20
-1979.603075977499
 30
0.0
 11
14757.29491683487
 21
-2044.115932112554
 31
0.0
  0
LINE
  5
3E98
330
18
100
AcDbEntity
  8
25
100
AcDbLine
 10
14567.29491683487
 20
-1979.603075977499
 30
0.0
 11
14567.29491683487
 21
-2044.115932112554
 31
0.0
  0
LINE
  5
3E9D
330
18
100
AcDbEntity
  8
35
100
AcDbLine
 10
10850.21676589843
 20
-1979.603075977499
 30
0.0
 11
10496.839036908
 21
-1979.6030759775
 31
0.0
  0
LINE
  5
3E9E
330
18
100
AcDbEntity
  8
35
100
AcDbLine
 10
10837.29491683487
 20
-2044.115932112554
 30
0.0
 11
10496.839036908
 21
-2044.115932112553
 31
0.0
  0
LINE
  5
3E9F
330
18
100
AcDbEntity
  8
35
100
AcDbLine
 10
12170.62825083486
 20
-2044.115932112554
 30
0.0
 11
10947.29491683487
 21
-2044.115932112554
 31
0.0
  0
LINE
  5
3EA0
330
18
100
AcDbEntity
  8
35
100
AcDbLine
 10
12183.55009989843
 20
-1979.603075977499
 30
0.0
 11
10934.37306777132
 21
-1979.603075977499
 31
0.0
  0
LINE
  5
3EA1
330
18
100
AcDbEntity
  8
35
100
AcDbLine
 10
13516.88343289842
 20
-1979.603075977499
 30
0.0
 11
12267.70640177132
 21
-1979.603075977499
 31
0.0
  0
LINE
  5
3EA2
330
18
100
AcDbEntity
  8
35
100
AcDbLine
 10
13503.96158383487
 20
-2044.115932112554
 30
0.0
 11
12280.62825083486
 21
-2044.115932112554
 31
0.0
  0
LINE
  5
3EA3
330
18
100
AcDbEntity
  8
35
100
AcDbLine
 10
14850.21676589843
 20
-1979.603075977499
 30
0.0
 11
13601.03973477132
 21
-1979.603075977499
 31
0.0
  0
LINE
  5
3EA4
330
18
100
AcDbEntity
  8
35
100
AcDbLine
 10
14837.29491683487
 20
-2044.115932112554
 30
0.0
 11
13613.96158383487
 21
-2044.115932112554
 31
0.0
  0
LINE
  5
3ECF
330
18
100
AcDbEntity
  8
18
100
AcDbLine
 10
10869.79491683487
 20
-1833.630400554224
 30
0.0
 11
10869.79491683487
 21
-1860.886907931692
 31
0.0
  0
LINE
  5
3ED0
330
18
100
AcDbEntity
  8
18
100
AcDbLine
 10
10914.79491683487
 20
-1833.630400554224
 30
0.0
 11
10914.79491683487
 21
-1860.886907931692
 31
0.0
  0
LINE
  5
3ED1
330
18
100
AcDbEntity
  8
18
100
AcDbLine
 10
10839.69200959819
 20
-1871.886907931692
 30
0.0
 11
10839.74456719751
 21
-1845.704414001002
 31
0.0
  0
LINE
  5
3ED2
330
18
100
AcDbEntity
  8
18
100
AcDbLine
 10
10944.8452664715
 20
-1845.704414008474
 30
0.0
 11
10944.89782407156
 21
-1871.886907931692
 31
0.0
  0
ARC
  5
3ED3
330
18
100
AcDbEntity
  8
18
100
AcDbCircle
 10
10850.69200959819
 20
-1844.630400554224
 30
0.0
 40
10.99999999999931
100
AcDbArc
 50
90.0
 51
185.6031483295418
  0
LINE
  5
3ED4
330
18
100
AcDbEntity
  8
18
100
AcDbLine
 10
10850.69200959819
 20
-1833.630400554224
 30
0.0
 11
10869.79491683487
 21
-1833.630400554224
 31
0.0
  0
LINE
  5
3ED5
330
18
100
AcDbEntity
  8
18
100
AcDbLine
 10
10914.79491683487
 20
-1833.630400554224
 30
0.0
 11
10933.89782407156
 21
-1833.630400554224
 31
0.0
  0
ARC
  5
3ED6
330
18
100
AcDbEntity
  8
18
100
AcDbCircle
 10
10933.89782407156
 20
-1844.630400554224
 30
0.0
 40
11.0
100
AcDbArc
 50
354.3968516704582
 51
90.0
  0
LINE
  5
3ED9
330
18
100
AcDbEntity
  8
25
100
AcDbLine
 10
10850.69200959819
 20
-1860.886907931692
 30
0.0
 11
10869.79491683487
 21
-1860.886907931692
 31
0.0
  0
ARC
  5
3EDA
330
18
100
AcDbEntity
  8
25
100
AcDbCircle
 10
10850.69200959819
 20
-1871.886907931692
 30
0.0
 40
10.99999999999931
100
AcDbArc
 50
90.0
 51
185.6031483295418
  0
LINE
  5
3EDB
330
18
100
AcDbEntity
  8
25
100
AcDbLine
 10
10851.32111467713
 20
-1990.849055599619
 30
0.0
 11
10839.74456719752
 21
-1872.960921378568
 31
0.0
  0
ARC
  5
3EDC
330
18
100
AcDbEntity
  8
25
100
AcDbCircle
 10
10862.26855707779
 20
-1989.775042152743
 30
0.0
 40
11.0
100
AcDbArc
 50
185.6031483295418
 51
270.0
  0
LINE
  5
3EDD
330
18
100
AcDbEntity
  8
25
100
AcDbLine
 10
10892.29491683487
 20
-2000.775042152744
 30
0.0
 11
10862.26855707779
 21
-2000.775042152744
 31
0.0
  0
LINE
  5
3EDE
330
18
100
AcDbEntity
  8
25
100
AcDbLine
 10
10922.32127659195
 20
-2000.775042152744
 30
0.0
 11
10892.29491683487
 21
-2000.775042152744
 31
0.0
  0
ARC
  5
3EDF
330
18
100
AcDbEntity
  8
25
100
AcDbCircle
 10
10922.32127659195
 20
-1989.775042152743
 30
0.0
 40
11.00000000000089
100
AcDbArc
 50
270.0
 51
354.3968516704582
  0
LINE
  5
3EE0
330
18
100
AcDbEntity
  8
25
100
AcDbLine
 10
10944.84526647222
 20
-1872.960921378568
 30
0.0
 11
10933.26871899262
 21
-1990.849055599619
 31
0.0
  0
ARC
  5
3EE1
330
18
100
AcDbEntity
  8
25
100
AcDbCircle
 10
10933.89782407156
 20
-1871.886907931692
 30
0.0
 40
11.0
100
AcDbArc
 50
354.3968516704582
 51
90.0
  0
LINE
  5
3EE2
330
18
100
AcDbEntity
  8
25
100
AcDbLine
 10
10914.79491683487
 20
-1860.886907931692
 30
0.0
 11
10933.89782407156
 21
-1860.886907931692
 31
0.0
  0
LINE
  5
3EED
330
18
100
AcDbEntity
  8
KOTIERUNG
100
AcDbLine
 10
10947.29491683487
 20
-2000.77504215274
 30
0.0
 11
10837.29491683487
 21
-2000.77504215274
 31
0.0
  0
LWPOLYLINE
  5
3EEE
330
18
100
AcDbEntity
  8
18
100
AcDbPolyline
 90
        3
 70
     0
 43
0.0
 10
11082.29491683486
 20
-2044.115932112554
 10
11082.29491683486
 20
-2069.032532860195
 10
10947.29491683487
 20
-2069.032532860195
  0
LWPOLYLINE
  5
3EEF
330
18
100
AcDbEntity
  8
18
100
AcDbPolyline
 90
        4
 70
     0
 43
0.0
 10
10702.29491683486
 20
-1979.603075977499
 10
10702.29491683486
 20
-1809.032532860195
 10
11082.29491683486
 20
-1809.032532860195
 10
11082.29491683486
 20
-1979.603075977499
  0
LWPOLYLINE
  5
3EF0
330
18
100
AcDbEntity
  8
18
100
AcDbPolyline
 90
        3
 70
     0
 43
0.0
 10
10837.29491683487
 20
-2069.032532860195
 10
10702.29491683486
 20
-2069.032532860195
 10
10702.29491683486
 20
-2044.115932112554
  0
LINE
  5
3EF5
330
18
100
AcDbEntity
  8
18
100
AcDbLine
 10
12203.12825083486
 20
-1833.630400554224
 30
0.0
 11
12203.12825083486
 21
-1860.886907931692
 31
0.0
  0
LINE
  5
3EF6
330
18
100
AcDbEntity
  8
18
100
AcDbLine
 10
12248.12825083486
 20
-1833.630400554224
 30
0.0
 11
12248.12825083486
 21
-1860.886907931692
 31
0.0
  0
LINE
  5
3EF7
330
18
100
AcDbEntity
  8
18
100
AcDbLine
 10
12173.02534359818
 20
-1871.886907931692
 30
0.0
 11
12173.07790119751
 21
-1845.704414001002
 31
0.0
  0
LINE
  5
3EF8
330
18
100
AcDbEntity
  8
18
100
AcDbLine
 10
12278.17860047149
 20
-1845.704414008474
 30
0.0
 11
12278.23115807155
 21
-1871.886907931692
 31
0.0
  0
ARC
  5
3EF9
330
18
100
AcDbEntity
  8
18
100
AcDbCircle
 10
12184.02534359818
 20
-1844.630400554224
 30
0.0
 40
10.99999999999931
100
AcDbArc
 50
90.0
 51
185.6031483295418
  0
LINE
  5
3EFA
330
18
100
AcDbEntity
  8
18
100
AcDbLine
 10
12184.02534359819
 20
-1833.630400554224
 30
0.0
 11
12203.12825083486
 21
-1833.630400554224
 31
0.0
  0
LINE
  5
3EFB
330
18
100
AcDbEntity
  8
18
100
AcDbLine
 10
12248.12825083486
 20
-1833.630400554224
 30
0.0
 11
12267.23115807155
 21
-1833.630400554224
 31
0.0
  0
ARC
  5
3EFC
330
18
100
AcDbEntity
  8
18
100
AcDbCircle
 10
12267.23115807155
 20
-1844.630400554224
 30
0.0
 40
11.0
100
AcDbArc
 50
354.3968516704582
 51
90.0
  0
LINE
  5
3EFF
330
18
100
AcDbEntity
  8
25
100
AcDbLine
 10
12184.02534359819
 20
-1860.886907931692
 30
0.0
 11
12203.12825083486
 21
-1860.886907931692
 31
0.0
  0
ARC
  5
3F00
330
18
100
AcDbEntity
  8
25
100
AcDbCircle
 10
12184.02534359818
 20
-1871.886907931692
 30
0.0
 40
10.99999999999931
100
AcDbArc
 50
90.0
 51
185.6031483295418
  0
LINE
  5
3F01
330
18
100
AcDbEntity
  8
25
100
AcDbLine
 10
12184.65444867712
 20
-1990.849055599619
 30
0.0
 11
12173.07790119751
 21
-1872.960921378568
 31
0.0
  0
ARC
  5
3F02
330
18
100
AcDbEntity
  8
25
100
AcDbCircle
 10
12195.60189107779
 20
-1989.775042152743
 30
0.0
 40
11.0
100
AcDbArc
 50
185.6031483295418
 51
270.0
  0
LINE
  5
3F03
330
18
100
AcDbEntity
  8
25
100
AcDbLine
 10
12225.62825083487
 20
-2000.775042152744
 30
0.0
 11
12195.60189107779
 21
-2000.775042152744
 31
0.0
  0
LINE
  5
3F04
330
18
100
AcDbEntity
  8
25
100
AcDbLine
 10
12255.65461059195
 20
-2000.775042152744
 30
0.0
 11
12225.62825083487
 21
-2000.775042152744
 31
0.0
  0
ARC
  5
3F05
330
18
100
AcDbEntity
  8
25
100
AcDbCircle
 10
12255.65461059195
 20
-1989.775042152743
 30
0.0
 40
11.00000000000089
100
AcDbArc
 50
270.0
 51
354.3968516704582
  0
LINE
  5
3F06
330
18
100
AcDbEntity
  8
25
100
AcDbLine
 10
12278.17860047222
 20
-1872.960921378568
 30
0.0
 11
12266.60205299261
 21
-1990.849055599619
 31
0.0
  0
ARC
  5
3F07
330
18
100
AcDbEntity
  8
25
100
AcDbCircle
 10
12267.23115807155
 20
-1871.886907931692
 30
0.0
 40
11.0
100
AcDbArc
 50
354.3968516704582
 51
90.0
  0
LINE
  5
3F08
330
18
100
AcDbEntity
  8
25
100
AcDbLine
 10
12248.12825083486
 20
-1860.886907931692
 30
0.0
 11
12267.23115807155
 21
-1860.886907931692
 31
0.0
  0
LINE
  5
3F13
330
18
100
AcDbEntity
  8
KOTIERUNG
100
AcDbLine
 10
12280.62825083486
 20
-2000.77504215274
 30
0.0
 11
12170.62825083486
 21
-2000.77504215274
 31
0.0
  0
LWPOLYLINE
  5
3F14
330
18
100
AcDbEntity
  8
18
100
AcDbPolyline
 90
        3
 70
     0
 43
0.0
 10
12415.62825083486
 20
-2044.115932112554
 10
12415.62825083486
 20
-2069.032532860195
 10
12280.62825083486
 20
-2069.032532860195
  0
LWPOLYLINE
  5
3F15
330
18
100
AcDbEntity
  8
18
100
AcDbPolyline
 90
        4
 70
     0
 43
0.0
 10
12035.62825083486
 20
-1979.603075977499
 10
12035.62825083486
 20
-1809.032532860195
 10
12415.62825083486
 20
-1809.032532860195
 10
12415.62825083486
 20
-1979.603075977499
  0
LWPOLYLINE
  5
3F16
330
18
100
AcDbEntity
  8
18
100
AcDbPolyline
 90
        3
 70
     0
 43
0.0
 10
12170.62825083486
 20
-2069.032532860195
 10
12035.62825083486
 20
-2069.032532860195
 10
12035.62825083486
 20
-2044.115932112554
  0
LINE
  5
3F1B
330
18
100
AcDbEntity
  8
18
100
AcDbLine
 10
13536.46158383487
 20
-1833.630400554224
 30
0.0
 11
13536.46158383487
 21
-1860.886907931692
 31
0.0
  0
LINE
  5
3F1C
330
18
100
AcDbEntity
  8
18
100
AcDbLine
 10
13581.46158383487
 20
-1833.630400554224
 30
0.0
 11
13581.46158383487
 21
-1860.886907931692
 31
0.0
  0
LINE
  5
3F1D
330
18
100
AcDbEntity
  8
18
100
AcDbLine
 10
13506.35867659819
 20
-1871.886907931692
 30
0.0
 11
13506.41123419751
 21
-1845.704414001002
 31
0.0
  0
LINE
  5
3F1E
330
18
100
AcDbEntity
  8
18
100
AcDbLine
 10
13611.5119334715
 20
-1845.704414008474
 30
0.0
 11
13611.56449107155
 21
-1871.886907931692
 31
0.0
  0
ARC
  5
3F1F
330
18
100
AcDbEntity
  8
18
100
AcDbCircle
 10
13517.35867659818
 20
-1844.630400554224
 30
0.0
 40
10.99999999999931
100
AcDbArc
 50
90.0
 51
185.6031483295418
  0
LINE
  5
3F20
330
18
100
AcDbEntity
  8
18
100
AcDbLine
 10
13517.35867659819
 20
-1833.630400554224
 30
0.0
 11
13536.46158383487
 21
-1833.630400554224
 31
0.0
  0
LINE
  5
3F21
330
18
100
AcDbEntity
  8
18
100
AcDbLine
 10
13581.46158383487
 20
-1833.630400554224
 30
0.0
 11
13600.56449107155
 21
-1833.630400554224
 31
0.0
  0
ARC
  5
3F22
330
18
100
AcDbEntity
  8
18
100
AcDbCircle
 10
13600.56449107155
 20
-1844.630400554224
 30
0.0
 40
11.0
100
AcDbArc
 50
354.3968516704582
 51
90.0
  0
LINE
  5
3F25
330
18
100
AcDbEntity
  8
25
100
AcDbLine
 10
13517.35867659819
 20
-1860.886907931692
 30
0.0
 11
13536.46158383487
 21
-1860.886907931692
 31
0.0
  0
ARC
  5
3F26
330
18
100
AcDbEntity
  8
25
100
AcDbCircle
 10
13517.35867659818
 20
-1871.886907931692
 30
0.0
 40
10.99999999999931
100
AcDbArc
 50
90.0
 51
185.6031483295418
  0
LINE
  5
3F27
330
18
100
AcDbEntity
  8
25
100
AcDbLine
 10
13517.98778167712
 20
-1990.849055599619
 30
0.0
 11
13506.41123419752
 21
-1872.960921378568
 31
0.0
  0
ARC
  5
3F28
330
18
100
AcDbEntity
  8
25
100
AcDbCircle
 10
13528.93522407779
 20
-1989.775042152743
 30
0.0
 40
11.0
100
AcDbArc
 50
185.6031483295418
 51
270.0
  0
LINE
  5
3F29
330
18
100
AcDbEntity
  8
25
100
AcDbLine
 10
13558.96158383487
 20
-2000.775042152744
 30
0.0
 11
13528.93522407779
 21
-2000.775042152744
 31
0.0
  0
LINE
  5
3F2A
330
18
100
AcDbEntity
  8
25
100
AcDbLine
 10
13588.98794359195
 20
-2000.775042152744
 30
0.0
 11
13558.96158383487
 21
-2000.775042152744
 31
0.0
  0
ARC
  5
3F2B
330
18
100
AcDbEntity
  8
25
100
AcDbCircle
 10
13588.98794359195
 20
-1989.775042152743
 30
0.0
 40
11.00000000000089
100
AcDbArc
 50
270.0
 51
354.3968516704582
  0
LINE
  5
3F2C
330
18
100
AcDbEntity
  8
25
100
AcDbLine
 10
13611.51193347222
 20
-1872.960921378568
 30
0.0
 11
13599.93538599262
 21
-1990.849055599619
 31
0.0
  0
ARC
  5
3F2D
330
18
100
AcDbEntity
  8
25
100
AcDbCircle
 10
13600.56449107155
 20
-1871.886907931692
 30
0.0
 40
11.0
100
AcDbArc
 50
354.3968516704582
 51
90.0
  0
LINE
  5
3F2E
330
18
100
AcDbEntity
  8
25
100
AcDbLine
 10
13581.46158383487
 20
-1860.886907931692
 30
0.0
 11
13600.56449107155
 21
-1860.886907931692
 31
0.0
  0
LINE
  5
3F39
330
18
100
AcDbEntity
  8
KOTIERUNG
100
AcDbLine
 10
13613.96158383487
 20
-2000.77504215274
 30
0.0
 11
13503.96158383487
 21
-2000.77504215274
 31
0.0
  0
LWPOLYLINE
  5
3F3A
330
18
100
AcDbEntity
  8
18
100
AcDbPolyline
 90
        3
 70
     0
 43
0.0
 10
13748.96158383486
 20
-2044.115932112554
 10
13748.96158383486
 20
-2069.032532860195
 10
13613.96158383487
 20
-2069.032532860195
  0
LWPOLYLINE
  5
3F3B
330
18
100
AcDbEntity
  8
18
100
AcDbPolyline
 90
        4
 70
     0
 43
0.0
 10
13368.96158383486
 20
-1979.603075977499
 10
13368.96158383486
 20
-1809.032532860195
 10
13748.96158383486
 20
-1809.032532860195
 10
13748.96158383486
 20
-1979.603075977499
  0
LWPOLYLINE
  5
3F3C
330
18
100
AcDbEntity
  8
18
100
AcDbPolyline
 90
        3
 70
     0
 43
0.0
 10
13503.96158383487
 20
-2069.032532860195
 10
13368.96158383486
 20
-2069.032532860195
 10
13368.96158383486
 20
-2044.115932112554
  0
LINE
  5
3F41
330
18
100
AcDbEntity
  8
18
100
AcDbLine
 10
14869.79491683487
 20
-1833.630400554224
 30
0.0
 11
14869.79491683487
 21
-1860.886907931692
 31
0.0
  0
LINE
  5
3F42
330
18
100
AcDbEntity
  8
18
100
AcDbLine
 10
14914.79491683487
 20
-1833.630400554224
 30
0.0
 11
14914.79491683487
 21
-1860.886907931692
 31
0.0
  0
LINE
  5
3F43
330
18
100
AcDbEntity
  8
18
100
AcDbLine
 10
14839.69200959819
 20
-1871.886907931692
 30
0.0
 11
14839.74456719751
 21
-1845.704414001002
 31
0.0
  0
LINE
  5
3F44
330
18
100
AcDbEntity
  8
18
100
AcDbLine
 10
14944.8452664715
 20
-1845.704414008474
 30
0.0
 11
14944.89782407156
 21
-1871.886907931692
 31
0.0
  0
ARC
  5
3F45
330
18
100
AcDbEntity
  8
18
100
AcDbCircle
 10
14850.69200959818
 20
-1844.630400554224
 30
0.0
 40
10.99999999999931
100
AcDbArc
 50
90.0
 51
185.6031483295418
  0
LINE
  5
3F46
330
18
100
AcDbEntity
  8
18
100
AcDbLine
 10
14850.69200959819
 20
-1833.630400554224
 30
0.0
 11
14869.79491683487
 21
-1833.630400554224
 31
0.0
  0
LINE
  5
3F47
330
18
100
AcDbEntity
  8
18
100
AcDbLine
 10
14914.79491683487
 20
-1833.630400554224
 30
0.0
 11
14933.89782407156
 21
-1833.630400554224
 31
0.0
  0
ARC
  5
3F48
330
18
100
AcDbEntity
  8
18
100
AcDbCircle
 10
14933.89782407156
 20
-1844.630400554224
 30
0.0
 40
11.0
100
AcDbArc
 50
354.3968516704582
 51
90.0
  0
LINE
  5
3F4B
330
18
100
AcDbEntity
  8
25
100
AcDbLine
 10
14850.69200959819
 20
-1860.886907931692
 30
0.0
 11
14869.79491683487
 21
-1860.886907931692
 31
0.0
  0
ARC
  5
3F4C
330
18
100
AcDbEntity
  8
25
100
AcDbCircle
 10
14850.69200959818
 20
-1871.886907931692
 30
0.0
 40
10.99999999999931
100
AcDbArc
 50
90.0
 51
185.6031483295418
  0
LINE
  5
3F4D
330
18
100
AcDbEntity
  8
25
100
AcDbLine
 10
14851.32111467713
 20
-1990.849055599619
 30
0.0
 11
14839.74456719752
 21
-1872.960921378568
 31
0.0
  0
ARC
  5
3F4E
330
18
100
AcDbEntity
  8
25
100
AcDbCircle
 10
14862.26855707779
 20
-1989.775042152743
 30
0.0
 40
11.0
100
AcDbArc
 50
185.6031483295418
 51
270.0
  0
LINE
  5
3F4F
330
18
100
AcDbEntity
  8
25
100
AcDbLine
 10
14892.29491683487
 20
-2000.775042152744
 30
0.0
 11
14862.26855707779
 21
-2000.775042152744
 31
0.0
  0
LINE
  5
3F50
330
18
100
AcDbEntity
  8
25
100
AcDbLine
 10
14922.32127659195
 20
-2000.775042152744
 30
0.0
 11
14892.29491683487
 21
-2000.775042152744
 31
0.0
  0
ARC
  5
3F51
330
18
100
AcDbEntity
  8
25
100
AcDbCircle
 10
14922.32127659195
 20
-1989.775042152743
 30
0.0
 40
11.00000000000089
100
AcDbArc
 50
270.0
 51
354.3968516704582
  0
LINE
  5
3F52
330
18
100
AcDbEntity
  8
25
100
AcDbLine
 10
14944.84526647222
 20
-1872.960921378568
 30
0.0
 11
14933.26871899262
 21
-1990.849055599619
 31
0.0
  0
ARC
  5
3F53
330
18
100
AcDbEntity
  8
25
100
AcDbCircle
 10
14933.89782407156
 20
-1871.886907931692
 30
0.0
 40
11.0
100
AcDbArc
 50
354.3968516704582
 51
90.0
  0
LINE
  5
3F54
330
18
100
AcDbEntity
  8
25
100
AcDbLine
 10
14914.79491683487
 20
-1860.886907931692
 30
0.0
 11
14933.89782407156
 21
-1860.886907931692
 31
0.0
  0
LINE
  5
3F5F
330
18
100
AcDbEntity
  8
KOTIERUNG
100
AcDbLine
 10
14947.29491683487
 20
-2000.77504215274
 30
0.0
 11
14837.29491683487
 21
-2000.77504215274
 31
0.0
  0
LWPOLYLINE
  5
3F60
330
18
100
AcDbEntity
  8
18
100
AcDbPolyline
 90
        3
 70
     0
 43
0.0
 10
15082.29491683486
 20
-2044.115932112554
 10
15082.29491683486
 20
-2069.032532860195
 10
14947.29491683487
 20
-2069.032532860195
  0
LWPOLYLINE
  5
3F61
330
18
100
AcDbEntity
  8
18
100
AcDbPolyline
 90
        4
 70
     0
 43
0.0
 10
14702.29491683486
 20
-1979.603075977499
 10
14702.29491683486
 20
-1809.032532860195
 10
15082.29491683486
 20
-1809.032532860195
 10
15082.29491683486
 20
-1979.603075977499
  0
LWPOLYLINE
  5
3F62
330
18
100
AcDbEntity
  8
18
100
AcDbPolyline
 90
        3
 70
     0
 43
0.0
 10
14837.29491683487
 20
-2069.032532860195
 10
14702.29491683486
 20
-2069.032532860195
 10
14702.29491683486
 20
-2044.115932112554
  0
LINE
  5
3F64
330
18
100
AcDbEntity
  8
35
100
AcDbLine
 10
15335.09476314626
 20
-1979.603075977499
 30
0.0
 11
14934.37306777132
 21
-1979.603075977499
 31
0.0
  0
LINE
  5
3F65
330
18
100
AcDbEntity
  8
35
100
AcDbLine
 10
15340.78976461392
 20
-2044.115932112554
 30
0.0
 11
14947.29491683487
 21
-2044.115932112554
 31
0.0
  0
CIRCLE
  5
3FFD
330
18
100
AcDbEntity
  8
18
100
AcDbCircle
 10
12955.85643019016
 20
-766.4513889389382
 30
0.0
 40
8.0
  0
LWPOLYLINE
  5
3FFE
330
18
100
AcDbEntity
  8
18
100
AcDbPolyline
 90
        6
 70
     1
 43
0.0
 10
12967.85643019016
 20
-759.5231857086628
 10
12955.85643019016
 20
-752.5949824783874
 10
12943.85643019016
 20
-759.5231857086628
 10
12943.85643019016
 20
-773.3795921692135
 10
12955.85643019016
 20
-780.3077953994889
 10
12967.85643019016
 20
-773.3795921692135
  0
CIRCLE
  5
3FFF
330
18
100
AcDbEntity
  8
18
100
AcDbCircle
 10
12955.85643019016
 20
-766.4513889389382
 30
0.0
 40
20.0
  0
CIRCLE
  5
4000
330
18
100
AcDbEntity
  8
18
100
AcDbCircle
 10
12955.85643019016
 20
-526.6698589827283
 30
0.0
 40
8.0
  0
LWPOLYLINE
  5
4001
330
18
100
AcDbEntity
  8
18
100
AcDbPolyline
 90
        6
 70
     1
 43
0.0
 10
12967.85643019016
 20
-519.741655752453
 10
12955.85643019016
 20
-512.8134525221776
 10
12943.85643019016
 20
-519.741655752453
 10
12943.85643019016
 20
-533.5980622130036
 10
12955.85643019016
 20
-540.526265443279
 10
12967.85643019016
 20
-533.5980622130036
  0
CIRCLE
  5
4002
330
18
100
AcDbEntity
  8
18
100
AcDbCircle
 10
12955.85643019016
 20
-526.6698589827283
 30
0.0
 40
20.0
  0
LWPOLYLINE
  5
4003
330
18
100
AcDbEntity
  8
18
100
AcDbPolyline
 90
        4
 70
     1
 43
0.0
 10
12930.85643019016
 20
-816.5606239608287
 10
12980.85643019016
 20
-816.5606239608287
 10
12980.85643019016
 20
-476.5606239608286
 10
12930.85643019016
 20
-476.5606239608286
  0
LWPOLYLINE
  5
4004
330
18
100
AcDbEntity
  8
25
100
AcDbPolyline
 90
        4
 70
     1
 43
0.0
 10
12960.79836339286
 20
367.5609106752718
 10
12962.79774864872
 20
367.6104949338651
 10
12959.82269313309
 20
487.5736102847067
 10
12957.82330787724
 20
487.5240260261125
  0
DIMENSION
  5
4005
330
18
100
AcDbEntity
  8
0
100
AcDbDimension
  2
*D0
 10
12895.85643019016
 20
-900.1314377239369
 30
0.0
 11
12925.85643019016
 21
-900.1314377239369
 31
0.0
 70
   160
 71
     5
 42
60.0
  3
ISO-25
100
AcDbAlignedDimension
 13
12955.85643019016
 23
-791.4513889389418
 33
0.0
 14
12895.85643019016
 24
-836.5606239608315
 34
0.0
100
AcDbRotatedDimension
1001
ACAD
1000
DSTYLE
1002
{
1070
    40
1040
12.0
1002
}
  0
DIMENSION
  5
4006
330
18
100
AcDbEntity
  8
0
100
AcDbDimension
  2
*D1
 10
12895.85643019016
 20
-968.292761297147
 30
0.0
 11
13025.85643019017
 21
-968.292761297147
 31
0.0
 70
   160
 71
     5
 42
260.0
  3
ISO-25
100
AcDbAlignedDimension
 13
13155.85643019016
 23
-836.5606239608315
 33
0.0
 14
12895.85643019016
 24
-836.5606239608315
 34
0.0
100
AcDbRotatedDimension
1001
ACAD
1000
DSTYLE
1002
{
1070
    40
1040
12.0
1002
}
  0
LINE
  5
4007
330
18
100
AcDbEntity
  8
50
100
AcDbLine
 10
12895.85643019016
 20
-786.4513889389709
 30
0.0
 11
12895.85643019016
 21
-646.560623960846
 31
0.0
  0
LINE
  5
4008
330
18
100
AcDbEntity
  8
50
100
AcDbLine
 10
12895.85643019016
 20
-506.6698589827283
 30
0.0
 11
12895.85643019016
 21
-646.560623960846
 31
0.0
  0
LWPOLYLINE
  5
4009
330
18
100
AcDbEntity
  8
50
100
AcDbPolyline
 90
        4
 70
     1
 43
0.0
 10
12895.85643019016
 20
-456.5606239608314
 10
12895.85643019016
 20
-836.5606239608315
 10
13155.85643019016
 20
-836.5606239608315
 10
13155.85643019016
 20
-456.5606239608314
  0
DIMENSION
  5
400C
330
18
100
AcDbEntity
  8
0
100
AcDbDimension
  2
*D2
 10
12850.99598473319
 20
-766.4513889389418
 30
0.0
 11
12850.99598473319
 21
-646.5606239608314
 31
0.0
 70
   160
 71
     5
 42
239.7815299562135
  3
ISO-25
100
AcDbAlignedDimension
 13
12935.85643019016
 23
-526.6698589827283
 33
0.0
 14
12937.50450937516
 24
-766.4513889389418
 34
0.0
 50
270.0
100
AcDbRotatedDimension
1001
ACAD
1000
DSTYLE
1002
{
1070
    40
1040
12.0
1070
   271
1070
     0
1002
}
  0
DIMENSION
  5
400D
330
18
100
AcDbEntity
  8
0
100
AcDbDimension
  2
*D3
 10
12850.99598473319
 20
-456.5606239608314
 30
0.0
 11
12850.99598473319
 21
-491.6152414717778
 31
0.0
 70
   160
 71
     5
 42
70.10923502189689
  3
ISO-25
100
AcDbAlignedDimension
 13
12910.72716786918
 23
-526.6698589827283
 33
0.0
 14
12895.85643019016
 24
-456.5606239608314
 34
0.0
 50
270.0
100
AcDbRotatedDimension
1001
ACAD
1000
DSTYLE
1002
{
1070
   271
1070
     0
1070
    40
1040
12.0
1002
}
  0
LINE
  5
400E
330
18
100
AcDbEntity
  8
18
  6
STRICHPUNKT
100
AcDbLine
 10
12955.85643019016
 20
-499.0023202777447
 30
0.0
 11
12955.85643019016
 21
-554.3373976877046
 31
0.0
  0
LINE
  5
400F
330
18
100
AcDbEntity
  8
18
  6
STRICHPUNKT
100
AcDbLine
 10
12937.50450937516
 20
-526.6698589827283
 30
0.0
 11
12974.20835100517
 21
-526.6698589827283
 31
0.0
  0
LINE
  5
4010
330
18
100
AcDbEntity
  8
18
  6
STRICHPUNKT
100
AcDbLine
 10
12937.50450937516
 20
-766.4513889389418
 30
0.0
 11
12974.20835100517
 21
-766.4513889389418
 31
0.0
  0
LINE
  5
4011
330
18
100
AcDbEntity
  8
18
  6
STRICHPUNKT
100
AcDbLine
 10
12955.85643019016
 20
-738.7838502339582
 30
0.0
 11
12955.85643019016
 21
-794.1189276439181
 31
0.0
  0
ELLIPSE
  5
4014
330
18
100
AcDbEntity
  8
18
100
AcDbEllipse
 10
12927.20847602287
 20
-138.0002583279884
 30
0.0
 11
2.893939813432675
 21
0.0717689898164275
 31
0.0
210
0.0
220
0.0
230
1.0
 40
0.352523008751315
 41
3.141592653588848
 42
4.712388980384107
  0
ELLIPSE
  5
4015
330
18
100
AcDbEntity
  8
18
100
AcDbEllipse
 10
12926.92479808023
 20
-126.5615172436028
 30
0.0
 11
2.893939813432724
 21
0.0717689898144606
 31
0.0
210
0.0
220
0.0
230
-1.0
 40
0.352523008751315
 41
3.141592653588809
 42
4.712388980385032
  0
ELLIPSE
  5
4016
330
18
100
AcDbEntity
  8
18
100
AcDbEllipse
 10
12945.4298748436
 20
-137.5483721552627
 30
0.0
 11
2.893939813432724
 21
0.0717689898144606
 31
0.0
210
0.0
220
0.0
230
-1.0
 40
0.352523008751315
 41
-0.0000000000009839
 42
1.570796326795239
  0
ELLIPSE
  5
4017
330
18
100
AcDbEntity
  8
18
100
AcDbEllipse
 10
12945.14619690096
 20
-126.109631070879
 30
0.0
 11
2.893939813432675
 21
0.0717689898164275
 31
0.0
210
0.0
220
0.0
230
1.0
 40
0.352523008751315
 41
-0.000000000000945
 42
1.570796326794314
  0
ELLIPSE
  5
4018
330
18
100
AcDbEntity
  8
18
100
AcDbEllipse
 10
12933.42523561981
 20
-137.8460842314407
 30
0.0
 11
2.893939813432724
 21
0.0717689898144606
 31
0.0
210
0.0
220
0.0
230
-1.0
 40
0.352523008751315
 41
-0.0000000000009839
 42
1.570796326795239
  0
ELLIPSE
  5
4019
330
18
100
AcDbEntity
  8
18
100
AcDbEllipse
 10
12939.21311524666
 20
-137.7025462518095
 30
0.0
 11
2.893939813432675
 21
0.0717689898164275
 31
0.0
210
0.0
220
0.0
230
1.0
 40
0.352523008751315
 41
3.141592653588848
 42
4.712388980384107
  0
ELLIPSE
  5
401A
330
18
100
AcDbEntity
  8
18
100
AcDbEllipse
 10
12933.42523561981
 20
-137.8460842314407
 30
0.0
 11
2.893939813432724
 21
0.0717689898144606
 31
0.0
210
0.0
220
0.0
230
-1.0
 40
0.352523008751315
 41
-0.0000000000009839
 42
1.570796326795239
  0
ELLIPSE
  5
401B
330
18
100
AcDbEntity
  8
18
100
AcDbEllipse
 10
12939.21311524666
 20
-137.7025462518095
 30
0.0
 11
2.893939813432675
 21
0.0717689898164275
 31
0.0
210
0.0
220
0.0
230
1.0
 40
0.352523008751315
 41
3.141592653588848
 42
4.712388980384107
  0
ELLIPSE
  5
401C
330
18
100
AcDbEntity
  8
18
100
AcDbEllipse
 10
12938.92943730403
 20
-126.2638051674248
 30
0.0
 11
2.893939813432724
 21
0.0717689898144606
 31
0.0
210
0.0
220
0.0
230
-1.0
 40
0.352523008751315
 41
3.141592653588809
 42
4.712388980385032
  0
ELLIPSE
  5
401D
330
18
100
AcDbEntity
  8
18
100
AcDbEllipse
 10
12933.14155767717
 20
-126.407343147056
 30
0.0
 11
2.893939813432675
 21
0.0717689898164275
 31
0.0
210
0.0
220
0.0
230
1.0
 40
0.352523008751315
 41
-0.000000000000945
 42
1.570796326794314
  0
LINE
  5
401E
330
18
100
AcDbEntity
  8
18
100
AcDbLine
 10
12936.03549749059
 20
-126.3355741572431
 30
0.0
 11
12936.31917543323
 21
-137.7743152416242
 31
0.0
  0
LINE
  5
401F
330
18
100
AcDbEntity
  8
25
100
AcDbLine
 10
12924.00555804657
 20
-125.6131058632391
 30
-0.0000000000000013
 11
12948.01483649416
 21
-125.0176817108886
 31
0.0
  0
LINE
  5
4020
330
18
100
AcDbEntity
  8
25
100
AcDbLine
 10
12948.01483649416
 20
-125.0176817108886
 30
0.0
 11
12948.34911487725
 21
-138.496783535621
 31
0.0
  0
LINE
  5
4021
330
18
100
AcDbEntity
  8
25
100
AcDbLine
 10
12924.00555804657
 20
-125.6131058632391
 30
-0.0000000000000013
 11
12924.33983642967
 21
-139.0922076879787
 31
0.0
  0
LINE
  5
4022
330
18
100
AcDbEntity
  8
25
 48
10.0
100
AcDbLine
 10
12916.44979161217
 20
-143.2891087094312
 30
0.0
 11
12956.43749672912
 21
-142.2974235375622
 31
0.0
  0
CIRCLE
  5
4023
330
18
100
AcDbEntity
  8
25
100
AcDbCircle
 10
-12928.92719351089
 20
0.0
 30
-459.4713589287967
 40
11.0
210
-0.0247921292968735
220
0.9996926279236667
230
0.0
  0
CIRCLE
  5
4024
330
18
100
AcDbEntity
  8
25
100
AcDbCircle
 10
12928.92719351089
 20
0.0
 30
459.4713589287967
 40
11.0
210
0.0247921292968735
220
-0.9996926279236667
230
0.0
  0
CIRCLE
  5
4025
330
18
100
AcDbEntity
  8
25
100
AcDbCircle
 10
12928.92719351089
 20
0.0
 30
459.4713589287967
 40
8.299999999999982
210
0.0247921292968735
220
-0.9996926279236667
230
0.0
  0
CIRCLE
  5
4026
330
18
100
AcDbEntity
  8
25
100
AcDbCircle
 10
-12928.92719351089
 20
0.0
 30
-459.4713589287967
 40
8.299999999999982
210
-0.0247921292968735
220
0.9996926279236667
230
0.0
  0
LINE
  5
4027
330
18
100
AcDbEntity
  8
25
100
AcDbLine
 10
12947.34109456061
 20
-138.5217821895385
 30
0.0
 11
12925.3478567463
 21
-139.0672090340695
 31
0.0
  0
CIRCLE
  5
4028
330
18
100
AcDbEntity
  8
25
100
AcDbCircle
 10
12928.92719351089
 20
0.0
 30
459.4713589287967
 40
11.0
210
0.0247921292968735
220
-0.9996926279236667
230
0.0
  0
CIRCLE
  5
4029
330
18
100
AcDbEntity
  8
25
100
AcDbCircle
 10
12928.92719351089
 20
0.0
 30
459.4713589287967
 40
11.0
210
0.0247921292968735
220
-0.9996926279236667
230
0.0
  0
CIRCLE
  5
402A
330
18
100
AcDbEntity
  8
25
100
AcDbCircle
 10
12928.92719351089
 20
0.0
 30
459.4713589287967
 40
8.299999999999982
210
0.0247921292968735
220
-0.9996926279236667
230
0.0
  0
CIRCLE
  5
402B
330
18
100
AcDbEntity
  8
25
100
AcDbCircle
 10
12928.92719351089
 20
0.0
 30
459.4713589287967
 40
8.299999999999982
210
0.0247921292968735
220
-0.9996926279236667
230
0.0
  0
LINE
  5
402C
330
18
100
AcDbEntity
  8
Anker
  6
VERDECKT
 62
     1
 48
5.0
100
AcDbLine
 10
12931.02928906776
 20
-222.9521381141876
 30
0.0
 11
12931.19610937369
 21
-229.6788306075714
 31
0.0
  0
LINE
  5
402D
330
18
100
AcDbEntity
  8
Anker
  6
VERDECKT
 62
     1
 48
5.0
100
AcDbLine
 10
12931.02928906776
 20
-222.9521381141876
 30
0.0
 11
12945.82473996104
 21
-222.5852146005973
 31
0.0
  0
LINE
  5
402E
330
18
100
AcDbEntity
  8
Anker
  6
VERDECKT
 62
     1
 48
5.0
100
AcDbLine
 10
12946.47020945508
 20
-302.5938044438253
 30
0.0
 11
12934.3505602612
 21
-302.8943687387418
 31
0.0
  0
LINE
  5
402F
330
18
100
AcDbEntity
  8
25
100
AcDbLine
 10
12943.74500370971
 20
-124.6066598188172
 30
0.0
 11
12928.24976797689
 21
-124.9909378229231
 31
0.0
  0
LINE
  5
4030
330
18
100
AcDbEntity
  8
25
100
AcDbLine
 10
12929.55018125463
 20
-112.9549982970784
 30
0.0
 11
12941.84957932884
 21
-112.6499762744979
 31
0.0
  0
LINE
  5
4031
330
18
100
AcDbEntity
  8
25
100
AcDbLine
 10
12928.24976797689
 20
-124.9909378229231
 30
0.0
 11
12943.74500370971
 21
-124.6066598188172
 31
0.0
  0
LINE
  5
4032
330
18
100
AcDbEntity
  8
Anker
  6
VERDECKT
 62
     1
 48
5.0
100
AcDbLine
 10
12947.68414965829
 20
-297.5621616948674
 30
0.0
 11
12932.88869876502
 21
-297.9290852084659
 31
0.0
  0
LINE
  5
4033
330
18
100
AcDbEntity
  8
Anker
  6
VERDECKT
 62
     1
 48
5.0
100
AcDbLine
 10
12932.88869876502
 20
-297.9290852084659
 30
0.0
 11
12934.3505602612
 21
-302.8943687387418
 31
0.0
  0
LINE
  5
4034
330
18
100
AcDbEntity
  8
Anker
  6
VERDECKT
 62
     1
 48
5.0
100
AcDbLine
 10
12947.68414965829
 20
-297.5621616948674
 30
0.0
 11
12947.05223130053
 21
-300.1813907264132
 31
0.0
  0
LINE
  5
4035
330
18
100
AcDbEntity
  8
Anker
  6
VERDECKT
 62
     1
 48
5.0
100
AcDbLine
 10
12929.06790824369
 20
-157.9807945444036
 30
0.0
 11
12930.66431480857
 21
-222.352670593401
 31
0.0
  0
LINE
  5
4036
330
18
100
AcDbEntity
  8
Anker
  6
VERDECKT
 62
     1
 48
5.0
100
AcDbLine
 10
12931.02928906776
 20
-222.9521381141876
 30
0.0
 11
12930.66431480857
 21
-222.352670593401
 31
0.0
  0
LINE
  5
4037
330
18
100
AcDbEntity
  8
Anker
  6
VERDECKT
 62
     1
 48
5.0
100
AcDbLine
 10
12930.81324008811
 20
-290.877623965277
 30
0.0
 11
12949.22082432385
 21
-282.8882439783056
 31
0.0
  0
LINE
  5
4038
330
18
100
AcDbEntity
  8
Anker
  6
VERDECKT
 62
     1
 48
5.0
100
AcDbLine
 10
12930.44555800438
 20
-276.0515852607987
 30
0.0
 11
12948.85314224013
 21
-268.0622052738272
 31
0.0
  0
LINE
  5
4039
330
18
100
AcDbEntity
  8
Anker
  6
VERDECKT
 62
     1
 48
5.0
100
AcDbLine
 10
12930.07787592065
 20
-261.2255465563194
 30
0.0
 11
12948.48546015641
 21
-253.2361665693415
 31
0.0
  0
LINE
  5
403A
330
18
100
AcDbEntity
  8
Anker
  6
VERDECKT
 62
     1
 48
5.0
100
AcDbLine
 10
12929.71019383693
 20
-246.399507851841
 30
0.0
 11
12948.11777807268
 21
-238.4101278648632
 31
0.0
  0
LINE
  5
403B
330
18
100
AcDbEntity
  8
Anker
  6
VERDECKT
 62
     1
 48
5.0
100
AcDbLine
 10
12931.24960338515
 20
-231.8358687650834
 30
0.0
 11
12945.89649836844
 21
-225.4787277001769
 31
0.0
  0
LINE
  5
403C
330
18
100
AcDbEntity
  8
Anker
  6
VERDECKT
 62
     1
 48
5.0
100
AcDbLine
 10
12931.56379145743
 20
-244.5048693120498
 30
0.0
 11
12946.21068644071
 21
-238.1477282471424
 31
0.0
  0
LINE
  5
403D
330
18
100
AcDbEntity
  8
Anker
  6
VERDECKT
 62
     1
 48
5.0
100
AcDbLine
 10
12931.61728546889
 20
-246.6619074695618
 30
0.0
 11
12946.26418045217
 21
-240.3047664046626
 31
0.0
  0
LINE
  5
403E
330
18
100
AcDbEntity
  8
Anker
  6
VERDECKT
 62
     1
 48
5.0
100
AcDbLine
 10
12931.93147354115
 20
-259.3309080165282
 30
0.0
 11
12946.57836852444
 21
-252.9737669516208
 31
0.0
  0
LINE
  5
403F
330
18
100
AcDbEntity
  8
Anker
  6
VERDECKT
 62
     1
 48
5.0
100
AcDbLine
 10
12931.98496755261
 20
-261.4879461740475
 30
0.0
 11
12946.63186253591
 21
-255.130805109141
 31
0.0
  0
LINE
  5
4040
330
18
100
AcDbEntity
  8
Anker
  6
VERDECKT
 62
     1
 48
5.0
100
AcDbLine
 10
12932.29915562488
 20
-274.1569467210056
 30
0.0
 11
12946.94605060817
 21
-267.7998056560991
 31
0.0
  0
LINE
  5
4041
330
18
100
AcDbEntity
  8
Anker
  6
VERDECKT
 62
     1
 48
5.0
100
AcDbLine
 10
12932.35264963634
 20
-276.3139848785258
 30
0.0
 11
12946.99954461963
 21
-269.9568438136193
 31
0.0
  0
LINE
  5
4042
330
18
100
AcDbEntity
  8
Anker
  6
VERDECKT
 62
     1
 48
5.0
100
AcDbLine
 10
12932.6668377086
 20
-288.982985425484
 30
0.0
 11
12947.31373269189
 21
-282.6258443605775
 31
0.0
  0
LINE
  5
4043
330
18
100
AcDbEntity
  8
Anker
  6
VERDECKT
 62
     1
 48
5.0
100
AcDbLine
 10
12932.72033172007
 20
-291.1400235830051
 30
0.0
 11
12947.36722670336
 21
-284.7828825180986
 31
0.0
  0
LINE
  5
4044
330
18
100
AcDbEntity
  8
Anker
  6
VERDECKT
 62
     1
 48
5.0
100
AcDbLine
 10
12941.19244932842
 20
-302.7246915863361
 30
0.0
 11
12947.05223130053
 21
-300.1813907264132
 31
0.0
  0
LINE
  5
4045
330
18
100
AcDbEntity
  8
Anker
  6
VERDECKT
 62
     1
 48
5.0
100
AcDbLine
 10
12931.24960338515
 20
-231.8358687650834
 30
0.0
 11
12929.34251175319
 21
-231.5734691473626
 31
0.0
  0
LINE
  5
4046
330
18
100
AcDbEntity
  8
Anker
  6
VERDECKT
 62
     1
 48
5.0
100
AcDbLine
 10
12947.75009598894
 20
-223.5840891603848
 30
0.0
 11
12945.89649836844
 21
-225.4787277001769
 31
0.0
  0
LINE
  5
4047
330
18
100
AcDbEntity
  8
Anker
  6
VERDECKT
 62
     1
 48
5.0
100
AcDbLine
 10
12931.56379145743
 20
-244.5048693120498
 30
0.0
 11
12929.71019383693
 21
-246.399507851841
 31
0.0
  0
LINE
  5
4048
330
18
100
AcDbEntity
  8
Anker
  6
VERDECKT
 62
     1
 48
5.0
100
AcDbLine
 10
12929.71019383693
 20
-246.399507851841
 30
0.0
 11
12931.61728546889
 21
-246.6619074695618
 31
0.0
  0
LINE
  5
4049
330
18
100
AcDbEntity
  8
Anker
  6
VERDECKT
 62
     1
 48
5.0
100
AcDbLine
 10
12946.21068644071
 20
-238.1477282471424
 30
0.0
 11
12948.11777807268
 21
-238.4101278648632
 31
0.0
  0
LINE
  5
404A
330
18
100
AcDbEntity
  8
Anker
  6
VERDECKT
 62
     1
 48
5.0
100
AcDbLine
 10
12948.11777807268
 20
-238.4101278648632
 30
0.0
 11
12946.26418045217
 21
-240.3047664046626
 31
0.0
  0
LINE
  5
404B
330
18
100
AcDbEntity
  8
Anker
  6
VERDECKT
 62
     1
 48
5.0
100
AcDbLine
 10
12931.93147354115
 20
-259.3309080165282
 30
0.0
 11
12930.07787592065
 21
-261.2255465563194
 31
0.0
  0
LINE
  5
404C
330
18
100
AcDbEntity
  8
Anker
  6
VERDECKT
 62
     1
 48
5.0
100
AcDbLine
 10
12930.07787592065
 20
-261.2255465563194
 30
0.0
 11
12931.98496755261
 21
-261.4879461740402
 31
0.0
  0
LINE
  5
404D
330
18
100
AcDbEntity
  8
Anker
  6
VERDECKT
 62
     1
 48
5.0
100
AcDbLine
 10
12946.57836852444
 20
-252.9737669516208
 30
0.0
 11
12948.48546015641
 21
-253.2361665693415
 31
0.0
  0
LINE
  5
404E
330
18
100
AcDbEntity
  8
Anker
  6
VERDECKT
 62
     1
 48
5.0
100
AcDbLine
 10
12948.48546015641
 20
-253.2361665693415
 30
0.0
 11
12946.63186253591
 21
-255.130805109141
 31
0.0
  0
LINE
  5
404F
330
18
100
AcDbEntity
  8
Anker
  6
VERDECKT
 62
     1
 48
5.0
100
AcDbLine
 10
12932.29915562488
 20
-274.1569467210056
 30
0.0
 11
12930.44555800438
 21
-276.0515852607987
 31
0.0
  0
LINE
  5
4050
330
18
100
AcDbEntity
  8
Anker
  6
VERDECKT
 62
     1
 48
5.0
100
AcDbLine
 10
12930.44555800438
 20
-276.0515852607987
 30
0.0
 11
12932.35264963634
 21
-276.3139848785258
 31
0.0
  0
LINE
  5
4051
330
18
100
AcDbEntity
  8
Anker
  6
VERDECKT
 62
     1
 48
5.0
100
AcDbLine
 10
12946.94605060817
 20
-267.7998056560991
 30
0.0
 11
12948.85314224013
 21
-268.0622052738272
 31
0.0
  0
LINE
  5
4052
330
18
100
AcDbEntity
  8
Anker
  6
VERDECKT
 62
     1
 48
5.0
100
AcDbLine
 10
12948.85314224013
 20
-268.0622052738272
 30
0.0
 11
12946.99954461963
 21
-269.9568438136193
 31
0.0
  0
LINE
  5
4053
330
18
100
AcDbEntity
  8
Anker
  6
VERDECKT
 62
     1
 48
5.0
100
AcDbLine
 10
12932.6668377086
 20
-288.982985425484
 30
0.0
 11
12930.81324008811
 21
-290.877623965277
 31
0.0
  0
LINE
  5
4054
330
18
100
AcDbEntity
  8
Anker
  6
VERDECKT
 62
     1
 48
5.0
100
AcDbLine
 10
12930.81324008811
 20
-290.877623965277
 30
0.0
 11
12932.72033172007
 21
-291.1400235830051
 31
0.0
  0
LINE
  5
4055
330
18
100
AcDbEntity
  8
Anker
  6
VERDECKT
 62
     1
 48
5.0
100
AcDbLine
 10
12947.31373269189
 20
-282.6258443605775
 30
0.0
 11
12949.22082432385
 21
-282.8882439783056
 31
0.0
  0
LINE
  5
4056
330
18
100
AcDbEntity
  8
Anker
  6
VERDECKT
 62
     1
 48
5.0
100
AcDbLine
 10
12949.22082432385
 20
-282.8882439783056
 30
0.0
 11
12947.36722670336
 21
-284.7828825180986
 31
0.0
  0
LINE
  5
4057
330
18
100
AcDbEntity
  8
Anker
  6
VERDECKT
 62
     1
 48
5.0
100
AcDbLine
 10
12947.05223130053
 20
-300.1813907264132
 30
0.0
 11
12949.05648210084
 21
-300.4016206870383
 31
0.0
  0
LINE
  5
4058
330
18
100
AcDbEntity
  8
Anker
  6
VERDECKT
 62
     1
 48
5.0
100
AcDbLine
 10
12949.05648210084
 20
-300.4016206870383
 30
0.0
 11
12946.47020945508
 21
-302.5938044438253
 31
0.0
  0
LINE
  5
4059
330
18
100
AcDbEntity
  8
Anker
  6
VERDECKT
 62
     1
 48
5.0
100
AcDbLine
 10
12932.72033172007
 20
-291.1400235830051
 30
0.0
 11
12932.88869876502
 21
-297.9290852084659
 31
0.0
  0
LINE
  5
405A
330
18
100
AcDbEntity
  8
Anker
  6
VERDECKT
 62
     1
 48
5.0
100
AcDbLine
 10
12932.35264963634
 20
-276.3139848785258
 30
0.0
 11
12932.6668377086
 21
-288.982985425484
 31
0.0
  0
LINE
  5
405B
330
18
100
AcDbEntity
  8
Anker
  6
VERDECKT
 62
     1
 48
5.0
100
AcDbLine
 10
12931.98496755261
 20
-261.4879461740402
 30
0.0
 11
12932.29915562488
 21
-274.1569467210056
 31
0.0
  0
LINE
  5
405C
330
18
100
AcDbEntity
  8
Anker
  6
VERDECKT
 62
     1
 48
5.0
100
AcDbLine
 10
12931.61728546889
 20
-246.6619074695618
 30
0.0
 11
12931.93147354115
 21
-259.3309080165282
 31
0.0
  0
LINE
  5
405D
330
18
100
AcDbEntity
  8
Anker
  6
VERDECKT
 62
     1
 48
5.0
100
AcDbLine
 10
12931.24960338515
 20
-231.8358687650834
 30
0.0
 11
12931.56379145743
 21
-244.5048693120498
 31
0.0
  0
LINE
  5
405E
330
18
100
AcDbEntity
  8
Anker
  6
VERDECKT
 62
     1
 48
5.0
100
AcDbLine
 10
12945.89649836844
 20
-225.4787277001769
 30
0.0
 11
12946.21068644071
 21
-238.1477282471424
 31
0.0
  0
LINE
  5
405F
330
18
100
AcDbEntity
  8
Anker
  6
VERDECKT
 62
     1
 48
5.0
100
AcDbLine
 10
12946.26418045217
 20
-240.3047664046626
 30
0.0
 11
12946.57836852444
 21
-252.9737669516208
 31
0.0
  0
LINE
  5
4060
330
18
100
AcDbEntity
  8
Anker
  6
VERDECKT
 62
     1
 48
5.0
100
AcDbLine
 10
12946.63186253591
 20
-255.130805109141
 30
0.0
 11
12946.94605060817
 21
-267.7998056560991
 31
0.0
  0
LINE
  5
4061
330
18
100
AcDbEntity
  8
Anker
  6
VERDECKT
 62
     1
 48
5.0
100
AcDbLine
 10
12946.99954461963
 20
-269.9568438136193
 30
0.0
 11
12947.31373269189
 21
-282.6258443605775
 31
0.0
  0
LINE
  5
4062
330
18
100
AcDbEntity
  8
Anker
  6
VERDECKT
 62
     1
 48
5.0
100
AcDbLine
 10
12947.36722670336
 20
-284.7828825180986
 30
0.0
 11
12947.68414965829
 21
-297.5621616948674
 31
0.0
  0
LINE
  5
4063
330
18
100
AcDbEntity
  8
Anker
  6
VERDECKT
 62
     1
 48
5.0
100
AcDbLine
 10
12943.85632187237
 20
-302.658628207756
 30
0.0
 11
12949.05648210084
 21
-300.4016206870383
 31
0.0
  0
LINE
  5
4064
330
18
100
AcDbEntity
  8
25
100
AcDbLine
 10
12943.74500370971
 20
-124.6066598188172
 30
0.0
 11
12943.75819315525
 21
-125.138497617324
 31
0.0
  0
LINE
  5
4065
330
18
100
AcDbEntity
  8
25
100
AcDbLine
 10
12928.24976797689
 20
-124.9909378229231
 30
0.0
 11
12928.26257940396
 21
-125.5075327891127
 31
-0.0000000000000011
  0
LINE
  5
4066
330
18
100
AcDbEntity
  8
18
100
AcDbLine
 10
12936.27329268044
 20
-125.3088690861268
 30
0.0
 11
12938.13888781071
 21
-124.7456901030682
 31
0.0
  0
LINE
  5
4067
330
18
100
AcDbEntity
  8
18
100
AcDbLine
 10
12928.73334530122
 20
-125.4958579115873
 30
0.0
 11
12930.59894043149
 21
-124.9326789285296
 31
0.0
  0
LINE
  5
4068
330
18
100
AcDbEntity
  8
18
100
AcDbLine
 10
12940.04326637005
 20
-125.2153746733956
 30
0.0
 11
12941.90886150031
 21
-124.652195690338
 31
0.0
  0
LINE
  5
4069
330
18
100
AcDbEntity
  8
18
100
AcDbLine
 10
12932.50331899084
 20
-125.4023634988571
 30
0.0
 11
12934.36891412109
 21
-124.8391845157984
 31
0.0
  0
LINE
  5
406A
330
18
100
AcDbEntity
  8
25
100
AcDbLine
 10
12928.71970772979
 20
-113.6887745394924
 30
0.0
 11
12928.97535923993
 21
-123.9974062405526
 31
0.0
  0
LINE
  5
406B
330
18
100
AcDbEntity
  8
25
100
AcDbLine
 10
12942.71540452073
 20
-113.3416847293356
 30
0.0
 11
12942.97105603087
 21
-123.6503164303967
 31
0.0
  0
LINE
  5
406C
330
18
100
AcDbEntity
  8
25
100
AcDbLine
 10
12928.24976797689
 20
-124.9909378229231
 30
0.0
 11
12928.97535923993
 21
-123.9974062405526
 31
0.0
  0
LINE
  5
406D
330
18
100
AcDbEntity
  8
25
100
AcDbLine
 10
12943.74500370971
 20
-124.6066598188172
 30
0.0
 11
12942.97105603087
 21
-123.6503164303967
 31
0.0
  0
LINE
  5
406E
330
18
100
AcDbEntity
  8
25
100
AcDbLine
 10
12928.97535923993
 20
-123.9974062405526
 30
0.0
 11
12942.97105603087
 21
-123.6503164303967
 31
0.0
  0
LINE
  5
406F
330
18
100
AcDbEntity
  8
25
100
AcDbLine
 10
12928.71970772979
 20
-113.6887745394924
 30
0.0
 11
12929.55018125463
 21
-112.9549982970784
 31
0.0
  0
LINE
  5
4070
330
18
100
AcDbEntity
  8
25
100
AcDbLine
 10
12942.71540452073
 20
-113.3416847293356
 30
0.0
 11
12941.84957932884
 21
-112.6499762744979
 31
0.0
  0
LINE
  5
4071
330
18
100
AcDbEntity
  8
Anker
  6
VERDECKT
 62
     1
 48
5.0
100
AcDbLine
 10
12945.84300435698
 20
-223.321689542664
 30
0.0
 11
12931.19610937369
 21
-229.6788306075714
 31
0.0
  0
LINE
  5
4072
330
18
100
AcDbEntity
  8
Anker
  6
VERDECKT
 62
     1
 48
5.0
100
AcDbLine
 10
12931.19610937369
 20
-229.6788306075714
 30
0.0
 11
12929.34251175319
 21
-231.5734691473626
 31
0.0
  0
LINE
  5
4073
330
18
100
AcDbEntity
  8
Anker
  6
VERDECKT
 62
     1
 48
5.0
100
AcDbLine
 10
12929.34251175319
 20
-231.5734691473626
 30
0.0
 11
12947.75009598894
 21
-223.5840891603848
 31
0.0
  0
LINE
  5
4074
330
18
100
AcDbEntity
  8
Anker
  6
VERDECKT
 62
     1
 48
5.0
100
AcDbLine
 10
12947.75009598894
 20
-223.5840891603848
 30
0.0
 11
12945.84300435698
 21
-223.321689542664
 31
0.0
  0
LINE
  5
4075
330
18
100
AcDbEntity
  8
Anker
  6
VERDECKT
 62
     1
 48
5.0
100
AcDbLine
 10
12945.84300435698
 20
-223.321689542664
 30
0.0
 11
12945.82473996104
 21
-222.5852146005973
 31
0.0
  0
LINE
  5
4076
330
18
100
AcDbEntity
  8
Anker
  6
VERDECKT
 62
     1
 48
5.0
100
AcDbLine
 10
12945.82473996104
 20
-222.5852146005973
 30
0.0
 11
12946.1595505414
 21
-221.9683925892951
 31
0.0
  0
LINE
  5
4077
330
18
100
AcDbEntity
  8
Anker
  6
VERDECKT
 62
     1
 48
5.0
100
AcDbLine
 10
12946.1595505414
 20
-221.9683925892951
 30
0.0
 11
12944.56314397651
 21
-157.5965165402976
 31
0.0
  0
LINE
  5
4078
330
18
100
AcDbEntity
  8
25
100
AcDbLine
 10
12931.94825704078
 20
-112.8955266121902
 30
0.0
 11
12932.22158438444
 21
-123.9169006618731
 31
0.0
  0
LINE
  5
4079
330
18
100
AcDbEntity
  8
25
100
AcDbLine
 10
12939.45150354269
 20
-112.7094479593907
 30
0.0
 11
12939.72483088635
 21
-123.7308220090745
 31
0.0
  0
LINE
  5
407A
330
18
100
AcDbEntity
  8
25
 48
10.0
100
AcDbLine
 10
12956.33832821194
 20
-138.2986530258658
 30
0.0
 11
12916.35062309499
 21
-139.2903381977421
 31
0.0
  0
LINE
  5
407B
330
18
100
AcDbEntity
  8
25
 48
10.0
100
AcDbLine
 10
12916.35062309499
 20
-139.2903381977421
 30
0.0
 11
12916.44979161218
 21
-143.2891087094385
 31
0.0
  0
LINE
  5
407C
330
18
100
AcDbEntity
  8
25
 48
10.0
100
AcDbLine
 10
12956.43749672912
 20
-142.2974235375622
 30
0.0
 11
12956.33832821194
 21
-138.2986530258658
 31
0.0
  0
LWPOLYLINE
  5
407D
330
18
100
AcDbEntity
  8
35
100
AcDbPolyline
 90
        4
 70
     1
 43
0.0
 10
12911.57528911904
 20
-148.4115324955373
 10
12961.55992051522
 20
-147.1719260306927
 10
12961.43595986873
 20
-142.1734628910753
 10
12911.45132847255
 20
-143.4130693559182
  0
LWPOLYLINE
  5
407E
330
18
100
AcDbEntity
  8
50
100
AcDbPolyline
 90
        4
 70
     1
 43
0.0
 10
13136.75405169483
 20
-152.830229682977
 10
12876.83396843468
 20
-159.2761833001641
 10
12876.58604714171
 20
-149.2792570209276
 10
13136.50613040186
 20
-142.8333034037405
  0
LINE
  5
4083
330
18
100
AcDbEntity
  8
18
  6
STRICHPUNKT
 48
25.0
100
AcDbLine
 10
12937.01958406407
 20
116.3307912535173
 30
0.0
 11
12987.00421546025
 21
117.5703977183574
 31
0.0
  0
LINE
  5
408C
330
18
100
AcDbEntity
  8
0
100
AcDbLine
 10
13094.45608603814
 20
544.3654099567229
 30
0.0
 11
12954.49911812883
 21
540.8945118551619
 31
0.0
  0
DIMENSION
  5
409C
330
18
100
AcDbEntity
  8
0
100
AcDbDimension
  2
*D10
 10
12961.2291169443
 20
269.5208786666508
 30
0.0
 11
12824.06904781668
 21
266.1193429614079
 31
0.0
 70
   160
 71
     5
 42
299.9837092799571
  3
ISO-25
100
AcDbAlignedDimension
 13
12660.89693297657
 23
279.8532288143024
 33
0.0
 14
12960.74797018316
 24
288.9221517202195
 34
0.0
 50
1.420629930814441
100
AcDbRotatedDimension
1001
ACAD
1000
DSTYLE
1002
{
1070
    40
1040
12.0
1070
   271
1070
     0
1002
}
  0
DIMENSION
  5
409F
102
{ACAD_XDICTIONARY
360
40A0
102
}
102
{ACAD_REACTORS
330
40A1
102
}
330
18
100
AcDbEntity
  8
0
100
AcDbDimension
  2
*D11
 10
13232.64625355084
 20
547.7924918466266
 30
0.0
 11
13231.40664708597
 21
597.7771232427185
 31
0.0
 70
   160
 71
     5
 42
100.0000000002402
  3
ISO-25
100
AcDbAlignedDimension
 13
12743.99339406679
 23
635.7047687520016
 33
0.0
 14
13094.45608603814
 24
544.3654099567229
 34
0.0
 50
91.42062993086653
100
AcDbRotatedDimension
1001
ACAD
1000
DSTYLE
1002
{
1070
    40
1040
12.0
1070
   271
1070
     0
1002
}
  0
LINE
  5
40A3
330
18
100
AcDbEntity
  8
18
  6
STRICHPUNKT
 48
25.0
100
AcDbLine
 10
12982.80160522727
 20
452.5690419916645
 30
0.0
 11
12922.80366700178
 21
451.0811080002713
 31
0.0
  0
LINE
  5
40A4
330
18
100
AcDbEntity
  8
18
  6
STRICHPUNKT
 48
25.0
100
AcDbLine
 10
12984.53705427806
 20
382.5905580370081
 30
0.0
 11
12924.53911605256
 21
381.1026240456158
 31
0.0
  0
LINE
  5
40A5
102
{ACAD_REACTORS
330
40A1
330
40A9
330
40AF
102
}
330
18
100
AcDbEntity
  8
0
100
AcDbLine
 10
13111.51381470377
 20
-143.4531066361623
 30
0.0
 11
13094.45608603814
 21
544.3654099567229
 31
0.0
  0
DIMENSION
  5
40A7
102
{ACAD_XDICTIONARY
360
40A8
102
}
102
{ACAD_REACTORS
330
40A9
102
}
330
18
100
AcDbEntity
  8
0
100
AcDbDimension
  2
*D12
 10
13249.95190350969
 20
-150.0229510255062
 30
0.0
 11
13238.9925270135
 21
291.8918098400754
 31
0.0
 70
   160
  1
700
 71
     5
 42
698.0299978019061
  3
ISO-25
100
AcDbAlignedDimension
 13
13094.45608603814
 23
544.3654099567229
 33
0.0
 14
13136.75405169483
 24
-152.830229682977
 34
0.0
 50
91.42062993086653
100
AcDbRotatedDimension
1001
ACAD
1000
DSTYLE
1002
{
1070
    40
1040
12.0
1070
   271
1070
     0
1002
}
  0
DIMENSION
  5
40AA
330
18
100
AcDbEntity
  8
0
100
AcDbDimension
  2
*D13
 10
12571.6059242214
 20
-234.2952312479983
 30
0.0
 11
12571.6059242214
 21
199.6557145567449
 31
0.0
 70
   160
  1
{\H0.875x;\U+2265}<>
 71
     5
 42
870.0
  3
ISO-25
100
AcDbAlignedDimension
 13
12743.99339406679
 23
635.7047687520016
 33
0.0
 14
12674.45097935939
 24
-234.2952312479984
 34
0.0
 50
90.0
100
AcDbRotatedDimension
1001
ACAD
1000
DSTYLE
1002
{
1070
    40
1040
12.0
1070
    47
1040
40.0
1070
    48
1040
40.0
1070
    71
1070
     1
1070
   146
1040
0.75
1070
   271
1070
     0
1070
   283
1070
     1
1002
}
  0
DIMENSION
  5
40AD
102
{ACAD_XDICTIONARY
360
40AE
102
}
102
{ACAD_REACTORS
330
40AF
102
}
330
18
100
AcDbEntity
  8
0
100
AcDbDimension
  2
*D14
 10
13101.18608485364
 20
272.9917767682577
 30
0.0
 11
13030.64191418344
 21
294.0665039821892
 31
0.0
 70
    32
 71
     5
 42
140.0000000000218
  3
ISO-25
100
AcDbAlignedDimension
 13
12960.74797018316
 23
288.9221517202195
 33
0.0
 14
13102.98495037095
 24
200.4561516602807
 34
0.0
 50
1.420629930814441
100
AcDbRotatedDimension
1001
ACAD
1000
DSTYLE
1002
{
1070
    40
1040
12.0
1070
   271
1070
     0
1002
}
  0
DIMENSION
  5
40B6
330
18
100
AcDbEntity
  8
0
100
AcDbDimension
  2
*D4
 10
12962.35760009318
 20
-302.1998010953105
 30
0.0
 11
12983.37034698387
 21
-229.1563988553071
 31
0.0
 70
    33
  1
130
 71
     5
 42
144.9999999999997
  3
ISO-25
100
AcDbAlignedDimension
 13
12936.8155261101
 23
-157.788655542352
 33
0.0
 14
12940.41038485812
 24
-302.744086591284
 34
0.0
1001
ACAD
1000
DSTYLE
1002
{
1070
    40
1040
12.0
1070
   271
1070
     0
1002
}
  0
DIMENSION
  5
40BC
330
18
100
AcDbEntity
  8
KOTIERUNG
100
AcDbDimension
  2
*D5
 10
10892.29491683486
 20
-1714.333600918675
 30
0.0
 11
11558.96158383486
 21
-1629.23810296506
 31
0.0
 70
    32
 71
     5
 42
1333.333333999999
  3
ISO-25
100
AcDbAlignedDimension
 13
12225.62825083486
 23
-1826.630400554224
 33
0.0
 14
10892.29491683486
 24
-1826.630400554224
 34
0.0
 50
180.0
100
AcDbRotatedDimension
1001
ACAD
1000
DSTYLE
1002
{
1070
    40
1040
40.0
1070
    47
1040
7.0
1070
    48
1040
7.0
1002
}
  0
DIMENSION
  5
40BD
330
18
100
AcDbEntity
  8
KOTIERUNG
100
AcDbDimension
  2
*D6
 10
12225.62825083486
 20
-1714.333600918675
 30
0.0
 11
12892.29491733486
 21
-1629.23810296506
 31
0.0
 70
    32
 71
     5
 42
1333.333333000002
  3
ISO-25
100
AcDbAlignedDimension
 13
13558.96158383486
 23
-1826.630400554224
 33
0.0
 14
12225.62825083486
 24
-1826.630400554224
 34
0.0
 50
180.0
100
AcDbRotatedDimension
1001
ACAD
1000
DSTYLE
1002
{
1070
    40
1040
40.0
1070
    47
1040
7.0
1070
    48
1040
7.0
1002
}
  0
DIMENSION
  5
40BE
330
18
100
AcDbEntity
  8
KOTIERUNG
100
AcDbDimension
  2
*D7
 10
13558.96158383486
 20
-1714.333600918676
 30
0.0
 11
14225.62825033486
 21
-1629.23810296506
 31
0.0
 70
    32
 71
     5
 42
1333.333333000002
  3
ISO-25
100
AcDbAlignedDimension
 13
14892.29491683486
 23
-1826.630400554224
 33
0.0
 14
13558.96158383486
 24
-1826.630400554225
 34
0.0
 50
180.0
100
AcDbRotatedDimension
1001
ACAD
1000
DSTYLE
1002
{
1070
    40
1040
40.0
1070
    47
1040
7.0
1070
    48
1040
7.0
1002
}
  0
DIMENSION
  5
40BF
330
18
100
AcDbEntity
  8
KOTIERUNG
100
AcDbDimension
  2
*D8
 10
10892.29491683485
 20
-1507.908922481787
 30
0.0
 11
12892.29491683486
 21
-1431.851623709618
 31
0.0
 70
    32
 71
     5
 42
4000.000000000015
  3
ISO-25
100
AcDbAlignedDimension
 13
14892.29491683487
 23
-1806.75575458914
 33
0.0
 14
10892.29491683485
 24
-1826.630400554223
 34
0.0
 50
180.0
100
AcDbRotatedDimension
1001
ACAD
1000
DSTYLE
1002
{
1070
   147
1040
0.625
1070
    72
1070
     0
1070
    40
1040
40.0
1070
    47
1040
7.0
1070
    48
1040
7.0
1070
    71
1070
     1
1002
}
  0
LINE
  5
40D5
330
18
100
AcDbEntity
  8
18
  6
STRICHLINIE
 48
0.09
100
AcDbLine
 10
10952.29491683486
 20
-2212.683338842287
 30
0.0
 11
10952.29491683487
 21
-2300.755997342987
 31
0.0
  0
LINE
  5
40D8
330
18
100
AcDbEntity
  8
25
100
AcDbLine
 10
10752.29491683487
 20
-2212.683338842287
 30
0.0
 11
10752.29491683487
 21
-2300.755997342987
 31
0.0
  0
LINE
  5
4107
330
18
100
AcDbEntity
  8
25
100
AcDbLine
 10
14752.29491683487
 20
-2212.683338842287
 30
0.0
 11
14752.29491683487
 21
-2300.755997342987
 31
0.0
  0
LINE
  5
410A
330
18
100
AcDbEntity
  8
18
  6
STRICHLINIE
 48
0.09
100
AcDbLine
 10
14952.29491683486
 20
-2212.683338842287
 30
0.0
 11
14952.29491683487
 21
-2300.755997342987
 31
0.0
  0
LINE
  5
4145
330
18
100
AcDbEntity
  8
KOTIERUNG
100
AcDbLine
 10
12170.62825083486
 20
-2212.683338842287
 30
0.0
 11
12170.62825083486
 21
-2000.77504215274
 31
0.0
  0
LINE
  5
4146
330
18
100
AcDbEntity
  8
KOTIERUNG
100
AcDbLine
 10
12280.62825083486
 20
-2212.683338842287
 30
0.0
 11
12280.62825083486
 21
-2000.77504215274
 31
0.0
  0
LINE
  5
4147
330
18
100
AcDbEntity
  8
KOTIERUNG
100
AcDbLine
 10
13613.96158383487
 20
-2212.683338842287
 30
0.0
 11
13613.96158383487
 21
-2000.77504215274
 31
0.0
  0
LINE
  5
4148
330
18
100
AcDbEntity
  8
KOTIERUNG
100
AcDbLine
 10
13503.96158383487
 20
-2212.683338842287
 30
0.0
 11
13503.96158383487
 21
-2000.77504215274
 31
0.0
  0
LINE
  5
4149
330
18
100
AcDbEntity
  8
KOTIERUNG
100
AcDbLine
 10
10947.29491683487
 20
-2212.683338842287
 30
0.0
 11
10947.29491683487
 21
-2000.77504215274
 31
0.0
  0
LINE
  5
414A
330
18
100
AcDbEntity
  8
KOTIERUNG
100
AcDbLine
 10
10837.29491683487
 20
-2212.683338842287
 30
0.0
 11
10837.29491683487
 21
-2000.77504215274
 31
0.0
  0
LINE
  5
414E
330
18
100
AcDbEntity
  8
KOTIERUNG
100
AcDbLine
 10
14837.29491683487
 20
-2212.683338842287
 30
0.0
 11
14837.29491683487
 21
-2000.77504215274
 31
0.0
  0
LINE
  5
414F
330
18
100
AcDbEntity
  8
KOTIERUNG
100
AcDbLine
 10
14947.29491683487
 20
-2212.683338842287
 30
0.0
 11
14947.29491683487
 21
-2000.77504215274
 31
0.0
  0
LINE
  5
4151
330
18
100
AcDbEntity
  8
50
100
AcDbLine
 10
15363.44517991731
 20
-2300.755997342987
 30
0.0
 11
10496.839036908
 21
-2300.755997342987
 31
0.0
  0
LINE
  5
4152
330
18
100
AcDbEntity
  8
50
100
AcDbLine
 10
15355.67038975189
 20
-2212.683338842287
 30
0.0
 11
10496.839036908
 21
-2212.683338842287
 31
0.0
  0
LINE
  5
462B
330
18
100
AcDbEntity
  8
50
100
AcDbLine
 10
12674.45097935939
 20
-234.2952312479984
 30
0.0
 11
12674.45097935938
 21
-234.2952312479984
 31
0.0
  0
LINE
  5
462C
330
18
100
AcDbEntity
  8
50
100
AcDbLine
 10
12674.45097935938
 20
-234.2952312479984
 30
0.0
 11
12521.97434582206
 21
-234.2952312479984
 31
0.0
  0
LINE
  5
462D
330
18
100
AcDbEntity
  8
50
100
AcDbLine
 10
12674.45097935939
 20
-234.2952312479984
 30
0.0
 11
12687.80192404188
 21
-171.6405660883829
 31
0.0
  0
LINE
  5
462E
330
18
100
AcDbEntity
  8
35
100
AcDbLine
 10
12674.45097935939
 20
-234.2952312479984
 30
0.0
 11
12674.45097935939
 21
-348.2231641410308
 31
0.0
  0
LINE
  5
4631
330
18
100
AcDbEntity
  8
50
100
AcDbLine
 10
13284.65439516962
 20
-149.1623378369586
 30
0.0
 11
12697.33442084796
 21
-163.727727573073
 31
0.0
  0
TEXT
  5
4632
330
18
100
AcDbEntity
  8
KOTIERUNG
100
AcDbText
 10
12787.37708240022
 20
-134.8231764533611
 30
0.0
 40
25.0
  1
2,5 %
 50
1.430000000007063
100
AcDbText
  0
LINE
  5
4633
330
18
100
AcDbEntity
  8
KOTIERUNG
100
AcDbLine
 10
12768.38417848195
 20
-144.8542852328446
 30
0.0
 11
12887.66708895827
 21
-141.8765791973483
 31
0.0
  0
LWPOLYLINE
  5
4634
330
18
100
AcDbEntity
  8
KOTIERUNG
100
AcDbPolyline
 90
        2
 70
     0
 10
12768.38417848195
 20
-144.8542852328446
 40
10.0
 41
0.0
 10
12735.85249415241
 20
-145.6663864163765
 40
0.0
 41
0.0
  0
ARC
  5
464B
330
18
100
AcDbEntity
  8
50
100
AcDbCircle
 10
12697.58234214093
 20
-173.7246538523095
 30
0.0
 40
10.0
100
AcDbArc
 50
91.42062993086653
 51
167.9708812400938
  0
DIMENSION
  5
48D0
330
18
100
AcDbEntity
  8
0
100
AcDbDimension
  2
*D15
 10
12790.04611161693
 20
-836.5606239608315
 30
0.0
 11
12767.22892198528
 21
-646.5606239608294
 31
0.0
 70
    32
 71
     5
 42
380.0
  3
ISO-25
100
AcDbAlignedDimension
 13
12895.85643019016
 23
-456.5606239608314
 33
0.0
 14
12895.85643019016
 24
-836.5606239608315
 34
0.0
 50
90.0
100
AcDbRotatedDimension
1001
ACAD
1000
DSTYLE
1002
{
1070
    40
1040
12.0
1002
}
  0
DIMENSION
  5
4935
330
18
100
AcDbEntity
  8
0
100
AcDbDimension
  2
*D16
 10
12936.17733646192
 20
-60.40281665633483
 30
0.0
 11
12805.31415791065
 21
-37.58562702468409
 31
0.0
 70
    32
 71
     5
 42
261.7263571025287
  3
ISO-25
100
AcDbAlignedDimension
 13
12674.45097935939
 23
-234.2952312479984
 33
0.0
 14
12936.17733646192
 24
-132.0549446994337
 34
0.0
100
AcDbRotatedDimension
1001
ACAD
1000
DSTYLE
1002
{
1070
   271
1070
     0
1070
    40
1040
12.0
1002
}
  0
HATCH
  5
4A1D
330
18
100
AcDbEntity
  8
18
100
AcDbHatch
 10
0.0
 20
0.0
 30
0.0
210
0.0
220
0.0
230
1.0
  2
ANSI31
 70
     0
 71
     0
 91
        2
 92
        7
 72
     1
 73
     1
 93
       48
 10
12944.56314397651
 20
-157.5965165402995
 42
0.0
 10
12946.1595505414
 20
-221.9683925892914
 42
0.0
 10
12945.82473996104
 20
-222.5852146005946
 42
0.0
 10
12945.84300435698
 20
-223.321689542664
 42
0.0
 10
12947.75009598895
 20
-223.5840891603857
 42
0.0
 10
12945.89649836844
 20
-225.4787277001778
 42
0.0
 10
12946.21068644071
 20
-238.1477282471414
 42
0.0
 10
12948.11777807268
 20
-238.4101278648641
 42
0.0
 10
12946.26418045217
 20
-240.3047664046617
 42
0.0
 10
12946.57836852444
 20
-252.9737669516217
 42
0.0
 10
12948.48546015641
 20
-253.2361665693425
 42
0.0
 10
12946.63186253591
 20
-255.1308051091428
 42
0.0
 10
12946.94605060817
 20
-267.7998056560991
 42
0.0
 10
12948.85314224013
 20
-268.0622052738272
 42
0.0
 10
12946.99954461963
 20
-269.9568438136184
 42
0.0
 10
12947.31373269189
 20
-282.6258443605775
 42
0.0
 10
12949.22082432385
 20
-282.8882439783065
 42
0.0
 10
12947.36722670336
 20
-284.7828825180922
 42
0.0
 10
12947.68414965829
 20
-297.5621616948674
 42
0.0
 10
12947.05223130053
 20
-300.181390726414
 42
0.0
 10
12949.05648210084
 20
-300.4016206870383
 42
0.0
 10
12946.47020945508
 20
-302.5938044438262
 42
0.0
 10
12934.3505602612
 20
-302.8943687387409
 42
0.0
 10
12932.88869876502
 20
-297.9290852084487
 42
0.0
 10
12932.72033172007
 20
-291.140023583006
 42
0.0
 10
12930.81324008811
 20
-290.877623965277
 42
0.0
 10
12932.6668377086
 20
-288.9829854254886
 42
0.0
 10
12932.35264963635
 20
-276.3139848785258
 42
0.0
 10
12930.44555800438
 20
-276.0515852607987
 42
0.0
 10
12932.29915562488
 20
-274.1569467210074
 42
0.0
 10
12931.98496755262
 20
-261.4879461740402
 42
0.0
 10
12930.07787592065
 20
-261.2255465563194
 42
0.0
 10
12931.93147354115
 20
-259.3309080165236
 42
0.0
 10
12931.61728546889
 20
-246.6619074695609
 42
0.0
 10
12929.71019383693
 20
-246.399507851841
 42
0.0
 10
12931.56379145743
 20
-244.5048693120489
 42
0.0
 10
12931.24960338515
 20
-231.8358687650825
 42
0.0
 10
12929.34251175319
 20
-231.5734691473617
 42
0.0
 10
12931.19610937369
 20
-229.6788306075723
 42
0.0
 10
12931.02928906776
 20
-222.9521381141895
 42
0.0
 10
12930.66431480857
 20
-222.3526705934082
 42
0.0
 10
12929.06790824369
 20
-157.9807945444017
 42
0.0
 10
12697.33442084796
 20
-163.727727573073
 42
0.3470154219378647
 10
12687.80192404188
 20
-171.6405660883829
 42
0.0
 10
12674.45097935939
 20
-234.2952312479974
 42
0.0
 10
12674.45097935939
 20
-348.2231641410308
 42
0.0
 10
13284.65439516962
 20
-348.2231641410308
 42
0.0
 10
13284.65439516962
 20
-149.1623378369586
 42
0.0
 97
        0
 92
       24
 93
        4
 72
     1
 10
13005.2439043024
 20
-200.706317012894
 11
13006.62725776521
 21
-256.4872562790306
 72
     1
 10
13006.62725776521
 20
-256.4872562790306
 11
12968.61029732404
 21
-257.4300674715896
 72
     1
 10
12968.61029732404
 20
-257.4300674715896
 11
12967.22694386124
 21
-201.6491282054531
 72
     1
 10
12967.22694386124
 20
-201.6491282054531
 11
13005.2439043024
 21
-200.706317012894
 97
        0
 75
     0
 76
     1
 52
90.0
 41
150.0
 77
     0
 78
     1
 53
135.0
 43
-6613.575545202428
 44
4740.696374405846
 45
-13.25825214724776
 46
-13.25825214724776
 79
     0
 47
0.8179050990773358
 98
        1
 10
13141.68882484532
 20
-182.9241758306143
  0
HATCH
  5
4A25
330
18
100
AcDbEntity
  8
18
100
AcDbHatch
 10
0.0
 20
0.0
 30
0.0
210
0.0
220
0.0
230
1.0
  2
ANSI31
 70
     0
 71
     0
 91
        1
 92
        7
 72
     0
 73
     1
 93
        4
 10
12521.97434582206
 20
-234.2952312479992
 10
12521.97434582206
 20
-348.2231641410308
 10
12674.45097935939
 20
-348.2231641410308
 10
12674.45097935939
 20
-234.2952312479984
 97
        0
 75
     0
 76
     1
 52
0.0
 41
100.0
 77
     0
 78
     1
 53
45.0
 43
-6613.575545202428
 44
4740.696374405846
 45
-8.838834764831842
 46
8.838834764831844
 79
     0
 47
0.4023554400276256
 98
        1
 10
12628.13541069256
 20
-268.9453874072624
  0
LINE
  5
505B
330
18
100
AcDbEntity
  8
0
100
AcDbLine
 10
12971.55684679446
 20
-146.9240047377243
 30
0.0
 11
12954.49911812883
 21
540.8945118551619
 31
0.0
  0
ARC
  5
55C2
330
18
100
AcDbEntity
  8
50
100
AcDbCircle
 10
12698.37773684451
 20
409.5083272540295
 30
0.0
 40
50.00000000000454
100
AcDbArc
 50
1.420629930822621
 51
48.08776376917162
  0
LINE
  5
55C3
330
18
100
AcDbEntity
  8
50
100
AcDbLine
 10
12731.77731170886
 20
446.7167725169229
 30
0.0
 11
12672.04743000319
 21
500.3323600957874
 31
0.0
  0
ARC
  5
55C4
330
18
100
AcDbEntity
  8
50
100
AcDbCircle
 10
12707.45097935939
 20
539.773312074456
 30
0.0
 40
53.00000000000419
100
AcDbArc
 50
128.0634082951513
 51
228.0877637691751
  0
LINE
  5
55C5
330
18
100
AcDbEntity
  8
50
100
AcDbLine
 10
12674.77472099694
 20
581.5017452996726
 30
0.0
 11
12743.99339406679
 21
635.7047687520016
 31
0.0
  0
LINE
  5
55D0
330
18
100
AcDbEntity
  8
50
100
AcDbLine
 10
12755.14965419876
 20
185.8510722183655
 30
0.0
 11
12683.32928096566
 21
236.556362293275
 31
0.0
  0
ARC
  5
55D1
330
18
100
AcDbEntity
  8
50
100
AcDbCircle
 10
12713.89693297657
 20
279.8532288143024
 30
0.0
 40
52.99999999999975
100
AcDbArc
 50
134.7534960924769
 51
234.7778515665013
  0
LINE
  5
55D2
330
18
100
AcDbEntity
  8
50
100
AcDbLine
 10
12676.58185593081
 20
317.490776888918
 30
0.0
 11
12733.58063971788
 21
374.0012064289213
 31
0.0
  0
ARC
  5
55D3
330
18
100
AcDbEntity
  8
50
100
AcDbCircle
 10
12698.37773684452
 20
409.5083272540261
 30
0.0
 40
49.99999999999528
100
AcDbArc
 50
314.7534960924785
 51
1.420629930826852
  0
LINE
  5
55E6
330
18
100
AcDbEntity
  8
35
100
AcDbLine
 10
12954.77871677375
 20
529.6202602261383
 30
0.0
 11
12960.43683309543
 21
301.468127467444
 31
0.0
  0
ARC
  5
55E7
330
18
100
AcDbEntity
  8
35
100
AcDbCircle
 10
12942.44236579281
 20
301.0218691400869
 30
0.0
 40
17.99999999999276
100
AcDbArc
 50
241.7298537690817
 51
1.420629930870004
  0
LINE
  5
55E8
330
18
100
AcDbEntity
  8
35
100
AcDbLine
 10
12933.91703704258
 20
285.1688325319056
 30
0.0
 11
12762.05344519218
 21
377.5923635518548
 31
0.0
  0
ARC
  5
55E9
330
18
100
AcDbEntity
  8
35
100
AcDbCircle
 10
12756.36989269201
 20
367.0236724797327
 30
0.0
 40
12.00000000000147
100
AcDbArc
 50
61.72985376903593
 51
134.7534960924652
  0
LINE
  5
55EA
330
18
100
AcDbEntity
  8
35
100
AcDbLine
 10
12747.92119600241
 20
375.545381477762
 30
0.0
 11
12696.85019491592
 21
324.9119465747171
 31
0.0
  0
LINE
  5
55F6
330
18
100
AcDbEntity
  8
35
100
AcDbLine
 10
12683.6440082233
 20
584.636661010335
 30
0.0
 11
12723.13679274216
 21
615.5622513248699
 31
0.0
  0
ARC
  5
55F7
330
18
100
AcDbEntity
  8
35
100
AcDbCircle
 10
12734.23438992186
 20
601.3903306068925
 30
0.0
 40
17.9999999999832
100
AcDbArc
 50
72.08125023737747
 51
128.0634082951842
  0
LINE
  5
55F8
330
18
100
AcDbEntity
  8
35
100
AcDbLine
 10
12739.77241402868
 20
618.5172185025849
 30
0.0
 11
12942.15423951485
 21
553.0765245978746
 31
0.0
  0
ARC
  5
55F9
330
18
100
AcDbEntity
  8
35
100
AcDbCircle
 10
12936.61621540803
 20
535.9496367021574
 30
0.0
 40
18.00000000000548
100
AcDbArc
 50
1.420629930834269
 51
72.08125023740724
  0
LINE
  5
55FA
330
18
100
AcDbEntity
  8
35
100
AcDbLine
 10
12954.61068271066
 20
536.3958950295036
 30
0.0
 11
12960.50760533961
 21
298.614379412149
 31
0.0
  0
ARC
  5
55FB
330
18
100
AcDbEntity
  8
50
100
AcDbCircle
 10
12958.71609005603
 20
7.835185261891675
 30
0.0
 40
9.000000000001595
100
AcDbArc
 50
241.4206299308038
 51
1.420629930807309
  0
LINE
  5
55FC
330
18
100
AcDbEntity
  8
50
100
AcDbLine
 10
12954.41070875443
 20
-0.0682122257659472
 30
0.0
 11
12911.82244119567
 21
23.13177627299034
 31
0.0
  0
ARC
  5
55FD
330
18
100
AcDbEntity
  8
50
100
AcDbCircle
 10
12916.12782249726
 20
31.03517376064902
 30
0.0
 40
9.000000000001628
100
AcDbArc
 50
181.4206299308277
 51
241.4206299308273
  0
LINE
  5
55FE
330
18
100
AcDbEntity
  8
50
100
AcDbLine
 10
12907.13058884595
 20
30.81204459697698
 30
0.0
 11
12904.91162937495
 21
120.2871113920017
 31
0.0
  0
ARC
  5
55FF
330
18
100
AcDbEntity
  8
50
100
AcDbCircle
 10
12913.90886302627
 20
120.510240555671
 30
0.0
 40
8.999999999999788
100
AcDbArc
 50
121.4206299308061
 51
181.4206299308108
  0
LINE
  5
5600
330
18
100
AcDbEntity
  8
50
100
AcDbLine
 10
12909.21701067655
 20
128.1905088796583
 30
0.0
 11
12950.60292386336
 21
153.4730362393437
 31
0.0
  0
ARC
  5
5601
330
18
100
AcDbEntity
  8
50
100
AcDbCircle
 10
12955.29477621308
 20
145.7927679153584
 30
0.0
 40
8.999999999998561
100
AcDbArc
 50
1.420629930817516
 51
121.4206299308124
  0
LINE
  5
5602
330
18
100
AcDbEntity
  8
50
100
AcDbLine
 10
12964.29200986439
 20
146.0158970790288
 30
0.0
 11
12964.88702096752
 21
122.0232740088594
 31
0.0
  0
LINE
  5
560E
330
18
100
AcDbEntity
  8
50
100
AcDbLine
 10
12967.11831260422
 20
32.05093749572994
 30
0.0
 11
12967.71332370734
 21
8.05831442556051
 31
0.0
  0
LINE
  5
5612
330
18
100
AcDbEntity
  8
35
100
AcDbLine
 10
12958.51698326053
 20
136.8699106519324
 30
0.0
 11
12961.61599942264
 21
11.90833216147426
 31
0.0
  0
LINE
  5
561D
330
18
100
AcDbEntity
  8
35
100
AcDbLine
 10
13130.85643019016
 20
-624.0606239608241
 30
0.0
 11
13130.85643019016
 21
-604.9577167241441
 31
0.0
  0
ARC
  5
561E
330
18
100
AcDbEntity
  8
35
100
AcDbCircle
 10
13119.85643019016
 20
-604.9577167241423
 30
0.0
 40
11.0
100
AcDbArc
 50
359.9999999999905
 51
95.60314832952101
  0
LINE
  5
561F
330
18
100
AcDbEntity
  8
35
100
AcDbLine
 10
13118.78241674329
 20
-594.0102743234747
 30
0.0
 11
13000.78241674329
 21
-605.5868218030809
 31
0.0
  0
ARC
  5
5620
330
18
100
AcDbEntity
  8
35
100
AcDbCircle
 10
13001.85643019016
 20
-616.5342642037483
 30
0.0
 40
10.99999999999998
100
AcDbArc
 50
95.60314832952114
 51
179.9999999999917
  0
LINE
  5
5621
330
18
100
AcDbEntity
  8
35
100
AcDbLine
 10
12990.85643019016
 20
-616.5342642037467
 30
0.0
 11
12990.85643019016
 21
-646.5606239608241
 31
0.0
  0
LINE
  5
5622
330
18
100
AcDbEntity
  8
35
100
AcDbLine
 10
12990.85643019016
 20
-646.5606239608241
 30
0.0
 11
12990.85643019016
 21
-676.5869837179052
 31
0.0
  0
ARC
  5
5623
330
18
100
AcDbEntity
  8
35
100
AcDbCircle
 10
13001.85643019016
 20
-676.5869837179054
 30
0.0
 40
11.00000000000182
100
AcDbArc
 50
179.9999999999988
 51
264.3968516704704
  0
LINE
  5
5624
330
18
100
AcDbEntity
  8
35
100
AcDbLine
 10
13000.78241674329
 20
-687.5344261185746
 30
0.0
 11
13118.78241674329
 21
-699.1109735981772
 31
0.0
  0
ARC
  5
5625
330
18
100
AcDbEntity
  8
35
100
AcDbCircle
 10
13119.85643019016
 20
-688.1635311975115
 30
0.0
 40
10.99999999999858
100
AcDbArc
 50
264.3968516704687
 51
0.0
  0
LINE
  5
5626
330
18
100
AcDbEntity
  8
35
100
AcDbLine
 10
13130.85643019016
 20
-688.1635311975115
 30
0.0
 11
13130.85643019016
 21
-669.0606239608241
 31
0.0
  0
DIMENSION
  5
56B9
330
18
100
AcDbEntity
  8
0
100
AcDbDimension
  2
*D17
 10
12635.82876364107
 20
-164.2952312479983
 30
0.0
 11
12613.01157400942
 21
-199.2952312479963
 31
0.0
 70
    32
 71
     5
 42
70.0
  3
ISO-25
100
AcDbAlignedDimension
 13
12674.45097935938
 23
-234.2952312479984
 33
0.0
 14
12694.25277920425
 24
-164.2952312479983
 34
0.0
 50
90.0
100
AcDbRotatedDimension
1001
ACAD
1000
DSTYLE
1002
{
1070
    40
1040
12.0
1070
   271
1070
     0
1002
}
  0
DIMENSION
  5
56DA
330
18
100
AcDbEntity
  8
0
100
AcDbDimension
  2
*D18
 10
12635.82876364107
 20
635.7047687520016
 30
0.0
 11
12613.01157400942
 21
235.7047687520037
 31
0.0
 70
    32
 71
     5
 42
800.0
  3
ISO-25
100
AcDbAlignedDimension
 13
12694.25277920425
 23
-164.2952312479983
 33
0.0
 14
12743.99339406679
 24
635.7047687520016
 34
0.0
 50
90.0
100
AcDbRotatedDimension
1001
ACAD
1000
DSTYLE
1002
{
1070
    40
1040
12.0
1070
   271
1070
     0
1002
}
  0
DIMENSION
  5
5741
330
18
100
AcDbEntity
  8
0
100
AcDbDimension
  2
*D19
 10
12726.77927396051
 20
75.54957799448941
 30
0.0
 11
12726.77927396051
 21
-3.29596493137916
 31
0.0
 70
   160
 71
     5
 42
239.8448092424878
  3
ISO-25
100
AcDbAlignedDimension
 13
12694.25277920425
 23
-164.2952312479983
 33
0.0
 14
12906.02110911045
 24
75.54957799448935
 34
0.0
 50
90.0
100
AcDbRotatedDimension
1001
ACAD
1000
DSTYLE
1002
{
1070
    40
1040
12.0
1070
   271
1070
     0
1002
}
  0
VIEWPORT
  5
4F1F
102
{ACAD_XDICTIONARY
360
57C4
102
}
330
4F18
100
AcDbEntity
 67
     1
  8
0
100
AcDbViewport
 10
98.1815805435181
 20
142.9279141426086
 30
0.0
 40
534.505440804573
 41
298.8880609184635
 68
     1
 69
     1
 12
98.1815805435181
 22
142.9279141426086
 13
0.0
 23
0.0
 14
10.0
 24
10.0
 15
10.0
 25
10.0
 16
0.0
 26
0.0
 36
1.0
 17
0.0
 27
0.0
 37
0.0
 42
50.0
 43
0.0
 44
0.0
 45
298.8880609184635
 50
0.0
 51
0.0
 72
   100
 90
    32800
  1

281
     0
 71
     1
 74
     0
110
0.0
120
0.0
130
0.0
111
1.0
121
0.0
131
0.0
112
0.0
122
1.0
132
0.0
 79
     0
146
0.0
  0
ENDSEC
  0
SECTION
  2
OBJECTS
  0
DICTIONARY
  5
C
330
0
100
AcDbDictionary
281
     1
  3
ACAD_COLOR
350
1ACC
  3
ACAD_GROUP
350
D
  3
ACAD_IMAGE_DICT
350
1BA2
  3
ACAD_IMAGE_VARS
350
1BA3
  3
ACAD_LAYOUT
350
16EC
  3
ACAD_MATERIAL
350
1ACB
  3
ACAD_MLEADERSTYLE
350
56A5
  3
ACAD_MLINESTYLE
350
1B
  3
ACAD_PLOTSETTINGS
350
16ED
  3
ACAD_PLOTSTYLENAME
350
16EA
  3
ACAD_SCALELIST
350
5683
  3
ACAD_TABLESTYLE
350
5681
  3
ACAD_VISUALSTYLE
350
5670
  3
ACDB_RECOMPOSE_DATA
350
57BF
  3
ACDBVARIABLEDICTIONARY
350
1109
  3
CONTENTDICTIONARY
350
23
  3
DWGPROPS
350
57C0
  0
DICTIONARY
  5
56AF
330
2
100
AcDbDictionary
280
     1
281
     1
  3
ACAD_LAYERSTATES
360
56B0
  0
DICTIONARY
  5
571F
330
E
100
AcDbDictionary
280
     1
281
     1
  3
ADSK_XREC_LAYER_RECONCILED
360
5720
  0
DICTIONARY
  5
5721
330
12F
100
AcDbDictionary
280
     1
281
     1
  3
ADSK_XREC_LAYER_RECONCILED
360
5722
  0
DICTIONARY
  5
5723
330
1DA
100
AcDbDictionary
280
     1
281
     1
  3
ADSK_XREC_LAYER_RECONCILED
360
5724
  0
DICTIONARY
  5
5725
330
224
100
AcDbDictionary
280
     1
281
     1
  3
ADSK_XREC_LAYER_RECONCILED
360
5726
  0
DICTIONARY
  5
5727
330
226
100
AcDbDictionary
280
     1
281
     1
  3
ADSK_XREC_LAYER_RECONCILED
360
5728
  0
DICTIONARY
  5
5729
330
425
100
AcDbDictionary
280
     1
281
     1
  3
ADSK_XREC_LAYER_RECONCILED
360
572A
  0
DICTIONARY
  5
572B
330
3BCE
100
AcDbDictionary
280
     1
281
     1
  3
ADSK_XREC_LAYER_RECONCILED
360
572C
  0
DICTIONARY
  5
57C6
330
4F64
100
AcDbDictionary
280
     1
281
     1
  3
ACAD_MTEXT_RT
360
57C7
  0
DICTIONARY
  5
57C8
330
557F
100
AcDbDictionary
280
     1
281
     1
  3
ACAD_MTEXT_RT
360
57C9
  0
DICTIONARY
  5
57CE
330
571B
100
AcDbDictionary
280
     1
281
     1
  3
ACAD_MTEXT_RT
360
57CF
  0
DICTIONARY
  5
40A0
330
409F
100
AcDbDictionary
280
     1
281
     1
  3
ACAD_DIMASSOC
360
40A1
  0
DICTIONARY
  5
40A8
330
40A7
100
AcDbDictionary
280
     1
281
     1
  3
ACAD_DIMASSOC
360
40A9
  0
DICTIONARY
  5
40AE
330
40AD
100
AcDbDictionary
280
     1
281
     1
  3
ACAD_DIMASSOC
360
40AF
  0
DICTIONARY
  5
57C4
330
4F1F
100
AcDbDictionary
280
     1
281
     1
  3
ACAD_XREC_ROUNDTRIP
360
57C5
  0
DICTIONARY
  5
1ACC
102
{ACAD_REACTORS
330
C
102
}
330
C
100
AcDbDictionary
281
     1
  0
DICTIONARY
  5
D
102
{ACAD_REACTORS
330
C
102
}
330
C
100
AcDbDictionary
281
     1
  3
*A1
350
1B1
  3
*A10
350
95D
  3
*A11
350
1B2
  3
*A12
350
1C3
  3
*A13
350
1D2
  3
*A14
350
46A
  3
*A2
350
46B
  3
*A3
350
95A
  3
*A4
350
1A48
  3
*A5
350
1A49
  3
*A6
350
1A4A
  3
*A7
350
1A4B
  3
*A8
350
95B
  3
*A9
350
95C
  0
DICTIONARY
  5
1BA2
102
{ACAD_REACTORS
330
C
102
}
330
C
100
AcDbDictionary
281
     1
  3
C302 H2 Brücke explosions_3D
350
4F98
  3
C302 H2 Brücke_3DOE
350
4F9B
  0
RASTERVARIABLES
  5
1BA3
102
{ACAD_REACTORS
330
C
102
}
330
C
100
AcDbRasterVariables
 90
        0
 70
     1
 71
     1
 72
     0
  0
DICTIONARY
  5
16EC
102
{ACAD_REACTORS
330
C
102
}
330
C
100
AcDbDictionary
281
     1
  3
Layout1
350
4F19
  3
Model
350
16EE
  0
DICTIONARY
  5
1ACB
102
{ACAD_REACTORS
330
C
102
}
330
C
100
AcDbDictionary
281
     1
  3
ByBlock
350
5660
  3
ByLayer
350
5658
  3
Global
350
5668
  0
DICTIONARY
  5
56A5
102
{ACAD_REACTORS
330
C
102
}
330
C
100
AcDbDictionary
281
     1
  3
Standard
350
56A6
  0
DICTIONARY
  5
1B
102
{ACAD_REACTORS
330
C
102
}
330
C
100
AcDbDictionary
281
     1
  3
STANDARD
350
1C
  0
DICTIONARY
  5
16ED
102
{ACAD_REACTORS
330
C
102
}
330
C
100
AcDbDictionary
281
     1
  0
ACDBDICTIONARYWDFLT
  5
16EA
102
{ACAD_REACTORS
330
C
102
}
330
C
100
AcDbDictionary
281
     1
  3
Normal
350
16EB
100
AcDbDictionaryWithDefault
340
16EB
  0
DICTIONARY
  5
5683
102
{ACAD_REACTORS
330
C
102
}
330
C
100
AcDbDictionary
281
     1
  3
A0
350
5684
  3
A1
350
5685
  3
A2
350
5686
  3
A3
350
5687
  3
A4
350
5688
  3
A5
350
5689
  3
A6
350
568A
  3
A7
350
568B
  3
A8
350
568C
  3
A9
350
568D
  3
B0
350
568E
  3
B1
350
568F
  3
B2
350
5690
  3
B3
350
5691
  3
B4
350
5692
  3
B5
350
5693
  3
B6
350
5694
  3
B7
350
5695
  3
B8
350
5696
  3
B9
350
5697
  3
C0
350
5698
  3
C1
350
5699
  3
C2
350
569A
  3
C3
350
569B
  3
C4
350
569C
  3
C5
350
569D
  3
C6
350
569E
  3
C7
350
569F
  3
C8
350
56A0
  3
C9
350
56A1
  3
D0
350
56A2
  3
D1
350
56A3
  3
D2
350
56A4
  0
DICTIONARY
  5
5681
102
{ACAD_REACTORS
330
C
102
}
330
C
100
AcDbDictionary
281
     1
  3
Standard
350
5682
  0
DICTIONARY
  5
5670
102
{ACAD_REACTORS
330
C
102
}
330
C
100
AcDbDictionary
281
     1
  3
2dWireframe
350
5676
  3
3D Hidden
350
5678
  3
3dWireframe
350
5677
  3
Basic
350
5675
  3
Brighten
350
567C
  3
ColorChange
350
5680
  3
Conceptual
350
5679
  3
Dim
350
567B
  3
Facepattern
350
567F
  3
Flat
350
5671
  3
FlatWithEdges
350
5672
  3
Gouraud
350
5673
  3
GouraudWithEdges
350
5674
  3
Linepattern
350
567E
  3
Realistic
350
567A
  3
Thicken
350
567D
  0
XRECORD
  5
57BF
102
{ACAD_REACTORS
330
C
102
}
330
C
100
AcDbXrecord
280
     1
 90
        1
330
5682
  0
DICTIONARY
  5
1109
102
{ACAD_REACTORS
330
C
102
}
330
C
100
AcDbDictionary
281
     1
  3
CANNOSCALE
350
57BB
  3
CMLEADERSTYLE
350
57BA
  3
CTABLESTYLE
350
57B9
  3
DIMASSOC
350
5655
  3
INDEXCTL
350
57BC
  3
PROJECTNAME
350
5656
  3
SORTENTS
350
110A
  0
DICTIONARY
  5
23
102
{ACAD_REACTORS
330
C
102
}
330
C
100
AcDbDictionary
281
     1
  0
XRECORD
  5
57C0
102
{ACAD_REACTORS
330
C
102
}
330
C
100
AcDbXrecord
280
     1
  1
DWGPROPS COOKIE
  2

  3

  4

  6

  7

  8
V498957
  9

300
=
301
=
302
=
303
=
304
=
305
=
306
=
307
=
308
=
309
=
 40
3.411760462962963
 41
2451353.41832853
 42
2454802.40423235
  1

 90
        0
  0
DICTIONARY
  5
56B0
102
{ACAD_REACTORS
330
56AF
102
}
330
56AF
100
AcDbDictionary
281
     1
  0
XRECORD
  5
5720
102
{ACAD_REACTORS
330
571F
102
}
330
571F
100
AcDbXrecord
280
     1
290
     1
  0
XRECORD
  5
5722
102
{ACAD_REACTORS
330
5721
102
}
330
5721
100
AcDbXrecord
280
     1
290
     1
  0
XRECORD
  5
5724
102
{ACAD_REACTORS
330
5723
102
}
330
5723
100
AcDbXrecord
280
     1
290
     1
  0
XRECORD
  5
5726
102
{ACAD_REACTORS
330
5725
102
}
330
5725
100
AcDbXrecord
280
     1
290
     1
  0
XRECORD
  5
5728
102
{ACAD_REACTORS
330
5727
102
}
330
5727
100
AcDbXrecord
280
     1
290
     1
  0
XRECORD
  5
572A
102
{ACAD_REACTORS
330
5729
102
}
330
5729
100
AcDbXrecord
280
     1
290
     1
  0
XRECORD
  5
572C
102
{ACAD_REACTORS
330
572B
102
}
330
572B
100
AcDbXrecord
280
     1
290
     1
  0
XRECORD
  5
57C7
102
{ACAD_REACTORS
330
57C6
102
}
330
57C6
100
AcDbXrecord
280
     1
 40
4430.0
  1
4000±7
  0
XRECORD
  5
57C9
102
{ACAD_REACTORS
330
57C8
102
}
330
57C8
100
AcDbXrecord
280
     1
 40
23459.0
  1
\A1;310{\H0.75x;±40}
  0
XRECORD
  5
57CF
102
{ACAD_REACTORS
330
57CE
102
}
330
57CE
100
AcDbXrecord
280
     1
 40
74333.0
  1
\A1;{\H0.875x;\U+2265}870{\H22.500000;±40}
  0
DIMASSOC
  5
40A1
102
{ACAD_REACTORS
330
40A0
102
}
330
40A0
100
AcDbDimAssoc
330
409F
 90
        2
 70
     0
 71
     0
  1
AcDbOsnapPointRef
 72
     1
331
40A5
 73
     2
 91
        0
 40
1.0
 10
0.0
 20
0.0
 30
2.000000000000000E+50
 75
     0
  0
DIMASSOC
  5
40A9
102
{ACAD_REACTORS
330
40A8
102
}
330
40A8
100
AcDbDimAssoc
330
40A7
 90
        1
 70
     0
 71
     0
  1
AcDbOsnapPointRef
 72
     1
331
40A5
 73
     2
 91
        0
 40
1.0
 10
0.0
 20
0.0
 30
2.000000000000000E+50
 75
     0
  0
DIMASSOC
  5
40AF
102
{ACAD_REACTORS
330
40AE
102
}
330
40AE
100
AcDbDimAssoc
330
40AD
 90
        2
 70
     0
 71
     0
  1
AcDbOsnapPointRef
 72
     2
331
40A5
 73
     2
 91
        0
 40
0.5000000000000008
 10
0.0
 20
0.0
 30
0.0
 75
     0
  0
XRECORD
  5
57C5
102
{ACAD_REACTORS
330
57C4
102
}
330
57C4
100
AcDbXrecord
280
     1
102
SHADEPLOT
 70
     0
  0
GROUP
  5
1B1
102
{ACAD_REACTORS
330
D
102
}
330
D
100
AcDbGroup
300

 70
     1
 71
     1
  0
GROUP
  5
95D
102
{ACAD_REACTORS
330
D
102
}
330
D
100
AcDbGroup
300

 70
     1
 71
     1
  0
GROUP
  5
1B2
102
{ACAD_REACTORS
330
D
102
}
330
D
100
AcDbGroup
300

 70
     1
 71
     1
  0
GROUP
  5
1C3
102
{ACAD_REACTORS
330
D
102
}
330
D
100
AcDbGroup
300

 70
     1
 71
     1
  0
GROUP
  5
1D2
102
{ACAD_REACTORS
330
D
102
}
330
D
100
AcDbGroup
300

 70
     1
 71
     1
  0
GROUP
  5
46A
102
{ACAD_REACTORS
330
D
102
}
330
D
100
AcDbGroup
300

 70
     1
 71
     1
  0
GROUP
  5
46B
102
{ACAD_REACTORS
330
D
102
}
330
D
100
AcDbGroup
300

 70
     1
 71
     1
  0
GROUP
  5
95A
102
{ACAD_REACTORS
330
D
102
}
330
D
100
AcDbGroup
300

 70
     1
 71
     1
  0
GROUP
  5
1A48
102
{ACAD_REACTORS
330
D
102
}
330
D
100
AcDbGroup
300

 70
     1
 71
     1
  0
GROUP
  5
1A49
102
{ACAD_REACTORS
330
D
102
}
330
D
100
AcDbGroup
300

 70
     1
 71
     1
  0
GROUP
  5
1A4A
102
{ACAD_REACTORS
330
D
102
}
330
D
100
AcDbGroup
300

 70
     1
 71
     1
  0
GROUP
  5
1A4B
102
{ACAD_REACTORS
330
D
102
}
330
D
100
AcDbGroup
300

 70
     1
 71
     1
  0
GROUP
  5
95B
102
{ACAD_REACTORS
330
D
102
}
330
D
100
AcDbGroup
300

 70
     1
 71
     1
  0
GROUP
  5
95C
102
{ACAD_REACTORS
330
D
102
}
330
D
100
AcDbGroup
300

 70
     1
 71
     1
  0
IMAGEDEF
  5
4F98
102
{ACAD_REACTORS
330
1BA2
102
}
330
1BA2
100
AcDbRasterImageDef
 90
        0
  1
F:\TB\Leitschienenprospekt\Zeichnungen\Bitmaps\S3\C302 H2 Brücke explosions_3D.bmp
 10
2048.0
 20
1366.0
 11
0.4882812609139367
 21
0.4882812609139367
280
     1
281
     2
  0
IMAGEDEF
  5
4F9B
102
{ACAD_REACTORS
330
1BA2
102
}
330
1BA2
100
AcDbRasterImageDef
 90
        0
  1
F:\TB\Leitschienenprospekt\Zeichnungen\Bitmaps\S3\C302 H2 Brücke_3DOE.bmp
 10
2048.0
 20
1536.0
 11
0.4882812609139367
 21
0.4882812609139367
280
     1
281
     2
  0
LAYOUT
  5
4F19
102
{ACAD_XDICTIONARY
360
56B4
102
}
102
{ACAD_REACTORS
330
16EC
102
}
330
16EC
100
AcDbPlotSettings
  1

  2
\\vakf11\Lexmark Optra E312 lex15
  4
A4
  6

 40
6.805083274841308
 41
5.535083293914794
 42
6.974411010742187
 43
7.14373779296875
 44
209.9733276367187
 45
296.9259948730469
 46
0.0
 47
0.0
 48
0.0
 49
0.0
140
0.0
141
0.0
142
1.0
143
1.0
 70
   690
 72
     1
 73
     0
 74
     5
  7
monochrome.ctb
 75
    16
147
1.0
148
0.0
149
0.0
100
AcDbLayout
  1
Layout1
 70
     1
 71
     1
 10
-6.805083274841308
 20
-5.535083293914794
 11
203.1682443618775
 21
291.3909115791321
 12
0.0
 22
0.0
 32
0.0
 14
1.000000000000000E+20
 24
1.000000000000000E+20
 34
1.000000000000000E+20
 15
-1.000000000000000E+20
 25
-1.000000000000000E+20
 35
-1.000000000000000E+20
146
0.0
 13
0.0
 23
0.0
 33
0.0
 16
1.0
 26
0.0
 36
0.0
 17
0.0
 27
1.0
 37
0.0
 76
     0
330
4F18
331
4F1F
  0
LAYOUT
  5
16EE
102
{ACAD_XDICTIONARY
360
57C1
102
}
102
{ACAD_REACTORS
330
16EC
102
}
330
16EC
100
AcDbPlotSettings
  1

  2
\\VAKF3\Lexmark Optra R Plus Series lex4 FS
  4

  6

 40
0.0
 41
0.0
 42
0.0
 43
0.0
 44
0.0
 45
0.0
 46
0.0
 47
0.0
 48
0.0
 49
0.0
140
0.0
141
0.0
142
1.0
143
1.0
 70
  1712
 72
     0
 73
     0
 74
     0
  7

 75
     0
147
1.0
148
0.0
149
0.0
100
AcDbLayout
  1
Model
 70
     1
 71
     0
 10
0.0
 20
0.0
 11
12.0
 21
9.0
 12
0.0
 22
0.0
 32
0.0
 14
0.0
 24
0.0
 34
0.0
 15
0.0
 25
0.0
 35
0.0
146
0.0
 13
0.0
 23
0.0
 33
0.0
 16
1.0
 26
0.0
 36
0.0
 17
0.0
 27
1.0
 37
0.0
 76
     0
330
18
331
562B
  0
MATERIAL
  5
5660
102
{ACAD_XDICTIONARY
360
5661
102
}
102
{ACAD_REACTORS
330
1ACB
102
}
330
1ACB
100
AcDbMaterial
  1
ByBlock
 72
     0
 43
0.0208333333333333
 43
0.0
 43
0.0
 43
0.0
 43
0.0
 43
0.0208333333333333
 43
0.0
 43
0.0
 43
0.0
 43
0.0
 43
1.0
 43
0.0
 43
0.0
 43
0.0
 43
0.0
 43
1.0
 77
     0
 47
0.0208333333333333
 47
0.0
 47
0.0
 47
0.0
 47
0.0
 47
0.0208333333333333
 47
0.0
 47
0.0
 47
0.0
 47
0.0
 47
1.0
 47
0.0
 47
0.0
 47
0.0
 47
0.0
 47
1.0
171
     0
 49
0.0208333333333333
 49
0.0
 49
0.0
 49
0.0
 49
0.0
 49
0.0208333333333333
 49
0.0
 49
0.0
 49
0.0
 49
0.0
 49
1.0
 49
0.0
 49
0.0
 49
0.0
 49
0.0
 49
1.0
175
     0
142
0.0208333333333333
142
0.0
142
0.0
142
0.0
142
0.0
142
0.0208333333333333
142
0.0
142
0.0
142
0.0
142
0.0
142
1.0
142
0.0
142
0.0
142
0.0
142
0.0
142
1.0
179
     0
144
0.0208333333333333
144
0.0
144
0.0
144
0.0
144
0.0
144
0.0208333333333333
144
0.0
144
0.0
144
0.0
144
0.0
144
1.0
144
0.0
144
0.0
144
0.0
144
0.0
144
1.0
147
0.0208333333333333
147
0.0
147
0.0
147
0.0
147
0.0
147
0.0208333333333333
147
0.0
147
0.0
147
0.0
147
0.0
147
1.0
147
0.0
147
0.0
147
0.0
147
0.0
147
1.0
  0
MATERIAL
  5
5658
102
{ACAD_XDICTIONARY
360
5659
102
}
102
{ACAD_REACTORS
330
1ACB
102
}
330
1ACB
100
AcDbMaterial
  1
ByLayer
 72
     0
 43
0.0208333333333333
 43
0.0
 43
0.0
 43
0.0
 43
0.0
 43
0.0208333333333333
 43
0.0
 43
0.0
 43
0.0
 43
0.0
 43
1.0
 43
0.0
 43
0.0
 43
0.0
 43
0.0
 43
1.0
 77
     0
 47
0.0208333333333333
 47
0.0
 47
0.0
 47
0.0
 47
0.0
 47
0.0208333333333333
 47
0.0
 47
0.0
 47
0.0
 47
0.0
 47
1.0
 47
0.0
 47
0.0
 47
0.0
 47
0.0
 47
1.0
171
     0
 49
0.0208333333333333
 49
0.0
 49
0.0
 49
0.0
 49
0.0
 49
0.0208333333333333
 49
0.0
 49
0.0
 49
0.0
 49
0.0
 49
1.0
 49
0.0
 49
0.0
 49
0.0
 49
0.0
 49
1.0
175
     0
142
0.0208333333333333
142
0.0
142
0.0
142
0.0
142
0.0
142
0.0208333333333333
142
0.0
142
0.0
142
0.0
142
0.0
142
1.0
142
0.0
142
0.0
142
0.0
142
0.0
142
1.0
179
     0
144
0.0208333333333333
144
0.0
144
0.0
144
0.0
144
0.0
144
0.0208333333333333
144
0.0
144
0.0
144
0.0
144
0.0
144
1.0
144
0.0
144
0.0
144
0.0
144
0.0
144
1.0
147
0.0208333333333333
147
0.0
147
0.0
147
0.0
147
0.0
147
0.0208333333333333
147
0.0
147
0.0
147
0.0
147
0.0
147
1.0
147
0.0
147
0.0
147
0.0
147
0.0
147
1.0
  0
MATERIAL
  5
5668
102
{ACAD_XDICTIONARY
360
5669
102
}
102
{ACAD_REACTORS
330
1ACB
102
}
330
1ACB
100
AcDbMaterial
  1
Global
 72
     0
 43
0.0208333333333333
 43
0.0
 43
0.0
 43
0.0
 43
0.0
 43
0.0208333333333333
 43
0.0
 43
0.0
 43
0.0
 43
0.0
 43
1.0
 43
0.0
 43
0.0
 43
0.0
 43
0.0
 43
1.0
 77
     0
 47
0.0208333333333333
 47
0.0
 47
0.0
 47
0.0
 47
0.0
 47
0.0208333333333333
 47
0.0
 47
0.0
 47
0.0
 47
0.0
 47
1.0
 47
0.0
 47
0.0
 47
0.0
 47
0.0
 47
1.0
171
     0
 49
0.0208333333333333
 49
0.0
 49
0.0
 49
0.0
 49
0.0
 49
0.0208333333333333
 49
0.0
 49
0.0
 49
0.0
 49
0.0
 49
1.0
 49
0.0
 49
0.0
 49
0.0
 49
0.0
 49
1.0
175
     0
142
0.0208333333333333
142
0.0
142
0.0
142
0.0
142
0.0
142
0.0208333333333333
142
0.0
142
0.0
142
0.0
142
0.0
142
1.0
142
0.0
142
0.0
142
0.0
142
0.0
142
1.0
179
     0
144
0.0208333333333333
144
0.0
144
0.0
144
0.0
144
0.0
144
0.0208333333333333
144
0.0
144
0.0
144
0.0
144
0.0
144
1.0
144
0.0
144
0.0
144
0.0
144
0.0
144
1.0
147
0.0208333333333333
147
0.0
147
0.0
147
0.0
147
0.0
147
0.0208333333333333
147
0.0
147
0.0
147
0.0
147
0.0
147
1.0
147
0.0
147
0.0
147
0.0
147
0.0
147
1.0
  0
MLEADERSTYLE
  5
56A6
102
{ACAD_REACTORS
330
56A5
102
}
330
56A5
100
AcDbMLeaderStyle
170
     2
171
     1
172
     0
 90
        2
 40
0.0
 41
0.0
173
     1
 91
-1056964608
340
12
 92
       -2
290
     1
 42
0.09
291
     1
 43
0.36
  3
Standard
 44
0.18
300

342
F
174
     1
178
     6
175
     1
176
     0
 93
-1056964608
 45
0.18
292
     0
297
     0
 46
0.18
 94
-1056964608
 47
1.0
 49
1.0
140
1.0
293
     1
141
0.0
294
     1
177
     0
142
1.0
295
     0
296
     0
143
0.125
1001
ACAD_MLEADERVER
1070
     2
  0
MLINESTYLE
  5
1C
102
{ACAD_REACTORS
330
1B
102
}
330
1B
100
AcDbMlineStyle
  2
STANDARD
 70
     0
  3

 62
   256
 51
90.0
 52
90.0
 71
     2
 49
0.5
 62
   256
  6
BYLAYER
 49
-0.5
 62
   256
  6
BYLAYER
  0
ACDBPLACEHOLDER
  5
16EB
102
{ACAD_REACTORS
330
16EA
102
}
330
16EA
  0
SCALE
  5
5684
102
{ACAD_REACTORS
330
5683
102
}
330
5683
100
AcDbScale
 70
     0
300
1:1
140
1.0
141
1.0
290
     1
  0
SCALE
  5
5685
102
{ACAD_REACTORS
330
5683
102
}
330
5683
100
AcDbScale
 70
     0
300
1:2
140
1.0
141
2.0
290
     0
  0
SCALE
  5
5686
102
{ACAD_REACTORS
330
5683
102
}
330
5683
100
AcDbScale
 70
     0
300
1:4
140
1.0
141
4.0
290
     0
  0
SCALE
  5
5687
102
{ACAD_REACTORS
330
5683
102
}
330
5683
100
AcDbScale
 70
     0
300
1:5
140
1.0
141
5.0
290
     0
  0
SCALE
  5
5688
102
{ACAD_REACTORS
330
5683
102
}
330
5683
100
AcDbScale
 70
     0
300
1:8
140
1.0
141
8.0
290
     0
  0
SCALE
  5
5689
102
{ACAD_REACTORS
330
5683
102
}
330
5683
100
AcDbScale
 70
     0
300
1:10
140
1.0
141
10.0
290
     0
  0
SCALE
  5
568A
102
{ACAD_REACTORS
330
5683
102
}
330
5683
100
AcDbScale
 70
     0
300
1:16
140
1.0
141
16.0
290
     0
  0
SCALE
  5
568B
102
{ACAD_REACTORS
330
5683
102
}
330
5683
100
AcDbScale
 70
     0
300
1:20
140
1.0
141
20.0
290
     0
  0
SCALE
  5
568C
102
{ACAD_REACTORS
330
5683
102
}
330
5683
100
AcDbScale
 70
     0
300
1:30
140
1.0
141
30.0
290
     0
  0
SCALE
  5
568D
102
{ACAD_REACTORS
330
5683
102
}
330
5683
100
AcDbScale
 70
     0
300
1:40
140
1.0
141
40.0
290
     0
  0
SCALE
  5
568E
102
{ACAD_REACTORS
330
5683
102
}
330
5683
100
AcDbScale
 70
     0
300
1:50
140
1.0
141
50.0
290
     0
  0
SCALE
  5
568F
102
{ACAD_REACTORS
330
5683
102
}
330
5683
100
AcDbScale
 70
     0
300
1:100
140
1.0
141
100.0
290
     0
  0
SCALE
  5
5690
102
{ACAD_REACTORS
330
5683
102
}
330
5683
100
AcDbScale
 70
     0
300
2:1
140
2.0
141
1.0
290
     0
  0
SCALE
  5
5691
102
{ACAD_REACTORS
330
5683
102
}
330
5683
100
AcDbScale
 70
     0
300
4:1
140
4.0
141
1.0
290
     0
  0
SCALE
  5
5692
102
{ACAD_REACTORS
330
5683
102
}
330
5683
100
AcDbScale
 70
     0
300
8:1
140
8.0
141
1.0
290
     0
  0
SCALE
  5
5693
102
{ACAD_REACTORS
330
5683
102
}
330
5683
100
AcDbScale
 70
     0
300
10:1
140
10.0
141
1.0
290
     0
  0
SCALE
  5
5694
102
{ACAD_REACTORS
330
5683
102
}
330
5683
100
AcDbScale
 70
     0
300
100:1
140
100.0
141
1.0
290
     0
  0
SCALE
  5
5695
102
{ACAD_REACTORS
330
5683
102
}
330
5683
100
AcDbScale
 70
     0
300
1/128" = 1'-0"
140
0.0078125
141
12.0
290
     0
  0
SCALE
  5
5696
102
{ACAD_REACTORS
330
5683
102
}
330
5683
100
AcDbScale
 70
     0
300
1/64" = 1'-0"
140
0.015625
141
12.0
290
     0
  0
SCALE
  5
5697
102
{ACAD_REACTORS
330
5683
102
}
330
5683
100
AcDbScale
 70
     0
300
1/32" = 1'-0"
140
0.03125
141
12.0
290
     0
  0
SCALE
  5
5698
102
{ACAD_REACTORS
330
5683
102
}
330
5683
100
AcDbScale
 70
     0
300
1/16" = 1'-0"
140
0.0625
141
12.0
290
     0
  0
SCALE
  5
5699
102
{ACAD_REACTORS
330
5683
102
}
330
5683
100
AcDbScale
 70
     0
300
3/32" = 1'-0"
140
0.09375
141
12.0
290
     0
  0
SCALE
  5
569A
102
{ACAD_REACTORS
330
5683
102
}
330
5683
100
AcDbScale
 70
     0
300
1/8" = 1'-0"
140
0.125
141
12.0
290
     0
  0
SCALE
  5
569B
102
{ACAD_REACTORS
330
5683
102
}
330
5683
100
AcDbScale
 70
     0
300
3/16" = 1'-0"
140
0.1875
141
12.0
290
     0
  0
SCALE
  5
569C
102
{ACAD_REACTORS
330
5683
102
}
330
5683
100
AcDbScale
 70
     0
300
1/4" = 1'-0"
140
0.25
141
12.0
290
     0
  0
SCALE
  5
569D
102
{ACAD_REACTORS
330
5683
102
}
330
5683
100
AcDbScale
 70
     0
300
3/8" = 1'-0"
140
0.375
141
12.0
290
     0
  0
SCALE
  5
569E
102
{ACAD_REACTORS
330
5683
102
}
330
5683
100
AcDbScale
 70
     0
300
1/2" = 1'-0"
140
0.5
141
12.0
290
     0
  0
SCALE
  5
569F
102
{ACAD_REACTORS
330
5683
102
}
330
5683
100
AcDbScale
 70
     0
300
3/4" = 1'-0"
140
0.75
141
12.0
290
     0
  0
SCALE
  5
56A0
102
{ACAD_REACTORS
330
5683
102
}
330
5683
100
AcDbScale
 70
     0
300
1" = 1'-0"
140
1.0
141
12.0
290
     0
  0
SCALE
  5
56A1
102
{ACAD_REACTORS
330
5683
102
}
330
5683
100
AcDbScale
 70
     0
300
1-1/2" = 1'-0"
140
1.5
141
12.0
290
     0
  0
SCALE
  5
56A2
102
{ACAD_REACTORS
330
5683
102
}
330
5683
100
AcDbScale
 70
     0
300
3" = 1'-0"
140
3.0
141
12.0
290
     0
  0
SCALE
  5
56A3
102
{ACAD_REACTORS
330
5683
102
}
330
5683
100
AcDbScale
 70
     0
300
6" = 1'-0"
140
6.0
141
12.0
290
     0
  0
SCALE
  5
56A4
102
{ACAD_REACTORS
330
5683
102
}
330
5683
100
AcDbScale
 70
     0
300
1'-0" = 1'-0"
140
12.0
141
12.0
290
     0
  0
TABLESTYLE
  5
5682
102
{ACAD_XDICTIONARY
360
57BD
102
}
102
{ACAD_REACTORS
330
5681
102
}
330
5681
100
AcDbTableStyle
  3
Standard
 70
     0
 71
     0
 40
0.06
 41
0.06
280
     0
281
     0
  7
STANDARD
140
0.18
170
     2
 62
     0
 63
     7
283
     0
274
    -2
284
     1
 64
     0
275
    -2
285
     1
 65
     0
276
    -2
286
     1
 66
     0
277
    -2
287
     1
 67
     0
278
    -2
288
     1
 68
     0
279
    -2
289
     1
 69
     0
  7
STANDARD
140
0.25
170
     5
 62
     0
 63
     7
283
     0
274
    -2
284
     1
 64
     0
275
    -2
285
     1
 65
     0
276
    -2
286
     1
 66
     0
277
    -2
287
     1
 67
     0
278
    -2
288
     1
 68
     0
279
    -2
289
     1
 69
     0
  7
STANDARD
140
0.18
170
     5
 62
     0
 63
     7
283
     0
274
    -2
284
     1
 64
     0
275
    -2
285
     1
 65
     0
276
    -2
286
     1
 66
     0
277
    -2
287
     1
 67
     0
278
    -2
288
     1
 68
     0
279
    -2
289
     1
 69
     0
  0
VISUALSTYLE
  5
5676
102
{ACAD_REACTORS
330
5670
102
}
330
5670
100
AcDbVisualStyle
  2
2dWireframe
 70
     4
 71
     0
 72
     2
 73
     0
 90
        0
 40
-0.6
 41
-30.0
 62
     5
 63
     7
 74
     1
 91
        4
 64
     7
 65
   257
 75
     1
175
     1
 42
1.0
 92
        0
 66
   257
 43
1.0
 76
     1
 77
     6
 78
     2
 67
     7
 79
     5
170
     0
171
     0
290
     0
174
     0
 93
        1
 44
0.0
173
     0
291
     0
 45
0.0
1001
ACAD
1000
AcDbSavedByObjectVersion
1070
     0
  0
VISUALSTYLE
  5
5678
102
{ACAD_REACTORS
330
5670
102
}
330
5670
100
AcDbVisualStyle
  2
3D Hidden
 70
     6
 71
     1
 72
     2
 73
     2
 90
        0
 40
-0.6
 41
-30.0
 62
     5
 63
     7
 74
     2
 91
        2
 64
     7
 65
   257
 75
     2
175
     1
 42
40.0
 92
        0
 66
   257
 43
1.0
 76
     1
 77
     6
 78
     2
 67
     7
 79
     3
170
     0
171
     0
290
     0
174
     0
 93
        1
 44
0.0
173
     0
291
     0
 45
0.0
1001
ACAD
1000
AcDbSavedByObjectVersion
1070
     0
  0
VISUALSTYLE
  5
5677
102
{ACAD_REACTORS
330
5670
102
}
330
5670
100
AcDbVisualStyle
  2
3dWireframe
 70
     5
 71
     0
 72
     2
 73
     0
 90
        0
 40
-0.6
 41
-30.0
 62
     5
 63
     7
 74
     1
 91
        4
 64
     7
 65
   257
 75
     1
175
     1
 42
1.0
 92
        0
 66
   257
 43
1.0
 76
     1
 77
     6
 78
     2
 67
     7
 79
     5
170
     0
171
     0
290
     0
174
     0
 93
        1
 44
0.0
173
     0
291
     0
 45
0.0
1001
ACAD
1000
AcDbSavedByObjectVersion
1070
     0
  0
VISUALSTYLE
  5
5675
102
{ACAD_REACTORS
330
5670
102
}
330
5670
100
AcDbVisualStyle
  2
Basic
 70
     7
 71
     1
 72
     0
 73
     1
 90
        0
 40
-0.6
 41
-30.0
 62
     5
 63
     7
 74
     0
 91
        4
 64
     7
 65
   257
 75
     1
175
     1
 42
1.0
 92
        8
 66
     7
 43
1.0
 76
     1
 77
     6
 78
     2
 67
     7
 79
     5
170
     0
171
     0
290
     0
174
     0
 93
        1
 44
0.0
173
     0
291
     1
 45
0.0
1001
ACAD
1000
AcDbSavedByObjectVersion
1070
     0
  0
VISUALSTYLE
  5
567C
102
{ACAD_REACTORS
330
5670
102
}
330
5670
100
AcDbVisualStyle
  2
Brighten
 70
    12
 71
     2
 72
     2
 73
     0
 90
        0
 40
-0.6
 41
-30.0
 62
     5
 63
     7
 74
     1
 91
        4
 64
     7
 65
   257
 75
     1
175
     1
 42
1.0
 92
        8
 66
     7
 43
1.0
 76
     1
 77
     6
 78
     2
 67
     7
 79
     5
170
     0
171
     0
290
     0
174
     0
 93
        1
 44
50.0
173
     0
291
     1
 45
0.0
1001
ACAD
1000
AcDbSavedByObjectVersion
1070
     0
  0
VISUALSTYLE
  5
5680
102
{ACAD_REACTORS
330
5670
102
}
330
5670
100
AcDbVisualStyle
  2
ColorChange
 70
    16
 71
     2
 72
     2
 73
     3
 90
        0
 40
-0.6
 41
-30.0
 62
     5
 63
     8
 74
     1
 91
        4
 64
     7
 65
   257
 75
     1
175
     1
 42
1.0
 92
        8
 66
     8
 43
1.0
 76
     1
 77
     6
 78
     2
 67
     7
 79
     5
170
     0
171
     0
290
     0
174
     0
 93
        1
 44
0.0
173
     0
291
     1
 45
0.0
1001
ACAD
1000
AcDbSavedByObjectVersion
1070
     0
  0
VISUALSTYLE
  5
5679
102
{ACAD_REACTORS
330
5670
102
}
330
5670
100
AcDbVisualStyle
  2
Conceptual
 70
     9
 71
     3
 72
     2
 73
     0
 90
        0
 40
-0.6
 41
-30.0
 62
     5
 63
     7
 74
     2
 91
        2
 64
     7
 65
   257
 75
     1
175
     1
 42
40.0
 92
        8
 66
     7
 43
1.0
 76
     1
 77
     6
 78
     2
 67
     7
 79
     3
170
     0
171
     0
290
     0
174
     0
 93
        1
 44
0.0
173
     0
291
     0
 45
0.0
1001
ACAD
1000
AcDbSavedByObjectVersion
1070
     0
  0
VISUALSTYLE
  5
567B
102
{ACAD_REACTORS
330
5670
102
}
330
5670
100
AcDbVisualStyle
  2
Dim
 70
    11
 71
     2
 72
     2
 73
     0
 90
        0
 40
-0.6
 41
-30.0
 62
     5
 63
     7
 74
     1
 91
        4
 64
     7
 65
   257
 75
     1
175
     1
 42
1.0
 92
        8
 66
     7
 43
1.0
 76
     1
 77
     6
 78
     2
 67
     7
 79
     5
170
     0
171
     0
290
     0
174
     0
 93
        1
 44
-50.0
173
     0
291
     1
 45
0.0
1001
ACAD
1000
AcDbSavedByObjectVersion
1070
     0
  0
VISUALSTYLE
  5
567F
102
{ACAD_REACTORS
330
5670
102
}
330
5670
100
AcDbVisualStyle
  2
Facepattern
 70
    15
 71
     2
 72
     2
 73
     0
 90
        0
 40
-0.6
 41
-30.0
 62
     5
 63
     7
 74
     1
 91
        4
 64
     7
 65
   257
 75
     1
175
     1
 42
1.0
 92
        8
 66
     7
 43
1.0
 76
     1
 77
     6
 78
     2
 67
     7
 79
     5
170
     0
171
     0
290
     0
174
     0
 93
        1
 44
0.0
173
     0
291
     1
 45
0.0
1001
ACAD
1000
AcDbSavedByObjectVersion
1070
     0
  0
VISUALSTYLE
  5
5671
102
{ACAD_REACTORS
330
5670
102
}
330
5670
100
AcDbVisualStyle
  2
Flat
 70
     0
 71
     2
 72
     1
 73
     1
 90
        2
 40
-0.6
 41
30.0
 62
     5
 63
     7
 74
     0
 91
        4
 64
     7
 65
   257
 75
     1
175
     1
 42
1.0
 92
        8
 66
     7
 43
1.0
 76
     1
 77
     6
 78
     2
 67
     7
 79
     5
170
     0
171
     0
290
     0
174
     0
 93
       13
 44
0.0
173
     0
291
     1
 45
0.0
1001
ACAD
1000
AcDbSavedByObjectVersion
1070
     0
  0
VISUALSTYLE
  5
5672
102
{ACAD_REACTORS
330
5670
102
}
330
5670
100
AcDbVisualStyle
  2
FlatWithEdges
 70
     1
 71
     2
 72
     1
 73
     1
 90
        2
 40
-0.6
 41
30.0
 62
     5
 63
     7
 74
     1
 91
        4
 64
     7
 65
   257
 75
     1
175
     1
 42
1.0
 92
        0
 66
   257
 43
1.0
 76
     1
 77
     6
 78
     2
 67
     7
 79
     5
170
     0
171
     0
290
     0
174
     0
 93
       13
 44
0.0
173
     0
291
     1
 45
0.0
1001
ACAD
1000
AcDbSavedByObjectVersion
1070
     0
  0
VISUALSTYLE
  5
5673
102
{ACAD_REACTORS
330
5670
102
}
330
5670
100
AcDbVisualStyle
  2
Gouraud
 70
     2
 71
     2
 72
     2
 73
     1
 90
        2
 40
-0.6
 41
30.0
 62
     5
 63
     7
 74
     0
 91
        4
 64
     7
 65
   257
 75
     1
175
     1
 42
1.0
 92
        0
 66
     7
 43
1.0
 76
     1
 77
     6
 78
     2
 67
     7
 79
     5
170
     0
171
     0
290
     0
174
     0
 93
       13
 44
0.0
173
     0
291
     1
 45
0.0
1001
ACAD
1000
AcDbSavedByObjectVersion
1070
     0
  0
VISUALSTYLE
  5
5674
102
{ACAD_REACTORS
330
5670
102
}
330
5670
100
AcDbVisualStyle
  2
GouraudWithEdges
 70
     3
 71
     2
 72
     2
 73
     1
 90
        2
 40
-0.6
 41
30.0
 62
     5
 63
     7
 74
     1
 91
        4
 64
     7
 65
   257
 75
     1
175
     1
 42
1.0
 92
        0
 66
   257
 43
1.0
 76
     1
 77
     6
 78
     2
 67
     7
 79
     5
170
     0
171
     0
290
     0
174
     0
 93
       13
 44
0.0
173
     0
291
     1
 45
0.0
1001
ACAD
1000
AcDbSavedByObjectVersion
1070
     0
  0
VISUALSTYLE
  5
567E
102
{ACAD_REACTORS
330
5670
102
}
330
5670
100
AcDbVisualStyle
  2
Linepattern
 70
    14
 71
     2
 72
     2
 73
     0
 90
        0
 40
-0.6
 41
-30.0
 62
     5
 63
     7
 74
     1
 91
        4
 64
     7
 65
   257
 75
     7
175
     7
 42
1.0
 92
        8
 66
     7
 43
1.0
 76
     1
 77
     6
 78
     2
 67
     7
 79
     5
170
     0
171
     0
290
     0
174
     0
 93
        1
 44
0.0
173
     0
291
     1
 45
0.0
1001
ACAD
1000
AcDbSavedByObjectVersion
1070
     0
  0
VISUALSTYLE
  5
567A
102
{ACAD_REACTORS
330
5670
102
}
330
5670
100
AcDbVisualStyle
  2
Realistic
 70
     8
 71
     2
 72
     2
 73
     0
 90
        0
 40
-0.6
 41
-30.0
 62
     5
 63
     7
 74
     1
 91
        0
 64
     7
 65
   257
 75
     1
175
     1
 42
1.0
 92
        8
 66
     8
 43
1.0
 76
     1
 77
     6
 78
     2
 67
     7
 79
     5
170
     0
171
     0
290
     0
174
     0
 93
       13
 44
0.0
173
     0
291
     0
 45
0.0
1001
ACAD
1000
AcDbSavedByObjectVersion
1070
     0
  0
VISUALSTYLE
  5
567D
102
{ACAD_REACTORS
330
5670
102
}
330
5670
100
AcDbVisualStyle
  2
Thicken
 70
    13
 71
     2
 72
     2
 73
     0
 90
        0
 40
-0.6
 41
-30.0
 62
     5
 63
     7
 74
     1
 91
        4
 64
     7
 65
   257
 75
     1
175
     1
 42
1.0
 92
       12
 66
     7
 43
1.0
 76
     1
 77
     6
 78
     2
 67
     7
 79
     5
170
     0
171
     0
290
     0
174
     0
 93
        1
 44
0.0
173
     0
291
     1
 45
0.0
1001
ACAD
1000
AcDbSavedByObjectVersion
1070
     0
  0
DICTIONARYVAR
  5
57BB
102
{ACAD_REACTORS
330
1109
102
}
330
1109
100
DictionaryVariables
280
     0
  1
1:1
  0
DICTIONARYVAR
  5
57BA
102
{ACAD_REACTORS
330
1109
102
}
330
1109
100
DictionaryVariables
280
     0
  1
STANDARD
  0
DICTIONARYVAR
  5
57B9
102
{ACAD_REACTORS
330
1109
102
}
330
1109
100
DictionaryVariables
280
     0
  1
STANDARD
  0
DICTIONARYVAR
  5
5655
102
{ACAD_REACTORS
330
1109
102
}
330
1109
100
DictionaryVariables
280
     0
  1
1
  0
DICTIONARYVAR
  5
57BC
102
{ACAD_REACTORS
330
1109
102
}
330
1109
100
DictionaryVariables
280
     0
  1
0
  0
DICTIONARYVAR
  5
5656
102
{ACAD_REACTORS
330
1109
102
}
330
1109
100
DictionaryVariables
280
     0
  1

  0
DICTIONARYVAR
  5
110A
102
{ACAD_REACTORS
330
1109
102
}
330
1109
100
DictionaryVariables
280
     0
  1
96
  0
DICTIONARY
  5
56B4
330
4F19
100
AcDbDictionary
280
     1
281
     1
  3
ACAD_XREC_ROUNDTRIP
360
57C3
  3
ADSK_XREC_LAYOUTTHUMBNAIL
360
56B5
  0
DICTIONARY
  5
57C1
330
16EE
100
AcDbDictionary
280
     1
281
     1
  3
ACAD_XREC_ROUNDTRIP
360
57C2
  0
DICTIONARY
  5
5661
330
5660
100
AcDbDictionary
280
     1
281
     1
  3
ACAD_XREC_ROUNDTRIP
360
57CB
  3
BUMPTILE
360
5663
  3
DIFFUSETILE
360
5662
  3
OPACITYTILE
360
5666
  3
REFLECTIONTILE
360
5665
  3
REFRACTIONTILE
360
5667
  3
SPECULARTILE
360
5664
  0
DICTIONARY
  5
5659
330
5658
100
AcDbDictionary
280
     1
281
     1
  3
ACAD_XREC_ROUNDTRIP
360
57CA
  3
BUMPTILE
360
565B
  3
DIFFUSETILE
360
565A
  3
OPACITYTILE
360
565E
  3
REFLECTIONTILE
360
565D
  3
REFRACTIONTILE
360
565F
  3
SPECULARTILE
360
565C
  0
DICTIONARY
  5
5669
330
5668
100
AcDbDictionary
280
     1
281
     1
  3
ACAD_XREC_ROUNDTRIP
360
57CC
  3
BUMPTILE
360
566B
  3
DIFFUSETILE
360
566A
  3
OPACITYTILE
360
566E
  3
REFLECTIONTILE
360
566D
  3
REFRACTIONTILE
360
566F
  3
SPECULARTILE
360
566C
  0
DICTIONARY
  5
57BD
330
5682
100
AcDbDictionary
280
     1
281
     1
  3
ACAD_ROUNDTRIP_2008_TABLESTYLE_CELLSTYLEMAP
360
57BE
  3
ACAD_XREC_ROUNDTRIP
360
57CD
  0
XRECORD
  5
57C3
102
{ACAD_REACTORS
330
56B4
102
}
330
56B4
100
AcDbXrecord
280
     1
102
SHADEPLOT
 70
     1
102
SHADEPLOTRESLEVEL
 70
     2
102
SHADEPLOTCUSTOMDPI
 70
   150
  0
XRECORD
  5
56B5
102
{ACAD_REACTORS
330
56B4
102
}
330
56B4
100
AcDbXrecord
280
     1
310
28000000630000008C0000000100080000000000B036000000000000000000000001000000000000FFFFFF0000000000FFFFFF000000000000000000000000000000000000000000000000000000000000000000330000006600000099000000CC000000FF00000000330000333300006633000099330000CC330000FF3300
310
0000660000336600006666000099660000CC660000FF66000000990000339900006699000099990000CC990000FF99000000CC000033CC000066CC000099CC0000CCCC0000FFCC000000FF000033FF000066FF000099FF0000CCFF0000FFFF000000003300330033006600330099003300CC003300FF003300003333003333
310
33006633330099333300CC333300FF33330000663300336633006666330099663300CC663300FF66330000993300339933006699330099993300CC993300FF99330000CC330033CC330066CC330099CC3300CCCC3300FFCC330000FF330033FF330066FF330099FF3300CCFF3300FFFF330000006600330066006600660099
310
006600CC006600FF00660000336600333366006633660099336600CC336600FF33660000666600336666006666660099666600CC666600FF66660000996600339966006699660099996600CC996600FF99660000CC660033CC660066CC660099CC6600CCCC6600FFCC660000FF660033FF660066FF660099FF6600CCFF6600
310
FFFF660000009900330099006600990099009900CC009900FF00990000339900333399006633990099339900CC339900FF33990000669900336699006666990099669900CC669900FF66990000999900339999006699990099999900CC999900FF99990000CC990033CC990066CC990099CC9900CCCC9900FFCC990000FF99
310
0033FF990066FF990099FF9900CCFF9900FFFF99000000CC003300CC006600CC009900CC00CC00CC00FF00CC000033CC003333CC006633CC009933CC00CC33CC00FF33CC000066CC003366CC006666CC009966CC00CC66CC00FF66CC000099CC003399CC006699CC009999CC00CC99CC00FF99CC0000CCCC0033CCCC0066CC
310
CC0099CCCC00CCCCCC00FFCCCC0000FFCC0033FFCC0066FFCC0099FFCC00CCFFCC00FFFFCC000000FF003300FF006600FF009900FF00CC00FF00FF00FF000033FF003333FF006633FF009933FF00CC33FF00FF33FF000066FF003366FF006666FF009966FF00CC66FF00FF66FF000099FF003399FF006699FF009999FF00CC
310
99FF00FF99FF0000CCFF0033CCFF0066CCFF0099CCFF00CCCCFF00FFCCFF0000FFFF0033FFFF0066FFFF0099FFFF00CCFFFF00FFFFFF00000000000D0D0D001A1A1A00282828003535350043434300505050005D5D5D006B6B6B00787878008686860093939300A1A1A100AEAEAE00BBBBBB00C9C9C900D6D6D600E4E4E400
310
F1F1F100FFFFFF0000000000000000000000000000000000000000000000000000000000000000000000000000000000E2E2E2E2E2E2E2E2E2E2E2E2E2E2E2E2E2E2E2E2E2E2E2E2E2E2E2E2E2E2E2E2E2E2E2E2E2E2E2E2E2E2E2E2E2E2E2E2E2E2E2E2E2E2E2E2E2E2E2E2E2E2E2E2E2E2E2E2E2E2E2E2E2E2E2E2E2E2E2
310
E2E2E2E2E2E2E2E2E2E2E2E2E2E2E2E2E2E2E2E2E2E2F5F5F5F5F5F5F5F5F5F5F5F5F5F5F5F5F5F5F5F5F5F5F5F5F5F5F5F5F5F5F5F5F5F5F5F5F5F5F5F5F5F5F5F5F5F5F5F5F5F5F5F5F5F5F5F5F5F5F5F5F5F5F5F5F5F5F5F5F5F5F5F5F5F5F5F5F5F5F5F5F5F5F5F5F5F5F5F5F5F5F5F5F5F5F5F5F5F5F5E2F5F5F5F5F5
310
F5F5F5F5F5F5F5F5F5F5F5F5F5F5F5F5F5F5F5F5F5F5F5F5F5F5F5F5F5F5F5F5F5F5F5F5F5F5F5F5F5F5F5F5F5F5F5F5F5F5F5F5F5F5F5F5F5F5F5F5F5F5F5F5F5F5F5F5F5F5F5F5F5F5F5F5F5F5F5F5F5F5F5F5F5F5F5F5F5F5F5F5F5F5E2F5F5F5E2E2E2E2E2E2E2E2F5F5F5F5F5F5F5F5E2E2E2E2E2E2E2E2E2E2E2E2E2
310
E2E2F5F5F5F5F5F5F5F5E2E2E2E2E2E2E2E2E2E2E2E2E2E2F5F5F5F5F5F5F5F5E2E2E2E2E2E2E2E2E2E2E2E2E2E2E2F5F5F5F5F5F5F5F5E2E2E2E2E2E2E2E2F5F5F5F5E2F5F5F5E2F5F5F5F5F5F5F5F5F5F5F5F5F5F5F5F5F5F5F5F5F5F5F5F5F5F5F5F5F5F5F5F5F5F5F5F5F5F5F5F5F5F5F5F5F5F5F5F5F5F5F5F5F5F5F5
310
F5F5F5F5F5F5F5F5F5F5F5F5F5F5F5F5F5F5F5F5F5F5F5F5F5F5F5F5F5F5F5F5F5F5F5E2F5F5F5F5E2F5F5F5E2F5F5F5F5F5F5F5F5F5F5F5F5F5F5F5F5F5F5F5F5F5F5F5F5F5F5F5F5F5F5F5F5F5F5F5F5F5F5F5F5F5F5F5F5F5F5F5F5F5F5F5F5F5F5F5F5F5F5F5F5F5F5F5F5F5F5F5F5F5F5F5F5F5F5F5F5F5F5F5F5F5F5
310
F5F5F5F5F5F5F5F5E2F5F5F5F5E2F5F5F5E2F5F5F5F5F5F5F5F5F5F5F5F5F5F5F5F5F5F5F5F5F5F5F5F5F5F5F5F5F5F5F5F5F5F5F5F5F5F5F5F5F5F5F5F5F5F5F5F5F5F5F5F5F5F5F5F5F5F5F5F5F5F5F5F5F5F5F5F5F5F5F5F5F5F5F5F5F5F5F5F5F5F5F5F5F5F5F5F5F5F5E2F5F5F5F5E2F5F5F5E2F5F5F5F5F5F5F5F5F5
310
F5F5F5F5F5F5F5F5F5F5F5F5F5F5F5F5F5F5F5F5F5F5F5F5F5F5F5F5F5F5F5F5F5F5F5F5F5F5F5F5F5F5F5F5F5F5F5F5F5F5F5F5F5F5F5F5F5F5F5F5F5F5F5F5F5F5F5F5F5F5F5F5F5F5F5F5F5F5F5F5F5E2F5F5F5F5E2F5F5F5E2F5F5F5F5F5F5F5F5F5F5F5F5F5F5F5F5F5F5F5F5F5F5F5F5F5F5F5F5F5F5F5F5F5F5F5F5
310
F5F5F5F5F5F5F5F5F5F5F5F5F5F5F5F5F5F5F5F5F5F5F5F5F5F5F5F5F5F5F5F5F5F5F5F5F5F5F5F5F5F5F5F5F5F5F5F5F5F5F5F5F5F5E2F5F5F5F5E2F5F5F5E2F5F5F5F5F5F5F5F5F5F5F5F5F5F5F5F5F5F5F5F5F5F5F5F5F5F5F5F5F5F5F5F5F5F5F5F5F5F5F5F5F5F5F5F5F5F5F5F5F5F5F5F5F5F5F5F5F5F5F5F5F5F5F5
310
F5F5F5F5F5F5F5F5F5F5F5F5F5F5F5F5F5F5F5F5F5F5F5F5F5F5F5E2F5F5F5F5E2F5F5F5E2F5F5F5F5F5F5F5F5F5F5F5F5F5F5F5F5F5F5F5F5F5F5F5F5F5F5F5F5F5F5F5F5F5F5F5F5F5F5F5F5F5F5F5F5F5F5F5F5F5F5F5F5F5F5F5F5F5F5F5F5F5F5F5F5F5F5F5F5F5F5F5F5F5F5F5F5F5F5F5F5F5F5F5F5F5F5F5F5F5F5
310
E2F5F5F5F5E2F5F5F5E2F5F5F5F5F5F5F5F5F5F5F5F5F5F5F5F5F5F5F5F5F5F5F5F5F5F5F5F5F5F5F5F5F5F5F5F5F5F5F5F5F5F5F5F5F5F5F5F5F5F5F5F5F5F5F5F5F5F5F5F5F5F5F5F5F5F5F5F5F5F5F5F5F5F5F5F5F5F5F5F5F5F5F5F5F5F5F5F5F5F5E2F5F5F5F5E2F5F5F5F5F5F5F5F5F5F5F5F5F5F5F5F5F5F5F5F5F5
310
F5F5F5F5F5F5F5F5F5F5F5F5F5F5F5F5F5F5F5F5F5F5F5F5F5F5F5F5F5F5F5F5F5F5F5F5F5F5F5F5F5F5F5F5F5F5F5F5F5F5F5F5F5F5F5F5F5F5F5F5F5F5F5F5F5F5F5F5F5F5F5F5F5F5F5F5F5F5E2F5F5F5F5F5F5F5F5F5F5F5F5F5F5F5F5F5F5F5F5F5F5F5F5F5F5F5F5F5F5F5F5F5F5F5F5F5F5F5F5F5F5F5F5F5F5F5F5
310
F5F5F5F5F5F5F5F5F5F5F5F5F5F5F5F5F5F5F5F5F5F5F5F5F5F5F5F5F5F5F5F5F5F5F5F5F5F5F5F5F5F5F5F5F5F5F5F5F5F5F5E2F5F5F5F5F5F5F5F5F5F5F5F5F5F5F5F5F5F5F5F5F5F5F5F5F5F5F5F5F5F5F5F5F5F5F5F5F5F5F5F5F5F5F5F5F5F5F5F5F5F5F5F5F5F5F5F5F5F5F5F5F5F5F5F5F5F5F5F5F5F5F5F5F5F5F5
310
F5F5F5F5F5F5F5F5F5F5F5F5F5F5F5F5F5F5F5F5F5F5F5F5E2F5F5F5F5F5F5F5F5F5F5F5F5F5F5F5F5F5F5F5F5F5F5F5F5F5F5F5F5F5F5F5F5F5F5F5F5F5F5F5F5F5F5F5F5F5F5F5F5F5F5F5F5F5F5F5F5F5F5F5F5F5F5F5F5F5F5F5F5F5F5F5F5F5F5F5F5F5F5F5F5F5F5F5F5F5F5F5F5F5F5F5F5F5F5F5F5F5F5F5E2F5F5
310
F5F5F5F5F5F5F5F5F5F5F5F5F5F5F5F5F5F5F5F5F5F5F5F5F5F5F5F5F5F5F5F5F5F5F5F5F5F5F5F5F5F5F5F5F5F5F5F5F5F5F5F5F5F5F5F5F5F5F5F5F5F5F5F5F5F5F5F5F5F5F5F5F5F5F5F5F5F5F5F5F5F5F5F5F5F5F5F5F5F5F5F5F5F5F5F5F5E2F5F5F5F5F5F5F5F5F5F5F5F5F5F5F5F5F5F5F5F5F5F5F5F5F5F5F5F5F5
310
F5F5F5F5F5F5F5F5F5F5F5F5F5F5F5F5F5F5F5F5F5F5F5F5F5F5F5F5F5F5F5F5F5F5F5F5F5F5F5F5F5F5F5F5F5F5F5F5F5F5F5F5F5F5F5F5F5F5F5F5F5F5F5F5F5F5F5F5F5E2E2F5F5F5F5F5F5F5F5F5F5F5F5F5F5F5F5F5F5F5F5F5F5F5F5F5F5F5F5F5F5F5F5F5F5F5F5F5F5F5F5F5F5F5F5F5F5F5F5F5F5F5F5F5F5F5F5
310
F5F5F5F5F5F5F5F5F5F5F5F5F5F5F5F5F5F5F5F5F5F5F5F5F5F5F5F5F5F5F5F5F5F5F5F5F5F5F5F5F5F5F5E2F5F5F5F5F5F5F5F5F5F5F5F5F5F5F5F5F5F5F5F5F5F5F5F5F5F5F5F5F5F5F5F5F5F5F5F5F5F5F5F5F5F5F5F5F5F5F5F5F5F5F5F5F5F5F5F5F5F5F5F5F5F5F5F5F5F5F5F5F5F5F5F5F5F5F5F5F5F5F5F5F5F5F5
310
F5F5F5F5F5F5F5F5F5F5F5F5F5F5F5F5E2F5F5F5F5F5F5F5F5F5F5F5F5F5F5F5F5F5F5F5F5F5F5F5F5F5F5F5F5F5F5F5F5F5F5F5F5F5F5F5F5F5F5F5F5F5F5F5F5F5F5F5F5F5F5F5F5F5F5F5F5F5F5F5F5F5F5F5F5F5F5F5F5F5F5F5F5F5F5F5F5F5F5F5F5F5F5F5F5F5F5F5F5F5F5F5F5F5F5F5E2F5F5F5F5F5F5F5F5F5F5
310
F5F5F5F5F5F5F5F5F5F5F5F5F5F5F5F5F5F5F5F5F5F5F5F5F5F5F5F5F5F5F5F5F5F5F5F5F5F5F5F5F5F5F5F5F5F5F5F5F5F5F5F5F5F5F5F5F5F5F5F5F5F5F5F5F5F5F5F5F5F5F5F5F5F5F5F5F5F5F5F5F5F5F5F5F5F5F5F5F5E2F5F5F5E2F5F5F5F5F5F5F5F5F5F5F5F5F5F5F5F5F5F5F5F5F5F5F5F5F5F5F5F5F5F5F5F5F5
310
F5F5F5F5F5F5F5F5F5F5F5F5F5F5F5F5F5F5F5F5F5F5F5F5F5F5F5F5F5F5F5F5F5F5F5F5F5F5F5F5F5F5F5F5F5F5F5F5F5F5F5F5F5F5F5F5F5E2F5F5F5F5E2F5F5F5E2F5F5F5F5F5F5F5F5F5F5F5F5F5F5F5F5F5F5F5F5F5F5F5F5F5F5F5F5F5F5F5F5F5F5F5F5F5F5F5F5F5F5F5F5F5F5F5F5F5F5F5F5F5F5F5F5F5F5F5F5
310
F5F5F5F5F5F5F5F5F5F5F5F5F5F5F5F5F5F5F5F5F5F5F5F5F5F5F5F5F5F5E2F5F5F5E2E2F5F5F5E2F5F5F5F5F5F5F5F5F5F5F5F5F5F5F5F5F5F5F5F5F5F5F5F5F5F5F5F5F5F5F5F5F5F5F5F5F5F5F5F5F5F5F5F5F5F5F5F5F5F5F5F5F5F5F5F5F5F5F5F5F5F5F5F5F5F5F5F5F5F5F5F5F5F5F5F5F5F5F5F5F5F5F5F5F5F5F5
310
F5F5F5E2F5F5F5E2E2F5F5F5E2F5F5F5F5F5F5F5F5F5F5F5F5F5F5F5F5F5F5F5F5F5F5F5F5F5F5F5F5F5F5F5F5F5F5F5F5F5F5F5F5F5F5F5F5F5F5F5F5F5F5F5F5F5F5F5F5F5F5F5F5F5F5F5F5F5F5F5F5F5F5F5F5F5F5F5F5F5F5F5F5F5F5F5F5F5F5F5F5F5F5E2F5F5F5F5E2F5F5F5E2F5F5F5F5F5F5F5F5F5F5F5F5F5F5
310
F5F5F5F5F5F5F5F5F5F5F5F5F5F5F5F5F5F5F5F5F5F5F5F5F5F5F5F5F5F5F5F5F5F5F5F5F5F5F5F5F5F5F5F5F5F5F5F5F5F5F5F5F5F5F5F5F5F5F5F5F5F5F5F5F5F5F5F5F5F5F5F5F5F5F5F5E2F5F5F5F5E2F5F5F5E2F5F5F5F5F5F5F5F5F5F5F5F5F5F5F5F5F5F5F5F5F5F5F5F5F5F5F5F5F5F5F5F5F5F5F5F5F5F5F5F5F5
310
F5F5F5F5F5F5F5F5F5F5F5F5F5F5F5F5F5F5F5F5F5F5F5F5F5F5F5F5F5F5F5F5F5F5F5F5F5F5F5F5F5F5F5F5F5F5F5F5F5E2F5F5F5F5E2F5F5F5E2F5F5F5F5F5F5F5F5F5F5F5F5F5F5F5F5F5F5F5F5F5F5F5F5F5F5F5F5F5F5F5F5F5F5F5F5F5F5F5F5F5F5F5F5F5F5F5F5F5F5F5F5F5F5F5F5F5F5F5F5F5F5F5F5F5F5F5F5
310
F5F5F5F5F5F5F5F5F5F5F5F5F5F5F5F5F5F5F5F5F5F5E2F5F5F5F5E2F5F5F5E2F5F5F5F5F5F5F5F5F5F5F5F5F5F5F5F5F5F5F5F5F5F5F5F5F5F5F5F5F5F5F5F5F5F5F5F5F5F5F5F5F5F5F5F5F5F5F5F5F5F5F5F5F5F5F5F5F5F5F5F5F5F5F5F5F5F5F5F5F5F5F5F5F5F5F5F5F5F5F5F5F5F5F5F5F5F5F5F5F5F5E2F5F5F5E2
310
E2F5F5F5E2F5F5F5F5F5F5F5F5F5F5F5F5F5F5F5F5F5F5F5F5F5F5F5F5F5F5F5F5F5F5F5F5F5F5F5F5F5F5F5F5F5F5F5F5F5F5F5F5F5F5F5F5F5F5F5F5F5F5F5F5F5F5F5F5F5F5F5F5F5F5F5F5F5F5F5F5F5F5F5F5F5F5F5F5F5F5F5F5F5F5E2F5F5F5E2E2F5F5F5E2F5F5F5F5F5F5F5F5F5F5F5F5F5F5F5F5F5F5F5F5F5F5
310
F5F5F5F5F5F5F5F5F5F5F5F5F5F5F5F5F5F5F5F5F5F5F5F5F5F5F5F5F5F5F5F5F5F5F5F5F5F5F5F5F5F5F5F5F5F5F5F5F5F5F5F5F5F5F5F5F5F5F5F5F5F5F5F5F5F5F5F5E2F5F5F5E2E2F5F5F5E2F5F5F5F5F5F5F5F5F5F5F5F5F5F5F5F5F5F5F5F5F5F5F5F5F5F5F5F5F5F5F5F5F5F5F5F5F5F5F5F5F5F5F5F5F5F5F5F5F5
310
F5F5F5F5F5F5F5F5F5F5F5F5F5F5F5F5F5F5F5F5F5F5F5F5F5F5F5F5F5F5F5F5F5F5F5F5F5F5F5F5F5E2F5F5F5F5E2F5F5F5E2F5F5F5F5F5F5F5F5F5F5F5F5F5F5F5F5F5F5F5F5F5F5F5F5F5F5F5F5F5F5F5F5F5F5F5F5F5F5F5F5F5F5F5F5F5F5F5F5F5F5F5F5F5F5F5F5F5F5F5F5F5F5F5F5F5F5F5F5F5F5F5F5F5F5F5F5
310
F5F5F5F5F5F5F5F5F5F5F5F5F5F5E2F5F5F5E2E2F5F5F5E2F5F5F5F5F5F5F5F5F5F5F5F5F5F5F5F5F5F5F5F5F5F5F5F5F5F5F5F5F5F5F5F5F5F5F5F5F5F5F5F5F5F5F5F5F5F5F5F5F5F5F5F5F5F5F5F5F5F5F5F5F5F5F5F5F5F5F5F5F5F5F5F5F5F5F5F5F5F5F5F5F5F5F5F5F5F5F5F5F5F5E2F5F5F500E2F5F5F5E2F5F5F5
310
F5F5F5F5F5F5F5F5F5F5F5F5F5F5F5F5F5F5F5F5F5F5F5F5F5F5F5F5F5F5F5F5F5F5F5F5F5F5F5F5F5F5F5F5F5F5F5F5F5F5F5F5F5F5F5F5F5F5F5F5F5F5F5F5F5F5F5F5F5F5F5F5F5F5F5F5F5F5F5F5F5F5F5F5F5F5F5E2F5F5F500E2F5F5F5E2F5F5F5F5F5F5F5F5F5F5F5F5F5F5F5F5F5F5F5F5F5F5F5F5F5F5F5F5F5F5
310
F5F5F5F5F5F5F5F5F5F5F5F5F5F5F5F5F5F5F5F5F5F5F5F5F5F5F5F5F5F5F5F5F5F5F5F5F5F5F5F5F5F5F5F5F5F5F5F5F5F5F5F5F5F5F5F5F5F5F5F5E2F5F5F500E2F5F5F5E2F5F5F5F5F5F5F5F5F5F5F5F5F5F5F5F5F5F5F5F5F5F5F5F5F5F5F5F5F5F5F5F5F5F5F5F5F5F5F5F5F5F5F5F5F5F5F5F5F5F5F5F5F5F5F5F5F5
310
F5F5F5F5F5F5F5F5F5F5F5F5F5F5F5F5F5F5F5F5F5F5F5F5F5F5F5F5F5F5F5F5F5E2F5F5F500E2F5F5F5E2F5F5F5F5F5F5F5F5F5F5F5F5F5F5F5F5F5F5F5F5F5F5F5F5F5F5F5F5F5F5F5F5F5F5F5F5F5F5F5F5F5F5F5F5F5F5F5F5F5F5F5F5F5F5F5F5F5F5F5F5F5F5F5F5F5F5F5F5F5F5F5F5F5F5F5F5F5F5F5F5F5F5F5F5
310
F5F5F5F5F5F5E2F5F5F5F1E2F5F5F5F5F5F5F5F5F5F5F5F5F5F5F5F5F5F5F5F5F5F5F5F5F5F5F5F5F5F5F5F5F5F5F5F5F5F5F5F5F5F5F5F5F5F5F5F5F5F5F5F5F5F5F5F5F5F5F5F5F5F5F5F5F5F5F5F5F5F5F5F5F5F5F5F5F5F5F5F5F5F5F5F5F5F5F5F5F5F5F5F5F5F5F5F5F5F5F1E2F5F5F5F5F5F5F5F5F5F5F5F5F5F5F5
310
F5F5F5F5F5F5F5F5F5F5F5F5F5F5F5F5F5F5F5F5F5F5F5F5F5F5F5F5F5F5F5F5F5F5F5F5F5F5F5F5F5F5F5F5F5F5F5F5F5F5F5F5F5F5F5F5F5F5F5F5F5F5F5F5F5F5F5F5F5F5F5F5F5F5F5F5F5F5F5F5F5F5F5EFE2F5F5F5F5F5F5F5F5F5F5F5F5F5F5F5F5F5F5F5F5F5F5F5F5F5F5F5F5F5F5F5F5F5F5F5F5F5F5F5F5F5F5
310
F5F5F5F5F5F5F5F5F5F5F5F5F5F5F5F5F5F5F5F5F5F5F5F5F5F5F5F5F5F5F5F5F5F5F5F5F5F5F5F5F5F5F5F5F5F5F5F5F5F5F5F5F5F5F5F5EEE2F5F5F5F5F5F5F5F5F5F5F5F5F5F5F5F5F5F5F5F5F5F5F5F5F5F5F5F5F5F5F5F5F5F5F5F5F5F5F5F5F5F5F5F5F5F5F5F5F5F5F5F5F5F5F5F5F5F5F5F5F5F5F5F5F5F5F5F5F5
310
F5F5F5F5F5F5F5F5F5F5F5F5F5F5F5F5F5F5F5F5F5F5F5F5F5F5F5F5F500E2F5F5F5F5F5F5F5F5F5F5F5F5F5F5F5F5F5F5F5F5F5F5F5F5F5F5F5F5F5F5F5F5F5F5F5F5F5F5F5F5F5F5F5F5F5F5F5F5F5F5F5F5F5F5F5F5F5F5F5F5F5F5F5F5F5F5F5F5F5F5F5F5F5F5F5F5F5F5F5F5F5F5F5F5F5F5F5F5F5F5F5F5F5F5F5F5
310
F5F500E2F5F5F5F5F5F5F5F5F5F5F5F5F5F5F5F5F5F5F5F5F5F5F5F5F5F5F5F5F5F5F5F5F5F5F5F5F5F5F5F5F5F5F5F5F5F5F5F5F5F5F5F5F5F5F5F5F5F5F5F5F5F5F5F5F5F5F5F5F5F5F5F5F5F5F5F5F5F5F5F5F5F5F5F5F5F5F5F5F5F5F5F5F5F5F5F5F5F500E2F5F5F5F5F5F5F5F5F5F5F5F5F5F5F5F5F5F5F5F5F5F5F5
310
F5F5F5F5F5F5F5F5F5F5F5F5F5F5F5F5F5F5F5F5F5F5F5F5F5F5F5F5F5F5F5F5F5F5F5F5F5F5F5F5F5F5F5F5F5F5F5F5F5F5F5F5F5F5F5F5F5F5F5F5F5F5F5F5F5F5F5F5F5F5F5F5F5F5F500E2F5F5F5F5F5F5F5F5F5F5F5F5F5F5F5F5F5F5F5F5F5F5F5F5F5F5F5F5F5F5F5F5F5F5F5F5F5F5F5F5F5F5F5F5F5F5F5F5F5F5
310
F5F5F5F5F5F5F5F5F5F5F5F5F5F5F5F5F5F5F5F5F5F5F5F5F5F5F5F5F5F5F5F5F5F5F5F5F5F5F5F5F5F5F5F5F5F5F5F500E2F5F5F5F5F5F5F5F5F5F5F5F5F5F5F5F5F5F5F5F5F5F5F5F5F5F5F5F5F5F5F5F5F5F5F5F5F5F5F5F5F5F5F5F5F5F5F5F5F5F5F5F5F5F5F5F5F5F5F5F5F5F5F5F5F5F5F5F5F5F5F5F5F5F5F5F5F5
310
F5F5F5F5F5F5F5F5F5F5F5F5F5F5F5F5F5F5F5F5F5E2E2F5F5F5E2F5F5F5F5F5F5F5F5F5F5F5F5F5F5F5F5F5F5F5F5F5F5F5F5F5F5F5F5F5F5F5F5F5F5F5F5F5F5F5F5F5F5F5F5F5F5F5F5F5F5F5F5F5F5F5F5F5F5F5F5F5F5F5F5F5F5F5F5F5F5F5F5F5F5F5F5F5F5F5F5F5F5F5F5F5F5F5F5F5F5E2F5F5F500E2F5F5F5E2
310
F5F5F5F5F5F5F5F5F5F5F5F5F5F5F5F5F5F5F5F5F5F5F5F5F5F5F5F5F5F5F5F5F5F5F5F5F5F5F5F5F5F5F5F5F5F5F5F5F5F5F5F5F5F5F5F5F5F5F5F5F5F5F5F5F5F5F5F5F5F5F5F5F5F5F5F5F5F5F5F5F5F5F5F5F5F5F5F5F5F5E2F5F5F500E2F5F5F5E2F5F5F5F5F5F5F5F5F5F5F5F5F5F5F5F5F5F5F5F5F5F5F5F5F5F5F5
310
F5F5F5F5F5F5F5F5F5F5F5F5F5F5F5F5F5F5F5F5F5F5F5F5F5F5F5F5F5F5F5F5F5F5F5F5F5F5F5F5F5F5F5F5F5F5F5F5F5F5F5F5F5F5F5F5F5F5F5F5F5F5F5E2F5F5F500E2F5F5F5E2F5F5F5F5F5F5F5F5F5F5F5F5F5F5F5F5F5F5F5F5F5F5F5F5F5F5F5F5F5F5F5F5F5F5F5F5F5F5F5F5F5F5F5F5F5F5F5F5F5F5F5F5F5F5
310
F5F5F5F5F5F5F5F5F5F5F5F5F5F5F5F5F5F5F5F5F5F5F5F5F5F5F5F5F5F5F5F5F5F5F5F5E2F5F5F5E2E2F5F5F5E2F5F5F5F5F5F5F5F5F5F5F5F5F5F5F5F5F5F5F5F5F5F5F5F5F5F5F5F5F5F5F5F5F5F5F5F5F5F5F5F5F5F5F5F5F5F5F5F5F5F5F5F5F5F5F5F5F5F5F5F5F5F5F5F5F5F5F5F5F5F5F5F5F5F5F5F5F5F5F5F5F5
310
F5F5F5F5F5F5F5F5F5E2F5F5F5E2E2F5F5F5E2F5F5F5F5F5F5F5F5F5F5F5F5F5F5F5F5F5F5F5F5F5F5F5F5F5F5F5F5F5F5F5F5F5F5F5F5F5F5F5F5F5F5F5F5F5F5F5F5F5F5F5F5F5F5F5F5F5F5F5F5F5F5F5F5F5F5F5F5F5F5F5F5F5F5F5F5F5F5F5F5F5F5F5F5F5F5F5F5F5F5E2F5F5F500E2F5F5F5E2F5F5F5F5F5F5F5F5
310
F5F5F5F5F5F5F5F5F5F5F5F5F5F5F5F5F5F5F5F5F5F5F5F5F5F5F5F5F5F5F5F5F5F5F5F5F5F5F5F5F5F5F5F5F5F5F5F5F5F5F5F5F5F5F5F5F5F5F5F5F5F5F5F5F5F5F5F5F5F5F5F5F5F5F5F5F5F5F5F5F5F5E2F5F5F500E2F5F5F5E2F5F5F5F5F5F5F5F5F5F5F5F5F5F5F5F5F5F5F5F5F5F5F5F5F5F5F5F5F5F5F5F5F5F5F5
310
F5F5F5F5F5F5F5F5F5F5F5F5F5F5F5F5F5F5F5F5F5F5F5F5F5F5F5F5F5F5F5F5F5F5F5F5F5F5F5F5F5F5F5F5F5F5F5F5F5F5F5F5F5F5F5E2F5F5F5F0E2F5F5F5E2F5F5F5F5F5F5F5F5F5F5F5F5F5F5F5F5F5F5F5F5F5F5F5F5F5F5F5F5F5F5F5F5F5F5F5F5F5F5F5F5F5F5F5F5F5F5F5F5F5F5F5F5F5F5F5F5F5F5F5F5F5F5
310
F5F5F5F5F5F5F5F5F5F5F5F5F5F5F5F5F5F5F5F5F5F5F5F5F5F5F5F5E2F5F5F5EDE2F5F5F5E2F5F5F5F5F5F5F5F5F5F5F5F5F5F5F5F5F5F5F5F5F5F5F5F5F5F5F5F5F5F5F5F5F5F5F5F5F5F5F5F5F5F5F5F5F5F5F5F5F5F5F5F5F5F5F5F5F5F5F5F5F5F5F5F5F5F5F5F5F5F5F5F5F5F5F5F5F5F5F5F5F5F5F5F5F5F5F5F5F5
310
F5E2F5F5F5EDE2F5F5F5E2F5F5F5F5F5F5F5F5F5F5F5F5F5F5F5F5F5F5F5F5F5F5F5F5F5F5F5F5F5F5F5F5F5F5F5F5F5F5F5F5F5F5F5F5F5F5F5F5F5F5F5F5F5F5F5F5F5F5F5F5F5F5F5F5F5F5F5F5F5F5F5F5F5F5F5F5F5F5F5F5F5F5F5F5F5F5F5F5F5F5E2F5F5F58BE2F5F5F5E2F5F5F5F5F5F5F5F5F5F5F5F5F5F5F5F5
310
F5F5F5F5F5F5F5F5F5F5F5F5F5F5F5F5F5F5F5F5F5F5F5F5F5F5F5F5F5F5F5F5F5F5F5F5F5F5F5F5F5F5F5F5F5F5F5F5F5F5F5F5F5F5F5F5F5F5F5F5F5F5F5F5F5F5F5F5F5F5F5F5F5F5E2F5F5F500E2F5F5F5E2F5F5F5F5F5F5F5F5F5F5F5F5F5F5F5F5F5F5F5F5F5F5F5F5F5F5F5F5F5F5F5F5F5F5F5F5F5F5F5F5F5F5F5
310
F5F5F5F5F5F5F5F5F5F5F5F5F5F5F5F5F5F5F5F5F5F5F5F5F5F5F5F5F5F5F5F5F5F5F5F5F5F5F5F5F5F5F5F5F5F5F5E2F5F5F5E2E2F5F5F5E2F5F5F5F5F5F5F5F5F5F5F5F5F5F5F5F5F5F5F5F5F5F5F5F5F5F5F5F5F5F5F5F5F5F5F5F5F5F5F5F5F5F5F5F5F5F5F5F5F5F5F5F5F5F5F5F5F5F5F5F5F5F5F5F5F5F5F5F5F5F5
310
F5F5F5F5F5F5F5F5F5F5F5F5F5F5F5F5F5F5F5F5E2F5F5F500E2F5F5F5E2F5F5F5F5F5F5F5F5F5F5F5F5F5F5F5F5F5F5F5F5F5F5F5F5F5F5F5F5F5F5F5F5F5F5F5F5F5F5F5F5F5F5F5F5F5F5F5F5F5F5F5F5F5F5F5F5F5F5F5F5F5F5F5F5F5F5F5F5F5F5F5F5F5F5F5F5F5F5F5F5F5F5F5F5F5F5F5F5F5F5E2F5F5F500E2F5
310
F5F5E2F5F5F5F5F5F5F5F5F5F5F5F5F5F5F5F5F5F5F5F5F5F5F5F5F5F5F5F5F5F5F5F5F5F5F5F5F5F5F5F5F5F5F5F5F5F5F5F5F5F5F5F5F5F5F5F5F5F5F5F5F5F5F5F5F5F5F5F5F5F5F5F5F5F5F5F5F5F5F5F5F5F5F5F5F5F5F5F5F5F5E2F5F5F500E2F5F5F5E2F5F5F5F5F5F5F5F5F5F5F5F5F5F5F5F5F5F5F5F5F5F5F5F5
310
F5F5F5F5F5F5F5F5F5F5F5F5F5F5F5F5F5F5F5F5F5F5F5F5F5F5F5F5F5F5F5F5F5F5F5F5F5F5F5F5F5F5F5F5F5F5F5F5F5F5F5F5F5F5F5F5F5F5F5F5F5F5F5F5F5F5E2F5F5F500E2F5F5F5F5F5F5F5F5F5F5F5F5F5F5F5F5F5F5F5F5F5F5F5F5F5F5F5F5F5F5F5F5F5F5F5F5F5F5F5F5F5F5F5F5F5F5F5F5F5F5F5F5F5F5F5
310
F5F5F5F5F5F5F5F5F5F5F5F5F5F5F5F5F5F5F5F5F5F5F5F5F5F5F5F5F5F5F5F5F5F5F5F5F5F5F5F5F5F5F500E2F5F5F5F5F5F5F5F5F5F5F5F5F5F5F5F5F5F5F5F5F5F5F5F5F5F5F5F5F5F5F5F5F5F5F5F5F5F5F5F5F5F5F5F5F5F5F5F5F5F5F5F5F5F5F5F5F5F5F5F5F5F5F5F5F5F5F5F5F5F5F5F5F5F5F5F5F5F5F5F5F5F5
310
F5F5F5F5F5F5F5F5F5F5F5F5F5F5F5F500E2F5F5F5F5F5F5F5F5F5F5F5F5F5F5F5F5F5F5F5F5F5F5F5F5F5F5F5F5F5F5F5F5F5F5F5F5F5F5F5F5F5F5F5F5F5F5F5F5F5F5F5F5F5F5F5F5F5F5F5F5F5F5F5F5F5F5F5F5F5F5F5F5F5F5F5F5F5F5F5F5F5F5F5F5F5F5F5F5F5F5F5F5F5F5F5F5F5F500E2F5F5F5F5F5F5F5F5F5
310
F5F5F5F5F5F5F5F5F5F5F5F5F5F5F5F5F5F5F5F5F5F5F5F5F5F5F5F5F5F5F5F5F5F5F5F5F5F5F5F5F5F5F5F5F5F5F5F5F5F5F5F5F5F5F5F5F5F5F5F5F5F5F5F5F5F5F5F5F5F5F5F5F5F5F5F5F5F5F5F5F5F5F5F5F5F5F5F5F5F5E2F5F5F5F5F5F5F5F5F5F5F5F5F5F5F5F5F5F5F5F5F5F5F5F5F5F5F5F5F5F5F5F5F5F5F5F5
310
F5F5F5F5F5F5F5F5F5F5F5F5F5F5F5F5F5F5F5F5F5F5F5F5F5F5F5F5F5F5F5F5F5F5F5F5F5F5F5F5F5F5F5F5F5F5F5F5F5F5F5F5F5F5F5F5F5F5F5F5F5F5F5E2F5F5F5F5F5F5F5F5F5F5F5F5F5F5F5F5F5F5F5F5F5F5F5F5F5F5F5F5F5F5F5F5F5F5F5F5F5F5F5F5F5F5F5F5F5F5F5F5F5F5F5F5F5F5F5F5F5F5F5F5F5F5F5
310
F5F5F5F5F5F5F5F5F5F5F5F5F5F5F5F5F5F5F5F5F5F5F5F5F5F5F5F5F5F5F5F5F5F5F5F5E2F5F5F5F5F5F5F5F5F5F5F5F5F5F5F5F5F5F5F5F5F5F5F5F5F5F5F5F5F5F5F5F5F5F5F5F5F5F5F5F5F5F5F5F5F5F5F5F5F5F5F5F5F5F5F5F5F5F5F5F5F5F5F5F5F5F5F5F5F5F5F5F5F5F5F5F5F5F5F5F5F5F5F5F5F5F5F5F5F5F5
310
F5F5F5F5F5F5F5F5F5E2F5F5F5F5F5F5F5F5F5F5F5F5F5F5F5F5F5F5F5F5F5F5F5F5F5F5F5F5F5F5F5F5F5F5F5F5F5F5F5F5F5F5F5F5F5F5F5F5F5F5F5F5F5F5F5F5F5F5F5F5F5F5F5F5F5F5F5F5F5F5F5F5F5F5F5F5F5F5F5F5F5F5F5F5F5F5F5F5F5F5F5F5F5F5F5F5F5F5F5E2F5F5F5F5F5F5F5F5F5F5F5F5F5F5F5F5F5
310
F5F5F5F5F5F5F5F5F5F5F5F5F5F5F5F5F5F5F5F5F5F5F5F5F5F5F5F5F5F5F5F5F5F5F5F5F5F5F5F5F5F5F5F5F5F5F5F5F5F5F5F5F5F5F5F5F5F5F5F5F5F5F5F5F5F5F5F5F5F5F5F5F5F5F5F5F5F5F5F5F5F5E2F5F5F5F5F5F5F5F5F5F5F5F5F5F5F5F5F5F5F5F5F5F5F5F5F5F5F5F5F5F5F5F5F5F5F5F5F5F5F5F5F5F5F5F5
310
F5F5F5F5F5F5F5F5F5F5F5F5F5F5F5F5F5F5F5F5F5F5F5F5F5F5F5F5F5F5F5F5F5F5F5F5F5F5F5F5F5F5F5F5F5F5F5F5F5F5F5F5F5F5F5E2F5F5F5E2F5F5F5F5F5F5F5F5F5F5F5F5F5F5F5F5F5F5F5F5F5F5F5F5F5F5F5F5F5F5F5F5F5F5F5F5F5F5F5F5F5F5F5F5F5F5F5F5F5F5F5F5F5F5F5F5F5F5F5F5F5F5F5F5F5F5F5
310
F5F5F5F5F5F5F5F5F5F5F5F5F5F5F5F5F5F5F5F5F5F5F5E2F5F5F5EFE2F5F5F5E2F5F5F5F5F5F5F5F5F5F5F5F5F5F5F5F5F5F5F5F5F5F5F5F5F5F5F5F5F5F5F5F5F5F5F5F5F5F5F5F5F5F5F5F5F5F5F5F5F5F5F5F5F5F5F5F5F5F5F5F5F5F5F5F5F5F5F5F5F5F5F5F5F5F5F5F5F5F5F5F5F5F5F5F5F5F5F5F5F5F5E2F5F5F5
310
F5E2F5F5F5E2F5F5F5F5F5F5F5F5F5F5F5F5F5F5F5F5F5F5F5F5F5F5F5F5F5F5F5F5F5F5F5F5F5F5F5F5F5F5F5F5F5F5F5F5F5F5F5F5F5F5F5F5F5F5F5F5F5F5F5F5F5F5F5F5F5F5F5F5F5F5F5F5F5F5F5F5F5F5F5F5F5F5F5F5F5F5F5F5F5F5E2F5F5F500E2F5F5F5E2F5F5F5F5F5F5F5F5F5F5F5F5F5F5F5F5F5F5F5F5F5
310
F5F5F5F5F5F5F5F5F5F5F5F5F5F5F5F5F5F5F5F5F5F5F5F5F5F5F5F5F5F5F5F5F5F5F5F5F5F5F5F5F5F5F5F5F5F5F5F5F5F5F5F5F5F5F5F5F5F5F5F5F5F5F5F5F5F5F5F5F5E2F5F5F500E2F5F5F5E2F5F5F5F5F5F5F5F5F5F5F5F5F5F5F5F5F5F5F5F5F5F5F5F5F5F5F5F5F5F5F5F5F5F5F5F5F5F5F5F5F5F5F5F5F5F5F5F5
310
F5F5F5F5F5F5F5F5F5F5F5F5F5F5F5F5F5F5F5F5F5F5F5F5F5F5F5F5F5F5F5F5F5F5F5F5F5F5F5F5F5F5E2F5F5F500E2F5F5F5E2F5F5F5F5F5F5F5F5F5F5F5F5F5F5F5F5F5F5F5F5F5F5F5F5F5F5F5F5F5F5F5F5F5F5F5F5F5F5F5F5F5F5F5F5F5F5F5F5F5F5F5F5F5F5F5F5F5F5F5F5F5F5F5F5F5F5F5F5F5F5F5F5F5F5F5
310
F5F5F5F5F5F5F5F5F5F5F5F5F5F5F5E2F5F5F500E2F5F5F5E2F5F5F5F5F5F5F5F5F5F5F5F5F5F5F5F5F5F5F5F5F5F5F5F5F5F5F5F5F5F5F5F5F5F5F5F5F5F5F5F5F5F5F5F5F5F5F5F5F5F5F5F5F5F5F5F5F5F5F5F5F5F5F5F5F5F5F5F5F5F5F5F5F5F5F5F5F5F5F5F5F5F5F5F5F5F5F5F5F5F5E2F5F5F500E2F5F5F5E2F5F5
310
F5F5F5F5F5F5F5F5F5F5F5F5F5F5F5F5F5F5F5F5F5F5F5F5F5F5F5F5F5F5F5F5F5F5F5F5F5F5F5F5F5F5F5F5F5F5F5F5F5F5F5F5F5F5F5F5F5F5F5F5F5F5F5F5F5F5F5F5F5F5F5F5F5F5F5F5F5F5F5F5F5F5F5F5F5F5F5F5E2F5F5F5EFE2F5F5F5E2F5F5F5F5F5F5F5F5F5F5F5F5F5F5F5F5F5F5F5F5F5F5F5F5F5F5F5F5F5
310
F5F5F5F5F5F5F5F5F5F5F5F5F5F5F5F5F5F5F5F5F5F5F5F5F5F5F5F5F5F5F5F5F5F5F5F5F5F5F5F5F5F5F5F5F5F5F5F5F5F5F5F5F5F5F5F5F5F5F5F5F5E2F5F5F5EEE2F5F5F5E2F5F5F5F5F5F5F5F5F5F5F5F5F5F5F5F5F5F5F5F5F5F5F5F5F5F5F5F5F5F5F5F5F5F5F5F5F5F5F5F5F5F5F5F5F5F5F5F5F5F5F5F5F5F5F5F5
310
F5F5F5F5F5F5F5F5F5F5F5F5F5F5F5F5F5F5F5F5F5F5F5F5F5F5F5F5F5F5F5F5F5F5E2F5F5F5EEE2F5F5F5E2F5F5F5F5F5F5F5F5F5F5F5F5F5F5F5F5F5F5F5F5F5F5F5F5F5F5F5F5F5F5F5F5F5F5F5F5F5F5F5F5F5F5F5F5F5F5F5F5F5F5F5F5F5F5F5F5F5F5F5F5F5F5F5F5F5F5F5F5F5F5F5F5F5F5F5F5F5F5F5F5F5F5F5
310
F5F5F5F5F5F5F5E2F5F5F500E2F5F5F5E2F5F5F5F5F5F5F5F5F5F5F5F5F5F5F5F5F5F5F5F5F5F5F5F5F5F5F5F5F5F5F5F5F5F5F5F5F5F5F5F5F5F5F5F5F5F5F5F5F5F5F5F5F5F5F5F5F5F5F5F5F5F5F5F5F5F5F5F5F5F5F5F5F5F5F5F5F5F5F5F5F5F5F5F5F5F5F5F5F5F5E2F5F5F5E2E2F5F5F5E2F5F5F5F5F5F5F5F5F5F5
310
F5F5F5F5F5F5F5F5F5F5F5F5F5F5F5F5F5F5F5F5F5F5F5F5F5F5F5F5F5F5F5F5F5F5F5F5F5F5F5F5F5F5F5F5F5F5F5F5F5F5F5F5F5F5F5F5F5F5F5F5F5F5F5F5F5F5F5F5F5F5F5F5F5F5F5F5F5F5F5F5E2F5F5F5E2E2F5F5F5E2F5F5F5F5F5F5F5F5F5F5F5F5F5F5F5F5F5F5F5F5F5F5F5F5F5F5F5F5F5F5F5F5F5F5F5F5F5
310
F5F5F5F5F5F5F5F5F5F5F5F5F5F5F5F5F5F5F5F5F5F5F5F5F5F5F5F5F5F5F5F5F5F5F5F5F5F5F5F5F5F5F5F5F5F5F5F5F5F5F5F5F5E2F5F5F5F4E2F5F5F5E2F5F5F5F5F5F5F5F5F5F5F5F5F5F5F5F5F5F5F5F5F5F5F5F5F5F5F5F5F5F5F5F5F5F5F5F5F5F5F5F5F5F5F5F5F5F5F5F5F5F5F5F5F5F5F5F5F5F5F5F5F5F5F5F5
310
F5F5F5F5F5F5F5F5F5F5F5F5F5F5F5F5F5F5F5F5F5F5F5F5F5F5E2F5F5F5EEE2F5F5F5E2F5F5F5F5F5F5F5F5F5F5F5F5F5F5F5F5F5F5F5F5F5F5F5F5F5F5F5F5F5F5F5F5F5F5F5F5F5F5F5F5F5F5F5F5F5F5F5F5F5F5F5F5F5F5F5F5F5F5F5F5F5F5F5F5F5F5F5F5F5F5F5F5F5F5F5F5F5F5F5F5F5F5F5F5F5F5F5F5F5F5E2
310
F5F5F5E2E2F5F5F5E2F5F5F5F5F5F5F5F5F5F5F5F5F5F5F5F5F5F5F5F5F5F5F5F5F5F5F5F5F5F5F5F5F5F5F5F5F5F5F5F5F5F5F5F5F5F5F5F5F5F5F5F5F5F5F5F5F5F5F5F5F5F5F5F5F5F5F5F5F5F5F5F5F5F5F5F5F5F5F5F5F5F5F5F5F5F5F5F5F5F5E2F5F5F500E2F5F5F5F5F5F5F5F5F5F5F5F5F5F5F5F5F5F5F5F5F5F5
310
F5F5F5F5F5F5F5F5F5F5F5F5F5F5F5F5F5F5F5F5F5F5F5F5F5F5F5F5F5F5F5F5F5F5F5F5F5F5F5F5F5F5F5F5F5F5F5F5F5F5F5F5F5F5F5F5F5F5F5F5F5F5F5F5F5F5F5F5F5F5F5F5F5F5F5F500E2F5F5F5F5F5F5F5F5F5F5F5F5F5F5F5F5F5F5F5F5F5F5F5F5F5F5F5F5F5F5F5F5F5F5F5F5F5F5F5F5F5F5F5F5F5F5F5F5F5
310
F5F5F5F5F5F5F5F5F5F5F5F5F5F5F5F5F5F5F5F5F5F5F5F5F5F5F5F5F5F5F5F5F5F5F5F5F5F5F5F5F5F5F5F5F5F5F5F5F5F0E2F5F5F5F5F5F5F5F5F5F5F5F5F5F5F5F5F5F5F5F5F5F5F5F5F5F5F5F5F5F5F5F5F5F5F5F5F5F5F5F5F5F5F5F5F5F5F5F5F5F5F5F5F5F5F5F5F5F5F5F5F5F5F5F5F5F5F5F5F5F5F5F5F5F5F5F5
310
F5F5F5F5F5F5F5F5F5F5F5F5F5F5F5F5F5F5F5F5F5F500E2F5F5F5F5F5F5F5F5F5F5F5F5F5F5F5F5F5F5F5F5F5F5F5F5F5F5F5F5F5F5F5F5F5F5F5F5F5F5F5F5F5F5F5F5F5F5F5F5F5F5F5F5F5F5F5F5F5F5F5F5F5F5F5F5F5F5F5F5F5F5F5F5F5F5F5F5F5F5F5F5F5F5F5F5F5F5F5F5F5F5F5F5F5F5F5F5F5F500E2F5F5F5
310
F5F5F5F5F5F5F5F5F5F5F5F5F5F5F5F5F5F5F5F5F5F5F5F5F5F5F5F5F5F5F5F5F5F5F5F5F5F5F5F5F5F5F5F5F5F5F5F5F5F5F5F5F5F5F5F5F5F5F5F5F5F5F5F5F5F5F5F5F5F5F5F5F5F5F5F5F5F5F5F5F5F5F5F5F5F5F5F5F5F5F5F5F5F5F500E2F5F5F5F5F5F5F5F5F5F5F5F5F5F5F5F5F5F5F5F5F5F5F5F5F5F5F5F5F5F5
310
F5F5F5F5F5F5F5F5F5F5F5F5F5F5F5F5F5F5F5F5F5F5F5F5F5F5F5F5F5F5F5F5F5F5F5F5F5F5F5F5F5F5F5F5F5F5F5F5F5F5F5F5F5F5F5F5F5F5F5F5F5F5F5F5F5F5F5F500E2F5F5F5F5F5F5F5F5F5F5F5F5F5F5F5F5F5F5F5F5F5F5F5F5F5F5F5F5F5F5F5F5F5F5F5F5F5F5F5F5F5F5F5F5F5F5F5F5F5F5F5F5F5F5F5F5F5
310
F5F5F5F5F5F5F5F5F5F5F5F5F5F5F5F5F5F5F5F5F5F5F5F5F5F5F5F5F5F5F5F5F5F5F5F5F5F5F5F5F500E2F5F5F5F5F5F5F5F5F5F5F5F5F5F5F5F5F5F5F5F5F5F5F5F5F5F5F5F5F5F5F5F5F5F5F5F5F5F5F5F5F5F5F5F5F5F5F5F5F5F5F5F5F5F5F5F5F5F5F5F5F5F5F5F5F5F5F5F5F5F5F5F5F5F5F5F5F5F5F5F5F5F5F5F5
310
F5F5F5F5F5F5F5F5F5F5F5F5F5F500E2F5F5F5F5F5F5F5F5F5F5F5F5F5F5F5F5F5F5F5F5F5F5F5F5F5F5F5F5F5F5F5F5F5F5F5F5F5F5F5F5F5F5F5F5F5F5F5F5F5F5F5F5F5F5F5F5F5F5F5F5F5F5F5F5F5F5F5F5F5F5F5F5F5F5F5F5F5F5F5F5F5F5F5F5F5F5F5F5F5F5F5F5F5F5F5F5F5F500E2F5F5F5E2F5F5F5F5F5F5F5
310
F5F5F5F5F5F5F5F5F5F5F5F5F5F5F5F5F5F5F5F5F5F5F5F5F5F5F5F5F5F5F5F5F5F5F5F5F5F5F5F5F5F5F5F5F5F5F5F5F5F5F5F5F5F5F5F5F5F5F5F5F5F5F5F5F5F5F5F5F5F5F5F5F5F5F5F5F5F5F5F5F5F5F5E2F5F5F500E2F5F5F5E2F5F5F5F5F5F5F5F5F5F5F5F5F5F5F5F5F5F5F5F5F5F5F5F5F5F5F5F5F5F5F5F5F5F5
310
F5F5F5F5F5F5F5F5F5F5F5F5F5F5F5F5F5F5F5F5F5F5F5F5F5F5F5F5F5F5F5F5F5F5F5F5F5F5F5F5F5F5F5F5F5F5F5F5F5F5F5F5F5F5F5F5E2F5F5F500E2F5F5F5E2F5F5F5F5F5F5F5F5F5F5F5F5F5F5F5F5F5F5F5F5F5F5F5F5F5F5F5F5F5F5F5F5F5F5F5F5F5F5F5F5F5F5F5F5F5F5F5F5F5F5F5F5F5F5F5F5F5F5F5F5F5
310
F5F5F5F5F5F5F5F5F5F5F5F5F5F5F5F5F5F5F5F5F5F5F5F5F5F5F5F5F5E2F5F5F500E2F5F5F5E2F5F5F5F5F5F5F5F5F5F5F5F5F5F5F5F5F5F5F5F5F5F5F5F5F5F5F5F5F5F5F5F5F5F5F5F5F5F5F5F5F5F5F5F5F5F5F5F5F5F5F5F5F5F5F5F5F5F5F5F5F5F5F5F5F5F5F5F5F5F5F5F5F5F5F5F5F5F5F5F5F5F5F5F5F5F5F5F5
310
F5F5E2F5F5F500E2F5F5F5E2F5F5F5F5F5F5F5F5F5F5F5F5F5F5F5F5F5F5F5F5F5F5F5F5F5F5F5F5F5F5F5F5F5F5F5F5F5F5F5F5F5F5F5F5F5F5F5F5F5F5F5F5F5F5F5F5F5F5F5F5F5F5F5F5F5F5F5F5F5F5F5F5F5F5F5F5F5F5F5F5F5F5F5F5F5F5F5F5F5F5E2F5F5F500E2F5F5F5E2F5F5F5F5F5F5F5F5F5F5F5F5F5F5F5
310
F5F5F5F5F5F5F5F5F5F5F5F5F5F5F5F5F5F5F5F5F5F5F5F5F5F5F5F5F5F5F5F5F5F5F5F5F5F5F5F5F5F5F5F5F5F5F5F5F5F5F5F5F5F5F5F5F5F5F5F5F5F5F5F5F5F5F5F5F5F5F5F5F5F5F5E2F5F5F500E2F5F5F5E2F5F5F5F5F5F5F5F5F5F5F5F5F5F5F5F5F5F5F5F5F5F5F5F5F5F5F5F5F5F5F5F5F5F5F5F5F5F5F5F5F5F5
310
F5F5F5F5F5F5F5F5F5F5F5F5F5F5F5F5F5F5F5F5F5F5F5F5F5F5F5F5F5F5F5F5F5F5F5F5F5F5F5F5F5F5F5F5F5F5F5F5E2F5F5F500E2F5F5F5E2F5F5F5F5F5F5F5F5F5F5F5F5F5F5F5F5F5F5F5F5F5F5F5F5F5F5F5F5F5F5F5F5F5F5F5F5F5F5F5F5F5F5F5F5F5F5F5F5F5F5F5F5F5F5F5F5F5F5F5F5F5F5F5F5F5F5F5F5F5
310
F5F5F5F5F5F5F5F5F5F5F5F5F5F5F5F5F5F5F5F5F5E2F5F5F5E2E2F5F5F5E2F5F5F5F5F5F5F5F5F5F5F5F5F5F5F5F5F5F5F5F5F5F5F5F5F5F5F5F5F5F5F5F5F5F5F5F5F5F5F5F5F5F5F5F5F5F5F5F5F5F5F5F5F5F5F5F5F5F5F5F5F5F5F5F5F5F5F5F5F5F5F5F5F5F5F5F5F5F5F5F5F5F5F5F5F5F5F5F5F5F5E2F5F5F5E2E2
310
F5F5F5E2F5F5F5F5F5F5F5F5F5F5F5F5F5F5F5F5F5F5F5F5F5F5F5F5F5F5F5F5F5F5F5F5F5F5F5F5F5F5F5F5F5F5F5F5F5F5F5F5F5F5F5F5F5F5F5F5F5F5F5F5F5F5F5F5F5F5F5F5F5F5F5F5F5F5F5F5F5F5F5F5F5F5F5F5F5F5F5F5F5F5E2F5F5F5E2E2F5F5F5E2F5F5F5F5F5F5F5F5F5F5F5F5F5F5F5F5F5F5F5F5F5F5F5
310
F5F5F5F5F5F5F5F5F5F5F5F5F5F5F5F5F5F5F5F5F5F5F5F5F5F5F5F5F5F5F5F5F5F5F5F5F5F5F5F5F5F5F5F5F5F5F5F5F5F5F5F5F5F5F5F5F5F5F5F5F5F5F5F5F5F5F5E2F5F5F5E2E2F5F5F5E2F5F5F5F5F5F5F5F5F5F5F5F5F5F5F5F5F5F5F5F5F5F5F5F5F5F5F5F5F5F5F5F5F5F5F5F5F5F5F5F5F5F5F5F5F5F5F5F5F5F5
310
F5F5F5F5F5F5F5F5F5F5F5F5F5F5F5F5F5F5F5F5F5F5F5F5F5F5F5F5F5F5F5F5F5F5F5F5F5F5F5F5E2F5F5F5F5E2F5F5F5E2F5F5F5F5F5F5F5F5F5F5F5F5F5F5F5F5F5F5F5F5F5F5F5F5F5F5F5F5F5F5F5F5F5F5F5F5F5F5F5F5F5F5F5F5F5F5F5F5F5F5F5F5F5F5F5F5F5F5F5F5F5F5F5F5F5F5F5F5F5F5F5F5F5F5F5F5F5
310
F5F5F5F5F5F5F5F5F5F5F5F5F5E2F5F5F5F5E2F5F5F5E2F5F5F5F5F5F5F5F5F5F5F5F5F5F5F5F5F5F5F5F5F5F5F5F5F5F5F5F5F5F5F5F5F5F5F5F5F5F5F5F5F5F5F5F5F5F5F5F5F5F5F5F5F5F5F5F5F5F5F5F5F5F5F5F5F5F5F5F5F5F5F5F5F5F5F5F5F5F5F5F5F5F5F5F5F5F5F5F5F5F5E2F5F5F5F5E2F5F5F5E2F5F5F5F5
310
F5F5F5F5F5F5F5F5F5F5F5F5F5F5F5F5F5F5F5F5F5F5F5F5F5F5F5F5F5F5F5F5F5F5F5F5F5F5F5F5F5F5F5F5F5F5F5F5F5F5F5F5F5F5F5F5F5F5F5F5F5F5F5F5F5F5F5F5F5F5F5F5F5F5F5F5F5F5F5F5F5F5F5F5F5F5E2F5F5F5F5E2F5F5F5E2F5F5F5F5F5F5F5F5F5F5F5F5F5F5F5F5F5F5F5F5F5F5F5F5F5F5F5F5F5F5F5
310
F5F5F5F5F5F5F5F5F5F5F5F5F5F5F5F5F5F5F5F5F5F5F5F5F5F5F5F5F5F5F5F5F5F5F5F5F5F5F5F5F5F5F5F5F5F5F5F5F5F5F5F5F5F5F5F5F5F5F5E2F5F5F5F5E2F5F5F5E2F5F5F5F5F5F5F5F5F5F5F5F5F5F5F5F5F5F5F5F5F5F5F5F5F5F5F5F5F5F5F5F5F5F5F5F5F5F5F5F5F5F5F5F5F5F5F5F5F5F5F5F5F5F5F5F5F5F5
310
F5F5F5F5F5F5F5F5F5F5F5F5F5F5F5F5F5F5F5F5F5F5F5F5F5F5F5F5F5F5F5F5E2F5F5F5F5E2F5F5F5F5F5F5F5F5F5F5F5F5F5F5F5F5F5F5F5F5F5F5F5F5F5F5F5F5F5F5F5F5F5F5F5F5F5F5F5F5F5F5F5F5F5F5F5F5F5F5F5F5F5F5F5F5F5F5F5F5F5F5F5F5F5F5F5F5F5F5F5F5F5F5F5F5F5F5F5F5F5F5F5F5F5F5F5F5F5
310
F5F5F5F5F5F5F5F5F5F5E2F5F5F5F5F5F5F5F5F5F5F5F5F5F5F5F5F5F5F5F5F5F5F5F5F5F5F5F5F5F5F5F5F5F5F5F5F5F5F5F5F5F5F5F5F5F5F5F5F5F5F5F5F5F5F5F5F5F5F5F5F5F5F5F5F5F5F5F5F5F5F5F5F5F5F5F5F5F5F5F5F5F5F5F5F5F5F5F5F5F5F5F5F5F5F5F5F5F5F5E2F5F5F5F5F5F5F5F5F5F5F5F5F5F5F5F5
310
F5F5F5F5F5F5F5F5F5F5F5F5F5F5F5F5F5F5F5F5F5F5F5F5F5F5F5F5F5F5F5F5F5F5F5F5F5F5F5F5F5F5F5F5F5F5F5F5F5F5F5F5F5F5F5F5F5F5F5F5F5F5F5F5F5F5F5F5F5F5F5F5F5F5F5F5F5F5F5F5F5F5F5E2F5F5F5F5F5F5F5F5F5F5F5F5F5F5F5F5F5F5F5F5F5F5F5F5F5F5F5F5F5F5F5F5F5F5F5F5F5F5F5F5F5F5F5
310
F5F5F5F5F5F5F5F5F5F5F5F5F5F5F5F5F5F5F5F5F5F5F5F5F5F5F5F5F5F5F5F5F5F5F5F5F5F5F5F5F5F5F5F5F5F5F5F5F5F5F5F5F5F5F5F5E2F5F5F5F5F5F5F5F5F5F5F5F5F5F5F5F5F5F5F5F5F5F5F5F5F5F5F5F5F5F5F5F5F5F5F5F5F5F5F5F5F5F5F5F5F5F5F5F5F5F5F5F5F5F5F5F5F5F5F5F5F5F5F5F5F5F5F5F5F5F5
310
F5F5F5F5F5F5F5F5F5F5F5F5F5F5F5F5F5F5F5F5F5F5F5F5F5F5F5F5F5E2F5F5F5F5F5F5F5F5F5F5F5F5F5F5F5F5F5F5F5F5F5F5F5F5F5F5F5F5F5F5F5F5F5F5F5F5F5F5F5F5F5F5F5F5F5F5F5F5F5F5F5F5F5F5F5F5F5F5F5F5F5F5F5F5F5F5F5F5F5F5F5F5F5F5F5F5F5F5F5F5F5F5F5F5F5F5F5F5F5F5F5F5F5F5F5F5F5
310
F5F5E2F5F5F5F5F5F5F5F5F5F5F5F5F5F5F5F5F5F5F5F5F5F5F5F5F5F5F5F5F5F5F5F5F5F5F5F5F5F5F5F5F5F5F5F5F5F5F5F5F5F5F5F5F5F5F5F5F5F5F5F5F5F5F5F5F5F5F5F5F5F5F5F5F5F5F5F5F5F5F5F5F5F5F5F5F5F5F5F5F5F5F5F5F5F5F5F5F5F5F5E2F5F5F5F5F5F5F5F5F5F5F5F5F5F5F5F5F5F5F5F5F5F5F5F5
310
F5F5F5F5F5F5F5F5F5F5F5F5F5F5F5F5F5F5F5F5F5F5F5F5F5F5F5F5F5F5F5F5F5F5F5F5F5F5F5F5F5F5F5F5F5F5F5F5F5F5F5F5F5F5F5F5F5F5F5F5F5F5F5F5F5F5F5F5F5F5F5F5F5F5E2E2F5F5F5F5F5F5F5F5F5F5F5F5F5F5F5F5F5F5F5F5F5F5F5F5F5F5F5F5F5F5F5F5F5F5F5F5F5F5F5F5F5F5F5F5F5F5F5F5F5F5F5
310
F5F5F5F5F5F5F5F5F5F5F5F5F5F5F5F5F5F5F5F5F5F5F5F5F5F5F5F5F5F5F5F5F5F5F5F5F5F5F5F5F5F5F5F5F5F5F5F5E2F5F5F5F5F5F5F5F5F5F5F5F5F5F5F5F5F5F5F5F5F5F5F5F5F5F5F5F5F5F5F5F5F5F5F5F5F5F5F5F5F5F5F5F5F5F5F5F5F5F5F5F5F5F5F5F5F5F5F5F5F5F5F5F5F5F5F5F5F5F5F5F5F5F5F5F5F5F5
310
F5F5F5F5F5F5F5F5F5F5F5F5F5F5F5F5F5F5F5F5F5E2F5F5F5E2F5F5F5F5F5F5F5F5F5F5F5F5F5F5F5F5F5F5F5F5F5F5F5F5F5F5F5F5F5F5F5F5F5F5F5F5F5F5F5F5F5F5F5F5F5F5F5F5F5F5F5F5F5F5F5F5F5F5F5F5F5F5F5F5F5F5F5F5F5F5F5F5F5F5F5F5F5F5F5F5F5F5F5F5F5F5F5F5F5F5E2F5F5F5F5E2F5F5F5E2F5
310
F5F5F5F5F5F5F5F5F5F5F5F5F5F5F5F5F5F5F5F5F5F5F5F5F5F5F5F5F5F5F5F5F5F5F5F5F5F5F5F5F5F5F5F5F5F5F5F5F5F5F5F5F5F5F5F5F5F5F5F5F5F5F5F5F5F5F5F5F5F5F5F5F5F5F5F5F5F5F5F5F5F5F5F5F5F5F5F5F5E2F5F5F5F5E2F5F5F5E2F5F5F5F5F5F5F5F5F5F5F5F5F5F5F5F5F5F5F5F5F5F5F5F5F5F5F5F5
310
F5F5F5F5F5F5F5F5F5F5F5F5F5F5F5F5F5F5F5F5F5F5F5F5F5F5F5F5F5F5F5F5F5F5F5F5F5F5F5F5F5F5F5F5F5F5F5F5F5F5F5F5F5F5F5F5F5F5F5F5F5F5E2F5F5F5F5E2F5F5F5E2F5F5F5F5F5F5F5F5F5F5F5F5F5F5F5F5F5F5F5F5F5F5F5F5F5F5F5F5F5F5F5F5F5F5F5F5F5F5F5F5F5F5F5F5F5F5F5F5F5F5F5F5F5F5F5
310
F5F5F5F5F5F5F5F5F5F5F5F5F5F5F5F5F5F5F5F5F5F5F5F5F5F5F5F5F5F5F5F5F5F5F5E2F5F5F5F5E2F5F5F5E2F5F5F5F5F5F5F5F5F5F5F5F5F5F5F5F5F5F5F5F5F5F5F5F5F5F5F5F5F5F5F5F5F5F5F5F5F5F5F5F5F5F5F5F5F5F5F5F5F5F5F5F5F5F5F5F5F5F5F5F5F5F5F5F5F5F5F5F5F5F5F5F5F5F5F5F5F5F5F5F5F5F5
310
F5F5F5F5F5F5F5F5E2F5F5F5F5E2F5F5F5E2F5F5F5F5F5F5F5F5F5F5F5F5F5F5F5F5F5F5F5F5F5F5F5F5F5F5F5F5F5F5F5F5F5F5F5F5F5F5F5F5F5F5F5F5F5F5F5F5F5F5F5F5F5F5F5F5F5F5F5F5F5F5F5F5F5F5F5F5F5F5F5F5F5F5F5F5F5F5F5F5F5F5F5F5F5F5F5F5F5F5E2F5F5F5F5E2F5F5F5E2F5F5F5F5F5F5F5F5F5
310
F5F5F5F5F5F5F5F5F5F5F5F5F5F5F5F5F5F5F5F5F5F5F5F5F5F5F5F5F5F5F5F5F5F5F5F5F5F5F5F5F5F5F5F5F5F5F5F5F5F5F5F5F5F5F5F5F5F5F5F5F5F5F5F5F5F5F5F5F5F5F5F5F5F5F5F5F5F5F5F5F5E2F5F5F5F5E2F5F5F5E2F5F5F5F5F5F5F5F5F5F5F5F5F5F5F5F5F5F5F5F5F5F5F5F5F5F5F5F5F5F5F5F5F5F5F5F5
310
F5F5F5F5F5F5F5F5F5F5F5F5F5F5F5F5F5F5F5F5F5F5F5F5F5F5F5F5F5F5F5F5F5F5F5F5F5F5F5F5F5F5F5F5F5F5F5F5F5F5F5F5F5F5E2F5F5F5F5E2F5F5F5E2E2E2E2E2E2E2E2F5F5F5F5F5F5F5F5E2E2E2E2E2E2E2E2E2E2E2E2E2E2E2F5F5F5F5F5F5F5F5E2E2E2E2E2E2E2E2E2E2E2E2E2E2F5F5F5F5F5F5F5F5E2E2E2
310
E2E2E2E2E2E2E2E2E2E2E2E2F5F5F5F5F5F5F5F5E2E2E2E2E2E2E2E2F5F5F5F5E2F5F5F5F5F5F5F5F5F5F5F5F5F5F5F5F5F5F5F5F5F5F5F5F5F5F5F5F5F5F5F5F5F5F5F5F5F5F5F5F5F5F5F5F5F5F5F5F5F5F5F5F5F5F5F5F5F5F5F5F5F5F5F5F5F5F5F5F5F5F5F5F5F5F5F5F5F5F5F5F5F5F5F5F5F5F5F5F5F5F5F5F5F5F5
310
F5F5F5F5E2E2F5F5F5F5F5F5F5F5F5F5F5F5F5F5F5F5F5F5F5F5F5F5F5F5F5F5F5F5F5F5F5F5F5F5F5F5F5F5F5F5F5F5F5F5F5F5F5F5F5F5F5F5F5F5F5F5F5F5F5F5F5F5F5F5F5F5F5F5F5F5F5F5F5F5F5F5F5F5F5F5F5F5F5F5F5F5F5F5F5F5F5F5F5F5F5F5F5F5F5E2F5F5F5F5F5F5F5F5F5F5F5F5F5F5F5F5F5F5F5F5F5
310
F5F5F5F5F5F5F5F5F5F5F5F5F5F5F5F5F5F5F5F5F5F5F5F5F5F5F5F5F5F5F5F5F5F5F5F5F5F5F5F5F5F5F5F5F5F5F5F5F5F5F5F5F5F5F5F5F5F5F5F5F5F5F5F5F5F5F5F5F5F5F5F5F5F5F5F5F5E2
  0
XRECORD
  5
57C2
102
{ACAD_REACTORS
330
57C1
102
}
330
57C1
100
AcDbXrecord
280
     1
102
SHADEPLOT
 70
     0
102
SHADEPLOTRESLEVEL
 70
     2
102
SHADEPLOTCUSTOMDPI
 70
   300
  0
XRECORD
  5
57CB
102
{ACAD_REACTORS
330
5661
102
}
330
5661
100
AcDbXrecord
280
     1
102
MATERIAL
148
0.0
149
0.0
149
0.0
 93
        0
 94
      127
282
     0
 72
     0
 77
     0
171
     0
175
     0
179
     0
273
     0
  0
XRECORD
  5
5663
102
{ACAD_REACTORS
330
5661
102
}
330
5661
100
AcDbXrecord
280
     1
270
     1
271
     1
  0
XRECORD
  5
5662
102
{ACAD_REACTORS
330
5661
102
}
330
5661
100
AcDbXrecord
280
     1
270
     1
271
     1
  0
XRECORD
  5
5666
102
{ACAD_REACTORS
330
5661
102
}
330
5661
100
AcDbXrecord
280
     1
270
     1
271
     1
  0
XRECORD
  5
5665
102
{ACAD_REACTORS
330
5661
102
}
330
5661
100
AcDbXrecord
280
     1
270
     1
271
     1
  0
XRECORD
  5
5667
102
{ACAD_REACTORS
330
5661
102
}
330
5661
100
AcDbXrecord
280
     1
270
     1
271
     1
  0
XRECORD
  5
5664
102
{ACAD_REACTORS
330
5661
102
}
330
5661
100
AcDbXrecord
280
     1
270
     1
271
     1
  0
XRECORD
  5
57CA
102
{ACAD_REACTORS
330
5659
102
}
330
5659
100
AcDbXrecord
280
     1
102
MATERIAL
148
0.0
149
0.0
149
0.0
 93
        0
 94
      127
282
     0
 72
     0
 77
     0
171
     0
175
     0
179
     0
273
     0
  0
XRECORD
  5
565B
102
{ACAD_REACTORS
330
5659
102
}
330
5659
100
AcDbXrecord
280
     1
270
     1
271
     1
  0
XRECORD
  5
565A
102
{ACAD_REACTORS
330
5659
102
}
330
5659
100
AcDbXrecord
280
     1
270
     1
271
     1
  0
XRECORD
  5
565E
102
{ACAD_REACTORS
330
5659
102
}
330
5659
100
AcDbXrecord
280
     1
270
     1
271
     1
  0
XRECORD
  5
565D
102
{ACAD_REACTORS
330
5659
102
}
330
5659
100
AcDbXrecord
280
     1
270
     1
271
     1
  0
XRECORD
  5
565F
102
{ACAD_REACTORS
330
5659
102
}
330
5659
100
AcDbXrecord
280
     1
270
     1
271
     1
  0
XRECORD
  5
565C
102
{ACAD_REACTORS
330
5659
102
}
330
5659
100
AcDbXrecord
280
     1
270
     1
271
     1
  0
XRECORD
  5
57CC
102
{ACAD_REACTORS
330
5669
102
}
330
5669
100
AcDbXrecord
280
     1
102
MATERIAL
148
0.0
149
0.0
149
0.0
 93
        0
 94
      127
282
     0
 72
     0
 77
     0
171
     0
175
     0
179
     0
273
     0
  0
XRECORD
  5
566B
102
{ACAD_REACTORS
330
5669
102
}
330
5669
100
AcDbXrecord
280
     1
270
     1
271
     1
  0
XRECORD
  5
566A
102
{ACAD_REACTORS
330
5669
102
}
330
5669
100
AcDbXrecord
280
     1
270
     1
271
     1
  0
XRECORD
  5
566E
102
{ACAD_REACTORS
330
5669
102
}
330
5669
100
AcDbXrecord
280
     1
270
     1
271
     1
  0
XRECORD
  5
566D
102
{ACAD_REACTORS
330
5669
102
}
330
5669
100
AcDbXrecord
280
     1
270
     1
271
     1
  0
XRECORD
  5
566F
102
{ACAD_REACTORS
330
5669
102
}
330
5669
100
AcDbXrecord
280
     1
270
     1
271
     1
  0
XRECORD
  5
566C
102
{ACAD_REACTORS
330
5669
102
}
330
5669
100
AcDbXrecord
280
     1
270
     1
271
     1
  0
CELLSTYLEMAP
  5
57BE
102
{ACAD_REACTORS
330
57BD
102
}
330
57BD
100
AcDbCellStyleMap
 90
        3
300
CELLSTYLE
  1
TABLEFORMAT_BEGIN
 90
        5
170
     1
 91
        0
 92
    32768
 62
   257
 93
        1
300
CONTENTFORMAT
  1
CONTENTFORMAT_BEGIN
 90
        0
 91
        0
 92
      512
 93
        0
300

 40
0.0
140
1.0
 94
        5
 62
     0
340
F
144
0.25
309
CONTENTFORMAT_END
171
     0
 94
        0
309
TABLEFORMAT_END
  1
CELLSTYLE_BEGIN
 90
        1
 91
        1
300
_TITLE
309
CELLSTYLE_END
300
CELLSTYLE
  1
TABLEFORMAT_BEGIN
 90
        5
170
     1
 91
        0
 92
        0
 62
   257
 93
        1
300
CONTENTFORMAT
  1
CONTENTFORMAT_BEGIN
 90
        0
 91
        0
 92
      512
 93
        0
300

 40
0.0
140
1.0
 94
        5
 62
     0
340
F
144
0.18
309
CONTENTFORMAT_END
171
     0
 94
        0
309
TABLEFORMAT_END
  1
CELLSTYLE_BEGIN
 90
        2
 91
        1
300
_HEADER
309
CELLSTYLE_END
300
CELLSTYLE
  1
TABLEFORMAT_BEGIN
 90
        5
170
     1
 91
        0
 92
        0
 62
   257
 93
        1
300
CONTENTFORMAT
  1
CONTENTFORMAT_BEGIN
 90
        0
 91
        0
 92
      512
 93
        0
300

 40
0.0
140
1.0
 94
        2
 62
     0
340
F
144
0.18
309
CONTENTFORMAT_END
171
     0
 94
        0
309
TABLEFORMAT_END
  1
CELLSTYLE_BEGIN
 90
        3
 91
        2
300
_DATA
309
CELLSTYLE_END
  0
XRECORD
  5
57CD
102
{ACAD_REACTORS
330
57BD
102
}
330
57BD
100
AcDbXrecord
280
     1
102
ACAD_ROUNDTRIP_PRE2007_TABLESTYLE
 90
      512
 91
        0
  1

 92
      512
 93
        0
  2

 94
      512
 95
        0
  3

  0
ENDSEC
  0
EOF
