  0
SECTION
  2
HEADER
  9
$ACADVER
  1
AC1015
  9
$ACADMAINTVER
 70
    20
  9
$DWGCODEPAGE
  3
ANSI_1252
  9
$INSBASE
 10
0.0
 20
0.0
 30
0.0
  9
$EXTMIN
 10
6970.022479535725
 20
-1491.665234797964
 30
0.0
  9
$EXTMAX
 10
8274.456313096433
 20
910.4771853516245
 30
0.0
  9
$LIMMIN
 10
-1091.180495341761
 20
-619.6501650024412
  9
$LIMMAX
 10
1056.97244419739
 20
951.0353648293053
  9
$ORTHOMODE
 70
     1
  9
$REGENMODE
 70
     1
  9
$FILLMODE
 70
     1
  9
$QTEXTMODE
 70
     0
  9
$MIRRTEXT
 70
     1
  9
$LTSCALE
 40
1.0
  9
$ATTMODE
 70
     1
  9
$TEXTSIZE
 40
100.0
  9
$TRACEWID
 40
0.05
  9
$TEXTSTYLE
  7
VOESTB
  9
$CLAYER
  8
TEXT
  9
$CELTYPE
  6
BYLAYER
  9
$CECOLOR
 62
   256
  9
$CELTSCALE
 40
1.0
  9
$DISPSILH
 70
     0
  9
$DIMSCALE
 40
10.0
  9
$DIMASZ
 40
0.25
  9
$DIMEXO
 40
0.1
  9
$DIMDLI
 40
0.5
  9
$DIMRND
 40
0.0
  9
$DIMDLE
 40
0.0
  9
$DIMEXE
 40
0.25
  9
$DIMTP
 40
0.0
  9
$DIMTM
 40
0.0
  9
$DIMTXT
 40
0.25
  9
$DIMCEN
 40
0.0
  9
$DIMTSZ
 40
0.0
  9
$DIMTOL
 70
     0
  9
$DIMLIM
 70
     0
  9
$DIMTIH
 70
     0
  9
$DIMTOH
 70
     0
  9
$DIMSE1
 70
     0
  9
$DIMSE2
 70
     0
  9
$DIMTAD
 70
     0
  9
$DIMZIN
 70
     0
  9
$DIMBLK
  1

  9
$DIMASO
 70
     1
  9
$DIMSHO
 70
     1
  9
$DIMPOST
  1

  9
$DIMAPOST
  1

  9
$DIMALT
 70
     0
  9
$DIMALTD
 70
     2
  9
$DIMALTF
 40
25.4
  9
$DIMLFAC
 40
1.0
  9
$DIMTOFL
 70
     0
  9
$DIMTVP
 40
0.0
  9
$DIMTIX
 70
     0
  9
$DIMSOXD
 70
     0
  9
$DIMSAH
 70
     0
  9
$DIMBLK1
  1

  9
$DIMBLK2
  1

  9
$DIMSTYLE
  2
TYPENBLATT_M50
  9
$DIMCLRD
 70
     0
  9
$DIMCLRE
 70
     0
  9
$DIMCLRT
 70
     0
  9
$DIMTFAC
 40
1.0
  9
$DIMGAP
 40
0.075
  9
$DIMJUST
 70
     0
  9
$DIMSD1
 70
     0
  9
$DIMSD2
 70
     0
  9
$DIMTOLJ
 70
     1
  9
$DIMTZIN
 70
     0
  9
$DIMALTZ
 70
     0
  9
$DIMALTTZ
 70
     0
  9
$DIMUPT
 70
     0
  9
$DIMDEC
 70
     0
  9
$DIMTDEC
 70
     4
  9
$DIMALTU
 70
     2
  9
$DIMALTTD
 70
     2
  9
$DIMTXSTY
  7
VOEST
  9
$DIMAUNIT
 70
     0
  9
$DIMADEC
 70
     0
  9
$DIMALTRND
 40
0.0
  9
$DIMAZIN
 70
     0
  9
$DIMDSEP
 70
    46
  9
$DIMATFIT
 70
     3
  9
$DIMFRAC
 70
     0
  9
$DIMLDRBLK
  1

  9
$DIMLUNIT
 70
     2
  9
$DIMLWD
 70
    -2
  9
$DIMLWE
 70
    -2
  9
$DIMTMOVE
 70
     0
  9
$LUNITS
 70
     2
  9
$LUPREC
 70
     4
  9
$SKETCHINC
 40
0.1
  9
$FILLETRAD
 40
10.0
  9
$AUNITS
 70
     0
  9
$AUPREC
 70
     4
  9
$MENU
  1
acad
  9
$ELEVATION
 40
0.0
  9
$PELEVATION
 40
0.0
  9
$THICKNESS
 40
0.0
  9
$LIMCHECK
 70
     0
  9
$CHAMFERA
 40
0.0
  9
$CHAMFERB
 40
0.0
  9
$CHAMFERC
 40
1.0
  9
$CHAMFERD
 40
0.0
  9
$SKPOLY
 70
     0
  9
$TDCREATE
 40
2451353.418328530
  9
$TDUCREATE
 40
2451353.376661864
  9
$TDUPDATE
 40
2453077.384997280
  9
$TDUUPDATE
 40
2453077.343330614
  9
$TDINDWG
 40
2.2904714583
  9
$TDUSRTIMER
 40
2.2904714583
  9
$USRTIMER
 70
     1
  9
$ANGBASE
 50
0.0
  9
$ANGDIR
 70
     0
  9
$PDMODE
 70
     0
  9
$PDSIZE
 40
0.0
  9
$PLINEWID
 40
0.0
  9
$SPLFRAME
 70
     0
  9
$SPLINETYPE
 70
     6
  9
$SPLINESEGS
 70
     8
  9
$HANDSEED
  5
1DB0
  9
$SURFTAB1
 70
     6
  9
$SURFTAB2
 70
     6
  9
$SURFTYPE
 70
     6
  9
$SURFU
 70
     6
  9
$SURFV
 70
     6
  9
$UCSBASE
  2

  9
$UCSNAME
  2

  9
$UCSORG
 10
0.0
 20
0.0
 30
0.0
  9
$UCSXDIR
 10
1.0
 20
0.0
 30
0.0
  9
$UCSYDIR
 10
0.0
 20
1.0
 30
0.0
  9
$UCSORTHOREF
  2

  9
$UCSORTHOVIEW
 70
     0
  9
$UCSORGTOP
 10
0.0
 20
0.0
 30
0.0
  9
$UCSORGBOTTOM
 10
0.0
 20
0.0
 30
0.0
  9
$UCSORGLEFT
 10
0.0
 20
0.0
 30
0.0
  9
$UCSORGRIGHT
 10
0.0
 20
0.0
 30
0.0
  9
$UCSORGFRONT
 10
0.0
 20
0.0
 30
0.0
  9
$UCSORGBACK
 10
0.0
 20
0.0
 30
0.0
  9
$PUCSBASE
  2

  9
$PUCSNAME
  2

  9
$PUCSORG
 10
0.0
 20
0.0
 30
0.0
  9
$PUCSXDIR
 10
1.0
 20
0.0
 30
0.0
  9
$PUCSYDIR
 10
0.0
 20
1.0
 30
0.0
  9
$PUCSORTHOREF
  2

  9
$PUCSORTHOVIEW
 70
     0
  9
$PUCSORGTOP
 10
0.0
 20
0.0
 30
0.0
  9
$PUCSORGBOTTOM
 10
0.0
 20
0.0
 30
0.0
  9
$PUCSORGLEFT
 10
0.0
 20
0.0
 30
0.0
  9
$PUCSORGRIGHT
 10
0.0
 20
0.0
 30
0.0
  9
$PUCSORGFRONT
 10
0.0
 20
0.0
 30
0.0
  9
$PUCSORGBACK
 10
0.0
 20
0.0
 30
0.0
  9
$USERI1
 70
     0
  9
$USERI2
 70
     0
  9
$USERI3
 70
     0
  9
$USERI4
 70
     0
  9
$USERI5
 70
     0
  9
$USERR1
 40
0.0
  9
$USERR2
 40
0.0
  9
$USERR3
 40
0.0
  9
$USERR4
 40
0.0
  9
$USERR5
 40
0.0
  9
$WORLDVIEW
 70
     1
  9
$SHADEDGE
 70
     3
  9
$SHADEDIF
 70
    70
  9
$TILEMODE
 70
     0
  9
$MAXACTVP
 70
    48
  9
$PINSBASE
 10
0.0
 20
0.0
 30
0.0
  9
$PLIMCHECK
 70
     0
  9
$PEXTMIN
 10
0.3151759405626242
 20
0.0392419594367362
 30
0.0
  9
$PEXTMAX
 10
7.329726521398396
 20
10.89693515215751
 30
0.0
  9
$PLIMMIN
 10
-0.2679166643638311
 20
-0.2179166651147557
  9
$PLIMMAX
 10
7.99874977802667
 20
11.47208313303669
  9
$UNITMODE
 70
     0
  9
$VISRETAIN
 70
     1
  9
$PLINEGEN
 70
     0
  9
$PSLTSCALE
 70
     1
  9
$TREEDEPTH
 70
  3020
  9
$CMLSTYLE
  2
STANDARD
  9
$CMLJUST
 70
     0
  9
$CMLSCALE
 40
1.0
  9
$PROXYGRAPHICS
 70
     1
  9
$MEASUREMENT
 70
     0
  9
$CELWEIGHT
370
    -1
  9
$ENDCAPS
280
     0
  9
$JOINSTYLE
280
     0
  9
$LWDISPLAY
290
     0
  9
$INSUNITS
 70
     0
  9
$HYPERLINKBASE
  1

  9
$STYLESHEET
  1

  9
$XEDIT
290
     1
  9
$CEPSNTYPE
380
     0
  9
$PSTYLEMODE
290
     1
  9
$FINGERPRINTGUID
  2
{B7B02B73-C3B6-11D6-A697-000102FA756E}
  9
$VERSIONGUID
  2
{F27837E8-0AC8-4301-8C3D-5B4D08C58DA7}
  9
$EXTNAMES
290
     1
  9
$PSVPSCALE
 40
0.0
  9
$OLESTARTUP
290
     0
  0
ENDSEC
  0
SECTION
  2
CLASSES
  0
CLASS
  1
DICTIONARYVAR
  2
AcDbDictionaryVar
  3
ObjectDBX Classes
 90
        0
280
     0
281
     0
  0
CLASS
  1
ACDBDICTIONARYWDFLT
  2
AcDbDictionaryWithDefault
  3
ObjectDBX Classes
 90
        0
280
     0
281
     0
  0
CLASS
  1
ACDBPLACEHOLDER
  2
AcDbPlaceHolder
  3
ObjectDBX Classes
 90
        0
280
     0
281
     0
  0
CLASS
  1
LAYOUT
  2
AcDbLayout
  3
ObjectDBX Classes
 90
        0
280
     0
281
     0
  0
ENDSEC
  0
SECTION
  2
TABLES
  0
TABLE
  2
VPORT
  5
8
330
0
100
AcDbSymbolTable
 70
     1
  0
VPORT
  5
1D99
330
8
100
AcDbSymbolTableRecord
100
AcDbViewportTableRecord
  2
*Active
 70
     0
 10
0.0
 20
0.0
 11
1.0
 21
1.0
 12
7538.759004420085
 22
-427.0044883274144
 13
0.0
 23
0.0
 14
0.5
 24
0.5
 15
0.5
 25
0.5
 16
0.0
 26
0.0
 36
1.0
 17
0.0
 27
0.0
 37
0.0
 40
2595.602800895345
 41
1.196517412935323
 42
50.0
 43
0.0
 44
0.0
 50
0.0
 51
0.0
 71
     0
 72
   100
 73
     1
 74
     1
 75
     0
 76
     0
 77
     0
 78
     0
281
     0
 65
     1
110
0.0
120
0.0
130
0.0
111
1.0
121
0.0
131
0.0
112
0.0
122
1.0
132
0.0
 79
     0
146
0.0
  0
ENDTAB
  0
TABLE
  2
LTYPE
  5
5
330
0
100
AcDbSymbolTable
 70
     4
  0
LTYPE
  5
12
330
5
100
AcDbSymbolTableRecord
100
AcDbLinetypeTableRecord
  2
BYBLOCK
 70
     0
  3

 72
    65
 73
     0
 40
0.0
  0
LTYPE
  5
13
330
5
100
AcDbSymbolTableRecord
100
AcDbLinetypeTableRecord
  2
BYLAYER
 70
     0
  3

 72
    65
 73
     0
 40
0.0
  0
LTYPE
  5
14
330
5
100
AcDbSymbolTableRecord
100
AcDbLinetypeTableRecord
  2
CONTINUOUS
 70
     0
  3
Solid line
 72
    65
 73
     0
 40
0.0
  0
LTYPE
  5
222
330
5
100
AcDbSymbolTableRecord
100
AcDbLinetypeTableRecord
  2
STRICHPUNKT
 70
     0
  3
Strichpunkt __ . __ . __ . __ . __ . __ . __ . 
 72
    65
 73
     4
 40
25.4
 49
12.7
 74
     0
 49
-6.349999999999999
 74
     0
 49
0.0
 74
     0
 49
-6.349999999999999
 74
     0
  0
LTYPE
  5
223
330
5
100
AcDbSymbolTableRecord
100
AcDbLinetypeTableRecord
  2
STRICHLINIE
 70
     0
  3
Strichlinie __ __ __ __ __ __ __ __ __ __ __ __
 72
    65
 73
     2
 40
19.05
 49
12.7
 74
     0
 49
-6.349999999999999
 74
     0
  0
LTYPE
  5
19CD
330
5
100
AcDbSymbolTableRecord
100
AcDbLinetypeTableRecord
  2
STRICHPUNKTX2
 70
     0
  3
Strichpunkt (2x) ____  .  ____  .  ____  .  ___
 72
    65
 73
     4
 40
2.0
 49
1.0
 74
     0
 49
-0.5
 74
     0
 49
0.0
 74
     0
 49
-0.5
 74
     0
  0
ENDTAB
  0
TABLE
  2
LAYER
  5
2
330
0
100
AcDbSymbolTable
 70
    12
  0
LAYER
  5
E
330
2
100
AcDbSymbolTableRecord
100
AcDbLayerTableRecord
  2
0
 70
     0
 62
     7
  6
CONTINUOUS
370
    -3
390
1611
  0
LAYER
  5
12F
330
2
100
AcDbSymbolTableRecord
100
AcDbLayerTableRecord
  2
25
 70
     0
 62
     7
  6
CONTINUOUS
370
    -3
390
1611
  0
LAYER
  5
1DA
330
2
100
AcDbSymbolTableRecord
100
AcDbLayerTableRecord
  2
35
 70
     0
 62
     2
  6
CONTINUOUS
370
    -3
390
1611
  0
LAYER
  5
224
330
2
100
AcDbSymbolTableRecord
100
AcDbLayerTableRecord
  2
KOTIERUNG
 70
     0
 62
     7
  6
CONTINUOUS
370
    -3
390
1611
  0
LAYER
  5
225
330
2
100
AcDbSymbolTableRecord
100
AcDbLayerTableRecord
  2
DEFPOINTS
 70
     0
 62
     7
  6
CONTINUOUS
290
     0
370
    -3
390
1611
  0
LAYER
  5
226
330
2
100
AcDbSymbolTableRecord
100
AcDbLayerTableRecord
  2
18
 70
     0
 62
     1
  6
CONTINUOUS
370
    -3
390
1611
  0
LAYER
  5
425
330
2
100
AcDbSymbolTableRecord
100
AcDbLayerTableRecord
  2
50
 70
     0
 62
    33
  6
CONTINUOUS
370
    -3
390
1611
  0
LAYER
  5
14EF
330
2
100
AcDbSymbolTableRecord
100
AcDbLayerTableRecord
  2
TEXT
 70
     0
 62
     7
  6
CONTINUOUS
370
    -3
390
1611
  0
LAYER
  5
1676
330
2
100
AcDbSymbolTableRecord
100
AcDbLayerTableRecord
  2
LS
 70
     0
 62
     5
  6
CONTINUOUS
370
    -3
390
1611
  0
LAYER
  5
1677
330
2
100
AcDbSymbolTableRecord
100
AcDbLayerTableRecord
  2
C160
 70
     0
 62
     7
  6
CONTINUOUS
370
    -3
390
1611
  0
LAYER
  5
190A
330
2
100
AcDbSymbolTableRecord
100
AcDbLayerTableRecord
  2
70
 70
     0
 62
     5
  6
CONTINUOUS
370
    -3
390
1611
  0
LAYER
  5
1D84
330
2
100
AcDbSymbolTableRecord
100
AcDbLayerTableRecord
  2
ZUSATZTEXTE
 70
     0
 62
     7
  6
CONTINUOUS
370
    -3
390
1611
  0
ENDTAB
  0
TABLE
  2
STYLE
  5
3
330
0
100
AcDbSymbolTable
 70
     6
  0
STYLE
  5
F
330
3
100
AcDbSymbolTableRecord
100
AcDbTextStyleTableRecord
  2
STANDARD
 70
     0
 40
0.0
 41
1.0
 50
0.0
 71
     0
 42
25.0
  3
Arialn.ttf
  4

1001
ACAD
1000
Arial Narrow
1071
       34
  0
STYLE
  5
428
330
3
100
AcDbSymbolTableRecord
100
AcDbTextStyleTableRecord
  2
VOEST
 70
     0
 40
0.0
 41
1.0
 50
0.0
 71
     0
 42
4.0
  3
Arialn.ttf
  4

1001
ACAD
1000
Arial Narrow
1071
       34
  0
STYLE
  5
15F0
330
3
100
AcDbSymbolTableRecord
100
AcDbTextStyleTableRecord
  2
VOESTB
 70
     0
 40
0.0
 41
1.0
 50
0.0
 71
     0
 42
100.0
  3

  4

1001
ACAD
1000
Arial Narrow
1071
 33554466
  0
STYLE
  5
1D85
330
3
100
AcDbSymbolTableRecord
100
AcDbTextStyleTableRecord
  2
LOGO1
 70
     0
 40
0.0
 41
1.175
 50
0.0
 71
     0
 42
6.158564712355089
  3
swissb.ttf
  4

1001
ACAD
1000
Swis721 BT
1071
 33554466
  0
STYLE
  5
1D86
330
3
100
AcDbSymbolTableRecord
100
AcDbTextStyleTableRecord
  2
LOGO3
 70
     0
 40
0.0
 41
1.175
 50
0.0
 71
     0
 42
6.158564712355089
  3
swissel.ttf
  4

1001
ACAD
1000
Swis721 LtEx BT
1071
       34
  0
STYLE
  5
1D87
330
3
100
AcDbSymbolTableRecord
100
AcDbTextStyleTableRecord
  2
LOGO2
 70
     0
 40
0.0
 41
1.175
 50
0.0
 71
     0
 42
6.158564712355089
  3
swiss.ttf
  4

1001
ACAD
1000
Swis721 BT
1071
       34
  0
ENDTAB
  0
TABLE
  2
VIEW
  5
6
330
0
100
AcDbSymbolTable
 70
     0
  0
ENDTAB
  0
TABLE
  2
UCS
  5
7
330
0
100
AcDbSymbolTable
 70
     0
  0
ENDTAB
  0
TABLE
  2
APPID
  5
9
330
0
100
AcDbSymbolTable
 70
     5
  0
APPID
  5
10
330
9
100
AcDbSymbolTableRecord
100
AcDbRegAppTableRecord
  2
ACAD
 70
     0
  0
APPID
  5
24
330
9
100
AcDbSymbolTableRecord
100
AcDbRegAppTableRecord
  2
CONTENTTABDATA
 70
     0
  0
APPID
  5
25
330
9
100
AcDbSymbolTableRecord
100
AcDbRegAppTableRecord
  2
CONTENTCURRENTTAB
 70
     0
  0
APPID
  5
116
330
9
100
AcDbSymbolTableRecord
100
AcDbRegAppTableRecord
  2
CONTENTBLOCKICON
 70
     0
  0
APPID
  5
117
330
9
100
AcDbSymbolTableRecord
100
AcDbRegAppTableRecord
  2
CONTENTBLOCKDESCRIPTION
 70
     0
  0
ENDTAB
  0
TABLE
  2
DIMSTYLE
  5
A
330
0
100
AcDbSymbolTable
 70
     5
100
AcDbDimStyleTable
 71
     0
  0
DIMSTYLE
105
1D
330
A
100
AcDbSymbolTableRecord
100
AcDbDimStyleTableRecord
  2
STANDARD
 70
     0
340
F
  0
DIMSTYLE
105
B80
330
A
100
AcDbSymbolTableRecord
100
AcDbDimStyleTableRecord
  2
TYPENBLATT
 70
     0
 40
100.0
 41
0.25
 42
0.5
 43
0.5
 44
0.25
 73
     0
 74
     0
140
0.25
147
0.125
271
     0
340
428
  0
DIMSTYLE
105
EF9
102
{ACAD_REACTORS
330
1AED
330
1B01
330
1B17
330
1B1C
330
1B3F
330
1B66
330
1B40
102
}
330
A
100
AcDbSymbolTableRecord
100
AcDbDimStyleTableRecord
  2
TYPENBLATT_M10
 70
     0
 40
100.0
 41
0.25
 42
0.5
 43
0.5
 44
0.25
 73
     0
 74
     0
 77
     1
140
0.25
147
0.075
271
     0
340
428
  0
DIMSTYLE
105
EFA
330
A
100
AcDbSymbolTableRecord
100
AcDbDimStyleTableRecord
  2
TYPENBLATT_M50
 70
     0
 40
500.0
 41
0.25
 42
0.1
 43
0.5
 44
0.25
 73
     0
 74
     0
 77
     1
140
0.25
147
0.075
271
     0
340
428
  0
DIMSTYLE
105
10C6
330
A
100
AcDbSymbolTableRecord
100
AcDbDimStyleTableRecord
  2
TYPENBLATT_BESCHR
 70
     0
 40
100.0
 41
0.25
 42
0.5
 43
0.25
 44
0.25
 73
     0
 74
     0
140
0.25
141
0.0
147
0.075
271
     0
340
428
  0
ENDTAB
  0
TABLE
  2
BLOCK_RECORD
  5
1
330
0
100
AcDbSymbolTable
 70
    48
  0
BLOCK_RECORD
  5
18
330
1
100
AcDbSymbolTableRecord
100
AcDbBlockTableRecord
  2
*MODEL_SPACE
340
1614
  0
BLOCK_RECORD
  5
15
330
1
100
AcDbSymbolTableRecord
100
AcDbBlockTableRecord
  2
*PAPER_SPACE
340
1615
  0
BLOCK_RECORD
  5
1C06
330
1
100
AcDbSymbolTableRecord
100
AcDbBlockTableRecord
  2
*D37
340
0
  0
BLOCK_RECORD
  5
1C12
330
1
100
AcDbSymbolTableRecord
100
AcDbBlockTableRecord
  2
*D38
340
0
  0
BLOCK_RECORD
  5
1C1E
330
1
100
AcDbSymbolTableRecord
100
AcDbBlockTableRecord
  2
*D39
340
0
  0
BLOCK_RECORD
  5
1C2B
330
1
100
AcDbSymbolTableRecord
100
AcDbBlockTableRecord
  2
*D40
340
0
  0
BLOCK_RECORD
  5
1C37
330
1
100
AcDbSymbolTableRecord
100
AcDbBlockTableRecord
  2
*D41
340
0
  0
BLOCK_RECORD
  5
1C44
330
1
100
AcDbSymbolTableRecord
100
AcDbBlockTableRecord
  2
*D42
340
0
  0
BLOCK_RECORD
  5
1C5C
330
1
100
AcDbSymbolTableRecord
100
AcDbBlockTableRecord
  2
*D44
340
0
  0
BLOCK_RECORD
  5
1D7A
330
1
100
AcDbSymbolTableRecord
100
AcDbBlockTableRecord
  2
VOESTALPINE LOGO
340
0
310
2800000020000000200000000100080000000000000400000000000000000000000000000000000000000000000080000080000000808000800000008000800080800000C0C0C000C0DCC000F0CAA6000020400000206000002080000020A0000020C0000020E00000400000004020000040400000406000004080000040A0
310
000040C0000040E00000600000006020000060400000606000006080000060A0000060C0000060E00000800000008020000080400000806000008080000080A0000080C0000080E00000A0000000A0200000A0400000A0600000A0800000A0A00000A0C00000A0E00000C0000000C0200000C0400000C0600000C0800000C0
310
A00000C0C00000C0E00000E0000000E0200000E0400000E0600000E0800000E0A00000E0C00000E0E00040000000400020004000400040006000400080004000A0004000C0004000E00040200000402020004020400040206000402080004020A0004020C0004020E000404000004040200040404000404060004040800040
310
40A0004040C0004040E00040600000406020004060400040606000406080004060A0004060C0004060E00040800000408020004080400040806000408080004080A0004080C0004080E00040A0000040A0200040A0400040A0600040A0800040A0A00040A0C00040A0E00040C0000040C0200040C0400040C0600040C08000
310
40C0A00040C0C00040C0E00040E0000040E0200040E0400040E0600040E0800040E0A00040E0C00040E0E00080000000800020008000400080006000800080008000A0008000C0008000E00080200000802020008020400080206000802080008020A0008020C0008020E00080400000804020008040400080406000804080
310
008040A0008040C0008040E00080600000806020008060400080606000806080008060A0008060C0008060E00080800000808020008080400080806000808080008080A0008080C0008080E00080A0000080A0200080A0400080A0600080A0800080A0A00080A0C00080A0E00080C0000080C0200080C0400080C0600080C0
310
800080C0A00080C0C00080C0E00080E0000080E0200080E0400080E0600080E0800080E0A00080E0C00080E0E000C0000000C0002000C0004000C0006000C0008000C000A000C000C000C000E000C0200000C0202000C0204000C0206000C0208000C020A000C020C000C020E000C0400000C0402000C0404000C0406000C0
310
408000C040A000C040C000C040E000C0600000C0602000C0604000C0606000C0608000C060A000C060C000C060E000C0800000C0802000C0804000C0806000C0808000C080A000C080C000C080E000C0A00000C0A02000C0A04000C0A06000C0A08000C0A0A000C0A0C000C0A0E000C0C00000C0C02000C0C04000C0C06000
310
C0C08000C0C0A000F0FBFF00A4A0A000808080000000FF0000FF000000FFFF00FF000000FF00FF00FFFF0000FFFFFF0000000000000000000000000000000000000000000000000000000000000000000000000000000000000000000000000000000000000000000000000000000000000000000000000000000000000000
310
00000000000000000000000000000000000000000000000000000000000000000000000000000000000000000000000000000000000000000000000000000000000000000000000000000000000000000000000000000000000000000000000000000000000000000000000000000000000000000000000000000000000000
310
00000000000000000000000000000000000000000000000000000000000000000000000000000000000000000000000000000000000000000000000000000000000000000000000000000000000000000000000000000000000000000000000000000000000000000000000000000000000000000000000000000000000000
310
000000000000000000000000000000000000000000000000000000000000000000000000000000000000000000000000000000000000000000000000000000000000000000000000000000000000000000000000000000000000000000000000000000000000000000000000000000000000000000FFFFFFFFFFFFFFFFFFFF
310
FFFFFFFFFFFFFFFFFFFFFFFFFF000000000000000000FFFF00FF00FF00FF00FFA2A2A2A2A2A2A2A2A200000000000000000000000000FFFFFFFFFFFFFFFFFFFFA2A2A2A2A2A2A2A2A2A20000000000000000000000FFFFFFFFFFFFFFFFFFFFFFA2A2A2A2A2A2A2A2A2A2000000000000000000000000000000000000000000
310
00000000000000000000000000000000000000000000000000000000000000000000000000000000000000000000000000000000000000000000000000000000000000000000000000000000000000000000000000000000000000000000000000000000000000000000000000000000000000000000000000000000000000
310
00000000000000000000000000000000000000000000000000000000000000000000000000000000000000000000000000000000000000000000000000000000000000000000000000000000000000000000000000000000000000000000000000000000000000000000000000000000000000000000000000000000000000
310
00000000000000000000000000000000000000000000000000000000000000000000000000000000000000000000000000000000000000000000000000000000000000000000000000000000000000000000000000000000000000000000000000000000000000000000000000000000000000000000000000000000000000
310
0000000000000000000000000000000000000000000000000000000000000000000000000000000000000000000000000000000000000000
102
{BLKREFS
331
1D81
102
}
1001
ACAD
1000
DesignCenter Data
1002
{
1070
     1
1070
     4
1002
}
  0
BLOCK_RECORD
  5
1D80
330
1
100
AcDbSymbolTableRecord
100
AcDbBlockTableRecord
  2
LOGO ACAD
340
0
102
{BLKREFS
331
1D94
102
}
1001
ACAD
1000
DesignCenter Data
1002
{
1070
     1
1070
     4
1002
}
  0
ENDTAB
  0
ENDSEC
  0
SECTION
  2
BLOCKS
  0
BLOCK
  5
19
330
18
100
AcDbEntity
  8
0
100
AcDbBlockBegin
  2
*MODEL_SPACE
 70
     0
 10
0.0
 20
0.0
 30
0.0
  3
*MODEL_SPACE
  1

  0
ENDBLK
  5
1A
330
18
100
AcDbEntity
  8
0
100
AcDbBlockEnd
  0
BLOCK
  5
16
330
15
100
AcDbEntity
 67
     1
  8
0
100
AcDbBlockBegin
  2
*PAPER_SPACE
 70
     0
 10
0.0
 20
0.0
 30
0.0
  3
*PAPER_SPACE
  1

  0
ENDBLK
  5
17
330
15
100
AcDbEntity
 67
     1
  8
0
100
AcDbBlockEnd
  0
BLOCK
  5
1C10
330
1C06
100
AcDbEntity
  8
0
100
AcDbBlockBegin
  2
*D37
 70
     1
 10
0.0
 20
0.0
 30
0.0
  3
*D37
  1

  0
LINE
  5
1D1A
330
1C06
100
AcDbEntity
  8
25
 62
     0
370
    -2
100
AcDbLine
 10
7095.9392984124
 20
-836.9432260897292
 30
0.0
 11
7074.737220695239
 21
-836.9432260897292
 31
0.0
  0
LINE
  5
1D1B
330
1C06
100
AcDbEntity
  8
25
 62
     0
370
    -2
100
AcDbLine
 10
7268.931447782304
 20
413.0567739102703
 30
0.0
 11
7074.737220695239
 21
413.0567739102703
 31
0.0
  0
LINE
  5
1D1C
330
1C06
100
AcDbEntity
  8
25
 62
     0
370
    -2
100
AcDbLine
 10
7099.737220695239
 20
-811.9432260897292
 30
0.0
 11
7099.737220695239
 21
388.0567739102703
 31
0.0
  0
SOLID
  5
1D1D
330
1C06
100
AcDbEntity
  8
25
 62
     0
100
AcDbTrace
 10
7095.570554028572
 20
-811.9432260897292
 30
0.0
 11
7103.903887361906
 21
-811.9432260897292
 31
0.0
 12
7099.737220695239
 22
-836.9432260897292
 32
0.0
 13
7099.737220695239
 23
-836.9432260897292
 33
0.0
  0
SOLID
  5
1D1E
330
1C06
100
AcDbEntity
  8
25
 62
     0
100
AcDbTrace
 10
7095.570554028572
 20
388.0567739102703
 30
0.0
 11
7103.903887361906
 21
388.0567739102703
 31
0.0
 12
7099.737220695239
 22
413.0567739102703
 32
0.0
 13
7099.737220695239
 23
413.0567739102703
 33
0.0
  0
MTEXT
  5
1D1F
330
1C06
100
AcDbEntity
  8
25
 62
     0
100
AcDbMText
 10
7079.472896002197
 20
-211.9432260897283
 30
0.0
 40
25.0
 41
0.0
 71
     5
 72
     1
  1
\A1;1250
  7
VOEST
 11
0.0000000000000001
 21
1.0
 31
0.0
 73
     1
 44
1.0
1001
ACAD
1000
MTEXTBEGIN
1070
    73
1070
     1
1070
    44
1040
1.0
1070
    74
1070
     0
1000
MTEXTEND
  0
POINT
  5
1D20
330
1C06
100
AcDbEntity
  8
DEFPOINTS
 62
     0
100
AcDbPoint
 10
7145.939298412399
 20
-836.9432260897292
 30
0.0
  0
POINT
  5
1D21
330
1C06
100
AcDbEntity
  8
DEFPOINTS
 62
     0
100
AcDbPoint
 10
7318.931447782304
 20
413.0567739102702
 30
0.0
  0
POINT
  5
1D22
330
1C06
100
AcDbEntity
  8
DEFPOINTS
 62
     0
100
AcDbPoint
 10
7099.737220695239
 20
413.0567739102703
 30
0.0
  0
ENDBLK
  5
1C11
330
1C06
100
AcDbEntity
  8
0
100
AcDbBlockEnd
  0
BLOCK
  5
1C1C
330
1C12
100
AcDbEntity
  8
0
100
AcDbBlockBegin
  2
*D38
 70
     1
 10
0.0
 20
0.0
 30
0.0
  3
*D38
  1

  0
LINE
  5
1D23
330
1C12
100
AcDbEntity
  8
KOTIERUNG
 62
     0
370
    -2
100
AcDbLine
 10
7268.931447782304
 20
-16.94322608972969
 30
0.0
 11
7154.368749674398
 21
-16.94322608972966
 31
0.0
  0
LINE
  5
1D24
330
1C12
100
AcDbEntity
  8
KOTIERUNG
 62
     0
370
    -2
100
AcDbLine
 10
7230.667450086037
 20
-836.9432260897292
 30
0.0
 11
7154.368749674398
 21
-836.9432260897292
 31
0.0
  0
LINE
  5
1D25
330
1C12
100
AcDbEntity
  8
KOTIERUNG
 62
     0
370
    -2
100
AcDbLine
 10
7179.368749674399
 20
-41.94322608972966
 30
0.0
 11
7179.368749674399
 21
-811.9432260897292
 31
0.0
  0
SOLID
  5
1D26
330
1C12
100
AcDbEntity
  8
KOTIERUNG
 62
     0
100
AcDbTrace
 10
7175.202083007731
 20
-41.94322608972966
 30
0.0
 11
7183.535416341065
 21
-41.94322608972966
 31
0.0
 12
7179.368749674399
 22
-16.94322608972967
 32
0.0
 13
7179.368749674399
 23
-16.94322608972967
 33
0.0
  0
SOLID
  5
1D27
330
1C12
100
AcDbEntity
  8
KOTIERUNG
 62
     0
100
AcDbTrace
 10
7175.202083007731
 20
-811.9432260897292
 30
0.0
 11
7183.535416341065
 21
-811.9432260897292
 31
0.0
 12
7179.368749674399
 22
-836.9432260897292
 32
0.0
 13
7179.368749674399
 23
-836.9432260897292
 33
0.0
  0
MTEXT
  5
1D28
330
1C12
100
AcDbEntity
  8
KOTIERUNG
 62
     0
100
AcDbMText
 10
7159.104424981356
 20
-358.9210406864331
 30
0.0
 40
25.0
 41
0.0
 71
     5
 72
     1
  1
\A1;820
  7
VOEST
 11
0.0000000000000001
 21
1.0
 31
0.0
 73
     1
 44
1.0
1001
ACAD
1000
MTEXTBEGIN
1070
    73
1070
     1
1070
    44
1040
1.0
1070
    74
1070
     0
1000
MTEXTEND
  0
POINT
  5
1D29
330
1C12
100
AcDbEntity
  8
DEFPOINTS
 62
     0
100
AcDbPoint
 10
7318.931447782304
 20
-16.9432260897297
 30
0.0
  0
POINT
  5
1D2A
330
1C12
100
AcDbEntity
  8
DEFPOINTS
 62
     0
100
AcDbPoint
 10
7280.667450086037
 20
-836.9432260897292
 30
0.0
  0
POINT
  5
1D2B
330
1C12
100
AcDbEntity
  8
DEFPOINTS
 62
     0
100
AcDbPoint
 10
7179.368749674399
 20
-836.9432260897292
 30
0.0
  0
ENDBLK
  5
1C1D
330
1C12
100
AcDbEntity
  8
0
100
AcDbBlockEnd
  0
BLOCK
  5
1C29
330
1C1E
100
AcDbEntity
  8
0
100
AcDbBlockBegin
  2
*D39
 70
     1
 10
0.0
 20
0.0
 30
0.0
  3
*D39
  1

  0
LINE
  5
1D35
330
1C1E
100
AcDbEntity
  8
25
 62
     0
370
    -2
100
AcDbLine
 10
7506.294034851122
 20
-489.6155792746215
 30
0.0
 11
7384.862755642076
 21
-489.6155792746215
 31
0.0
  0
LINE
  5
1D36
330
1C1E
100
AcDbEntity
  8
25
 62
     0
370
    -2
100
AcDbLine
 10
7506.294034851122
 20
-645.6155792746216
 30
0.0
 11
7384.862755642076
 21
-645.6155792746215
 31
0.0
  0
LINE
  5
1D37
330
1C1E
100
AcDbEntity
  8
25
 62
     0
370
    -2
100
AcDbLine
 10
7409.862755642077
 20
-514.6155792746214
 30
0.0
 11
7409.862755642077
 21
-620.6155792746215
 31
0.0
  0
LINE
  5
1D38
330
1C1E
100
AcDbEntity
  8
25
 62
     0
370
    -2
100
AcDbLine
 10
7409.862755642077
 20
-645.6155792746215
 30
0.0
 11
7409.862755642077
 21
-766.8870663141849
 31
0.0
  0
SOLID
  5
1D39
330
1C1E
100
AcDbEntity
  8
25
 62
     0
100
AcDbTrace
 10
7405.696088975409
 20
-514.6155792746214
 30
0.0
 11
7414.029422308743
 21
-514.6155792746214
 31
0.0
 12
7409.862755642077
 22
-489.6155792746215
 32
0.0
 13
7409.862755642077
 23
-489.6155792746215
 33
0.0
  0
SOLID
  5
1D3A
330
1C1E
100
AcDbEntity
  8
25
 62
     0
100
AcDbTrace
 10
7405.696088975409
 20
-620.6155792746215
 30
0.0
 11
7414.029422308743
 21
-620.6155792746215
 31
0.0
 12
7409.862755642077
 22
-645.6155792746215
 32
0.0
 13
7409.862755642077
 23
-645.6155792746215
 33
0.0
  0
MTEXT
  5
1D3B
330
1C1E
100
AcDbEntity
  8
25
 62
     0
100
AcDbMText
 10
7389.598430949035
 20
-737.7124414847159
 30
0.0
 40
25.0
 41
0.0
 71
     5
 72
     1
  1
\A1;156
  7
VOEST
 11
0.0000000000000001
 21
1.0
 31
0.0
 73
     1
 44
1.0
1001
ACAD
1000
MTEXTBEGIN
1070
    73
1070
     1
1070
    44
1040
1.0
1070
    74
1070
     0
1000
MTEXTEND
  0
POINT
  5
1D3C
330
1C1E
100
AcDbEntity
  8
DEFPOINTS
 62
     0
100
AcDbPoint
 10
7556.294034851122
 20
-489.6155792746216
 30
0.0
  0
POINT
  5
1D3D
330
1C1E
100
AcDbEntity
  8
DEFPOINTS
 62
     0
100
AcDbPoint
 10
7556.294034851122
 20
-645.6155792746216
 30
0.0
  0
POINT
  5
1D3E
330
1C1E
100
AcDbEntity
  8
DEFPOINTS
 62
     0
100
AcDbPoint
 10
7409.862755642077
 20
-645.6155792746215
 30
0.0
  0
ENDBLK
  5
1C2A
330
1C1E
100
AcDbEntity
  8
0
100
AcDbBlockEnd
  0
BLOCK
  5
1C35
330
1C2B
100
AcDbEntity
  8
0
100
AcDbBlockBegin
  2
*D40
 70
     1
 10
0.0
 20
0.0
 30
0.0
  3
*D40
  1

  0
LINE
  5
1D2C
330
1C2B
100
AcDbEntity
  8
25
 62
     0
370
    -2
100
AcDbLine
 10
7455.294034851123
 20
-566.9432260897292
 30
0.0
 11
7235.667450086038
 21
-566.9432260897291
 31
0.0
  0
LINE
  5
1D2D
330
1C2B
100
AcDbEntity
  8
25
 62
     0
370
    -2
100
AcDbLine
 10
7395.294034851123
 20
-836.9432260897291
 30
0.0
 11
7235.667450086038
 21
-836.9432260897291
 31
0.0
  0
LINE
  5
1D2E
330
1C2B
100
AcDbEntity
  8
25
 62
     0
370
    -2
100
AcDbLine
 10
7260.667450086038
 20
-591.9432260897291
 30
0.0
 11
7260.667450086038
 21
-811.9432260897291
 31
0.0
  0
SOLID
  5
1D2F
330
1C2B
100
AcDbEntity
  8
25
 62
     0
100
AcDbTrace
 10
7256.500783419371
 20
-591.9432260897291
 30
0.0
 11
7264.834116752705
 21
-591.9432260897291
 31
0.0
 12
7260.667450086038
 22
-566.9432260897291
 32
0.0
 13
7260.667450086038
 23
-566.9432260897291
 33
0.0
  0
SOLID
  5
1D30
330
1C2B
100
AcDbEntity
  8
25
 62
     0
100
AcDbTrace
 10
7256.500783419371
 20
-811.9432260897291
 30
0.0
 11
7264.834116752705
 21
-811.9432260897291
 31
0.0
 12
7260.667450086038
 22
-836.9432260897291
 32
0.0
 13
7260.667450086038
 23
-836.9432260897291
 33
0.0
  0
MTEXT
  5
1D31
330
1C2B
100
AcDbEntity
  8
25
 62
     0
100
AcDbMText
 10
7240.403125392996
 20
-678.9010657812541
 30
0.0
 40
25.0
 41
0.0
 71
     5
 72
     1
  1
\A1;270
  7
VOEST
 11
0.0000000000000001
 21
1.0
 31
0.0
 73
     1
 44
1.0
1001
ACAD
1000
MTEXTBEGIN
1070
    73
1070
     1
1070
    44
1040
1.0
1070
    74
1070
     0
1000
MTEXTEND
  0
POINT
  5
1D32
330
1C2B
100
AcDbEntity
  8
DEFPOINTS
 62
     0
100
AcDbPoint
 10
7505.294034851123
 20
-566.9432260897292
 30
0.0
  0
POINT
  5
1D33
330
1C2B
100
AcDbEntity
  8
DEFPOINTS
 62
     0
100
AcDbPoint
 10
7445.294034851123
 20
-836.9432260897292
 30
0.0
  0
POINT
  5
1D34
330
1C2B
100
AcDbEntity
  8
DEFPOINTS
 62
     0
100
AcDbPoint
 10
7260.667450086038
 20
-836.9432260897291
 30
0.0
  0
ENDBLK
  5
1C36
330
1C2B
100
AcDbEntity
  8
0
100
AcDbBlockEnd
  0
BLOCK
  5
1C42
330
1C37
100
AcDbEntity
  8
0
100
AcDbBlockBegin
  2
*D41
 70
     1
 10
0.0
 20
0.0
 30
0.0
  3
*D41
  1

  0
LINE
  5
1D3F
330
1C37
100
AcDbEntity
  8
KOTIERUNG
 62
     0
370
    -2
100
AcDbLine
 10
7505.294034851123
 20
-472.8642905805858
 30
0.0
 11
7505.294034851123
 21
-352.3752015896425
 31
0.0
  0
LINE
  5
1D40
330
1C37
100
AcDbEntity
  8
KOTIERUNG
 62
     0
370
    -2
100
AcDbLine
 10
7565.294034851122
 20
-448.6155792746216
 30
0.0
 11
7565.294034851122
 21
-352.3752015896425
 31
0.0
  0
LINE
  5
1D41
330
1C37
100
AcDbEntity
  8
KOTIERUNG
 62
     0
370
    -2
100
AcDbLine
 10
7480.294034851123
 20
-377.3752015896425
 30
0.0
 11
7455.294034851123
 21
-377.3752015896425
 31
0.0
  0
LINE
  5
1D42
330
1C37
100
AcDbEntity
  8
KOTIERUNG
 62
     0
370
    -2
100
AcDbLine
 10
7590.294034851122
 20
-377.3752015896425
 30
0.0
 11
7615.294034851122
 21
-377.3752015896425
 31
0.0
  0
SOLID
  5
1D43
330
1C37
100
AcDbEntity
  8
KOTIERUNG
 62
     0
100
AcDbTrace
 10
7480.294034851123
 20
-373.2085349229758
 30
0.0
 11
7480.294034851123
 21
-381.5418682563092
 31
0.0
 12
7505.294034851123
 22
-377.3752015896425
 32
0.0
 13
7505.294034851123
 23
-377.3752015896425
 33
0.0
  0
SOLID
  5
1D44
330
1C37
100
AcDbEntity
  8
KOTIERUNG
 62
     0
100
AcDbTrace
 10
7590.294034851122
 20
-373.2085349229758
 30
0.0
 11
7590.294034851122
 21
-381.5418682563092
 31
0.0
 12
7565.294034851122
 22
-377.3752015896425
 32
0.0
 13
7565.294034851122
 23
-377.3752015896425
 33
0.0
  0
MTEXT
  5
1D45
330
1C37
100
AcDbEntity
  8
KOTIERUNG
 62
     0
100
AcDbMText
 10
7535.294034851123
 20
-357.1108768966003
 30
0.0
 40
25.0
 41
0.0
 71
     5
 72
     1
  1
\A1;60
  7
VOEST
 73
     1
 44
1.0
1001
ACAD
1000
MTEXTBEGIN
1070
    73
1070
     1
1070
    44
1040
1.0
1070
    74
1070
     0
1000
MTEXTEND
  0
POINT
  5
1D46
330
1C37
100
AcDbEntity
  8
DEFPOINTS
 62
     0
100
AcDbPoint
 10
7505.294034851123
 20
-522.8642905805858
 30
0.0
  0
POINT
  5
1D47
330
1C37
100
AcDbEntity
  8
DEFPOINTS
 62
     0
100
AcDbPoint
 10
7565.294034851122
 20
-498.6155792746216
 30
0.0
  0
POINT
  5
1D48
330
1C37
100
AcDbEntity
  8
DEFPOINTS
 62
     0
100
AcDbPoint
 10
7565.294034851122
 20
-377.3752015896425
 30
0.0
  0
ENDBLK
  5
1C43
330
1C37
100
AcDbEntity
  8
0
100
AcDbBlockEnd
  0
BLOCK
  5
1C4E
330
1C44
100
AcDbEntity
  8
0
100
AcDbBlockBegin
  2
*D42
 70
     1
 10
0.0
 20
0.0
 30
0.0
  3
*D42
  1

  0
LINE
  5
1D49
330
1C44
100
AcDbEntity
  8
25
 62
     0
370
    -2
100
AcDbLine
 10
7565.294034851122
 20
-373.234484892786
 30
0.0
 11
7565.294034851122
 21
-352.3752015896425
 31
0.0
  0
LINE
  5
1D4A
330
1C44
100
AcDbEntity
  8
25
 62
     0
370
    -2
100
AcDbLine
 10
7725.294034851121
 20
-373.234484892786
 30
0.0
 11
7725.294034851121
 21
-352.3752015896425
 31
0.0
  0
LINE
  5
1D4B
330
1C44
100
AcDbEntity
  8
25
 62
     0
370
    -2
100
AcDbLine
 10
7590.294034851122
 20
-377.3752015896425
 30
0.0
 11
7700.294034851122
 21
-377.3752015896425
 31
0.0
  0
SOLID
  5
1D4C
330
1C44
100
AcDbEntity
  8
25
 62
     0
100
AcDbTrace
 10
7590.294034851122
 20
-373.2085349229758
 30
0.0
 11
7590.294034851122
 21
-381.5418682563092
 31
0.0
 12
7565.294034851122
 22
-377.3752015896425
 32
0.0
 13
7565.294034851122
 23
-377.3752015896425
 33
0.0
  0
SOLID
  5
1D4D
330
1C44
100
AcDbEntity
  8
25
 62
     0
100
AcDbTrace
 10
7700.294034851122
 20
-373.2085349229758
 30
0.0
 11
7700.294034851122
 21
-381.5418682563092
 31
0.0
 12
7725.294034851121
 22
-377.3752015896425
 32
0.0
 13
7725.294034851121
 23
-377.3752015896425
 33
0.0
  0
MTEXT
  5
1D4E
330
1C44
100
AcDbEntity
  8
25
 62
     0
100
AcDbMText
 10
7645.294034851122
 20
-357.1108768966003
 30
0.0
 40
25.0
 41
0.0
 71
     5
 72
     1
  1
\A1;160
  7
VOEST
 73
     1
 44
1.0
1001
ACAD
1000
MTEXTBEGIN
1070
    73
1070
     1
1070
    44
1040
1.0
1070
    74
1070
     0
1000
MTEXTEND
  0
POINT
  5
1D4F
330
1C44
100
AcDbEntity
  8
DEFPOINTS
 62
     0
100
AcDbPoint
 10
7565.294034851122
 20
-423.2344848927859
 30
0.0
  0
POINT
  5
1D50
330
1C44
100
AcDbEntity
  8
DEFPOINTS
 62
     0
100
AcDbPoint
 10
7725.294034851121
 20
-423.2344848927859
 30
0.0
  0
POINT
  5
1D51
330
1C44
100
AcDbEntity
  8
DEFPOINTS
 62
     0
100
AcDbPoint
 10
7725.294034851121
 20
-377.3752015896425
 30
0.0
  0
ENDBLK
  5
1C4F
330
1C44
100
AcDbEntity
  8
0
100
AcDbBlockEnd
  0
BLOCK
  5
1C66
330
1C5C
100
AcDbEntity
  8
0
100
AcDbBlockBegin
  2
*D44
 70
     1
 10
0.0
 20
0.0
 30
0.0
  3
*D44
  1

  0
LINE
  5
1D52
330
1C5C
100
AcDbEntity
  8
25
 62
     0
370
    -2
100
AcDbLine
 10
7243.931447782305
 20
411.4059493779272
 30
0.0
 11
7243.931447782305
 21
522.2077085077508
 31
0.0
  0
LINE
  5
1D53
330
1C5C
100
AcDbEntity
  8
25
 62
     0
370
    -2
100
AcDbLine
 10
8046.656621919943
 20
411.4059493779272
 30
0.0
 11
8046.656621919943
 21
522.2077085077508
 31
0.0
  0
LINE
  5
1D54
330
1C5C
100
AcDbEntity
  8
25
 62
     0
370
    -2
100
AcDbLine
 10
7268.931447782304
 20
497.2077085077508
 30
0.0
 11
8021.656621919943
 21
497.2077085077508
 31
0.0
  0
SOLID
  5
1D55
330
1C5C
100
AcDbEntity
  8
25
 62
     0
100
AcDbTrace
 10
7268.931447782304
 20
501.3743751744175
 30
0.0
 11
7268.931447782304
 21
493.0410418410841
 31
0.0
 12
7243.931447782305
 22
497.2077085077508
 32
0.0
 13
7243.931447782305
 23
497.2077085077508
 33
0.0
  0
SOLID
  5
1D56
330
1C5C
100
AcDbEntity
  8
25
 62
     0
100
AcDbTrace
 10
8021.656621919943
 20
501.3743751744175
 30
0.0
 11
8021.656621919943
 21
493.0410418410841
 31
0.0
 12
8046.656621919943
 22
497.2077085077508
 32
0.0
 13
8046.656621919943
 23
497.2077085077508
 33
0.0
  0
MTEXT
  5
1D57
330
1C5C
100
AcDbEntity
  8
25
 62
     0
100
AcDbMText
 10
7645.294034851123
 20
517.4720332007931
 30
0.0
 40
25.0
 41
0.0
 71
     5
 72
     1
  1
\A1;800
  7
VOEST
 73
     1
 44
1.0
1001
ACAD
1000
MTEXTBEGIN
1070
    73
1070
     1
1070
    44
1040
1.0
1070
    74
1070
     0
1000
MTEXTEND
  0
POINT
  5
1D58
330
1C5C
100
AcDbEntity
  8
DEFPOINTS
 62
     0
100
AcDbPoint
 10
7243.931447782305
 20
361.4059493779273
 30
0.0
  0
POINT
  5
1D59
330
1C5C
100
AcDbEntity
  8
DEFPOINTS
 62
     0
100
AcDbPoint
 10
8046.656621919943
 20
361.4059493779273
 30
0.0
  0
POINT
  5
1D5A
330
1C5C
100
AcDbEntity
  8
DEFPOINTS
 62
     0
100
AcDbPoint
 10
8046.656621919943
 20
497.2077085077508
 30
0.0
  0
ENDBLK
  5
1C67
330
1C5C
100
AcDbEntity
  8
0
100
AcDbBlockEnd
  0
BLOCK
  5
1D7E
330
1D7A
100
AcDbEntity
  8
0
100
AcDbBlockBegin
  2
VOESTALPINE LOGO
 70
     0
 10
0.0
 20
0.0
 30
0.0
  3
VOESTALPINE LOGO
  1

  0
TEXT
  5
1D7B
330
1D7A
100
AcDbEntity
  8
0
 62
   155
100
AcDbText
 10
-2.022376810040597
 20
1.345163130846486
 30
0.0
 40
4.761899999999999
  1
alpine
 41
1.29
  7
LOGO2
100
AcDbText
  0
TEXT
  5
1D7C
330
1D7A
100
AcDbEntity
  8
0
 62
     7
100
AcDbText
 10
-24.96332103124969
 20
-3.319987708589252
 30
0.0
 40
2.050802049214244
  1
KREMS FINALTECHNIK GMBH
 41
1.219999999999999
  7
LOGO3
100
AcDbText
  0
TEXT
  5
1D7D
330
1D7A
100
AcDbEntity
  8
0
 62
     7
100
AcDbText
 10
-25.59751279130563
 20
1.29203428188444
 30
0.0
 40
4.761899999999999
  1
voest
 41
1.379999999999999
  7
LOGO1
100
AcDbText
  0
ENDBLK
  5
1D7F
330
1D7A
100
AcDbEntity
  8
0
100
AcDbBlockEnd
  0
BLOCK
  5
1D82
330
1D80
100
AcDbEntity
  8
0
100
AcDbBlockBegin
  2
LOGO ACAD
 70
     0
 10
0.0
 20
0.0
 30
0.0
  3
LOGO ACAD
  1

  0
INSERT
  5
1D81
330
1D80
100
AcDbEntity
  8
0
100
AcDbBlockReference
  2
VOESTALPINE LOGO
 10
25.66052293085149
 20
-5.598002378525222
 30
0.0
  0
ENDBLK
  5
1D83
330
1D80
100
AcDbEntity
  8
0
100
AcDbBlockEnd
  0
ENDSEC
  0
SECTION
  2
ENTITIES
  0
MTEXT
  5
10E0
330
18
100
AcDbEntity
  8
KOTIERUNG
100
AcDbMText
 10
7495.698312492914
 20
470.9395909145314
 30
0.0
 40
25.0
 41
0.0
 71
     4
 72
     1
  1
\A1;
  7
VOEST
 73
     1
 44
1.0
1001
ACAD
1000
MTEXTBEGIN
1070
    73
1070
     1
1070
    44
1040
1.0
1070
    74
1070
     0
1000
MTEXTEND
  0
TEXT
  5
1609
330
18
100
AcDbEntity
  8
TEXT
100
AcDbText
 10
6970.022479535725
 20
780.1906914907785
 30
0.0
 40
100.0
  1
KREMSBARRIER 1 MH3
  7
VOESTB
100
AcDbText
  0
TEXT
  5
160A
330
18
100
AcDbEntity
  8
TEXT
100
AcDbText
 10
7157.928790471434
 20
658.875395752214
 30
0.0
 40
75.0
  1
Steherabstand 1,27m
  7
VOESTB
100
AcDbText
  0
SPLINE
  5
1AEC
330
18
100
AcDbEntity
  8
25
100
AcDbSpline
210
0.0
220
0.0
230
1.0
 70
     8
 71
     3
 72
    16
 73
    12
 74
     0
 42
0.0000000001
 43
0.0000000001
 40
1.559652536038169
 40
1.559652536038169
 40
1.559652536038169
 40
1.559652536038169
 40
23.52150744484585
 40
43.10059069071072
 40
66.01563411064801
 40
82.58565496657778
 40
92.52691447591477
 40
112.1764228865928
 40
134.7423338256378
 40
147.2216485949422
 40
167.8233202889649
 40
167.8233202889649
 40
167.8233202889649
 40
167.8233202889649
 10
7565.294034851122
 20
-1292.71897620642
 30
0.0
 10
7572.665155262477
 20
-1293.323714976489
 30
0.0
 10
7586.588481523178
 20
-1294.173247531956
 30
0.0
 10
7607.34340990125
 20
-1282.463609545776
 30
0.0
 10
7626.345363003849
 20
-1299.307212614772
 30
0.0
 10
7642.700036977652
 20
-1282.470260886939
 30
0.0
 10
7654.592290270681
 20
-1298.25273848578
 30
0.0
 10
7672.965117940806
 20
-1282.674961443275
 30
0.0
 10
7690.869716212785
 20
-1299.664848836187
 30
0.0
 10
7706.866649410736
 20
-1285.675874783554
 30
0.0
 10
7718.175087413847
 20
-1287.204505266774
 30
0.0
 10
7725.294034851121
 20
-1288.574949928051
 30
0.0
  0
DIMENSION
  5
1AED
330
18
100
AcDbEntity
  8
25
100
AcDbDimension
  2
*D37
 10
7099.737220695239
 20
413.0567739102703
 30
0.0
 11
7079.472896002197
 21
-211.9432260897283
 31
0.0
 70
    32
 71
     5
 42
1250.0
  3
TYPENBLATT_M10
100
AcDbAlignedDimension
 13
7145.939298412399
 23
-836.9432260897292
 33
0.0
 14
7318.931447782304
 24
413.0567739102702
 34
0.0
 50
90.0
100
AcDbRotatedDimension
  0
ARC
  5
1AEE
330
18
100
AcDbEntity
  8
70
100
AcDbCircle
 10
7988.456621919943
 20
-211.6207039627275
 30
0.0
 40
14.0
100
AcDbArc
 50
180.0
 51
240.6274267980539
  0
LINE
  5
1AF0
330
18
100
AcDbEntity
  8
70
100
AcDbLine
 10
8038.096797771853
 20
-255.6254100399815
 30
0.0
 11
7981.589808710016
 21
-223.820985776686
 31
0.0
  0
ARC
  5
1AF1
330
18
100
AcDbEntity
  8
70
100
AcDbCircle
 10
7302.131447782305
 20
-211.6207039627275
 30
0.0
 40
14.0
100
AcDbArc
 50
299.3725732019461
 51
0.0
  0
LINE
  5
1AF3
330
18
100
AcDbEntity
  8
70
100
AcDbLine
 10
7252.491271930395
 20
-255.6254100399815
 30
0.0
 11
7308.998260992232
 21
-223.820985776686
 31
0.0
  0
LINE
  5
1AF4
330
18
100
AcDbEntity
  8
25
100
AcDbLine
 10
7725.294034851121
 20
-70.79322608972915
 30
0.0
 11
7725.294034851124
 21
-1288.574949928052
 31
0.0
  0
LINE
  5
1AF5
330
18
100
AcDbEntity
  8
25
100
AcDbLine
 10
7565.294034851122
 20
-70.79322608972893
 30
0.0
 11
7565.294034851124
 21
-1292.718976206423
 31
0.0
  0
LINE
  5
1AF6
330
18
100
AcDbEntity
  8
18
 48
0.5
100
AcDbLine
 10
7645.294034851123
 20
359.8390928623994
 30
0.0
 11
7645.232473070705
 21
-309.4098522096174
 31
0.0
  0
LINE
  5
1AF8
330
18
100
AcDbEntity
  8
18
 48
0.02
100
AcDbLine
 10
7703.294034851125
 20
293.0567739102703
 30
0.0
 11
7703.294034851125
 21
-1289.861898973418
 31
0.0
  0
LINE
  5
1AF9
330
18
100
AcDbEntity
  8
18
 48
0.02
100
AcDbLine
 10
7591.294034851124
 20
293.0567739102703
 30
0.0
 11
7591.294034851124
 21
-1290.609787085559
 31
0.0
  0
ARC
  5
1AFB
330
18
100
AcDbEntity
  8
25
 48
0.2
100
AcDbCircle
 10
7966.444034851123
 20
-221.9432260897292
 30
0.0
 40
6.0
100
AcDbArc
 50
90.0
 51
270.0
  0
ARC
  5
1AFC
330
18
100
AcDbEntity
  8
25
 48
0.2
100
AcDbCircle
 10
7966.444034851123
 20
-221.9432260897292
 30
0.0
 40
6.0
100
AcDbArc
 50
90.0
 51
270.0
  0
LINE
  5
1AFD
330
18
100
AcDbEntity
  8
25
 48
0.2
100
AcDbLine
 10
7869.694999143804
 20
-65.85758323109826
 30
0.0
 11
7907.794034851123
 21
-272.9432260897293
 31
0.0
  0
LINE
  5
1AFE
330
18
100
AcDbEntity
  8
25
 48
0.2
100
AcDbLine
 10
7420.893070558442
 20
-65.85758323109826
 30
0.0
 11
7382.794034851123
 21
-272.9432260897293
 31
0.0
  0
ARC
  5
1AFF
330
18
100
AcDbEntity
  8
25
 48
0.2
100
AcDbCircle
 10
7324.144034851125
 20
-221.9432260897292
 30
0.0
 40
6.0
100
AcDbArc
 50
270.0
 51
90.0
  0
ARC
  5
1B00
330
18
100
AcDbEntity
  8
25
 48
0.2
100
AcDbCircle
 10
7324.144034851125
 20
-221.9432260897292
 30
0.0
 40
6.0
100
AcDbArc
 50
270.0
 51
90.0
  0
DIMENSION
  5
1B01
330
18
100
AcDbEntity
  8
KOTIERUNG
100
AcDbDimension
  2
*D38
 10
7179.368749674399
 20
-836.9432260897292
 30
0.0
 11
7179.368749674399
 21
-358.9210406864331
 31
0.0
 70
   160
 71
     5
 42
819.9999999999995
  3
TYPENBLATT_M10
100
AcDbAlignedDimension
 13
7318.931447782304
 23
-16.9432260897297
 33
0.0
 14
7280.667450086037
 24
-836.9432260897292
 34
0.0
 50
90.0
100
AcDbRotatedDimension
  0
LINE
  5
1B02
330
18
100
AcDbEntity
  8
18
 48
0.5
100
AcDbLine
 10
7645.294034851123
 20
-381.8752015896428
 30
0.0
 11
7645.294034851123
 21
-1287.767910586659
 31
0.0
  0
LINE
  5
1B03
330
18
100
AcDbEntity
  8
LS
100
AcDbLine
 10
7715.294034851123
 20
-1489.594166986099
 30
0.0
 11
7575.294034851125
 21
-1489.594166986099
 31
0.0
  0
ARC
  5
1B05
330
18
100
AcDbEntity
  8
LS
100
AcDbCircle
 10
7575.294034851125
 20
-1419.594166986098
 30
0.0
 40
10.0
100
AcDbArc
 50
90.0
 51
180.0
  0
ARC
  5
1B06
330
18
100
AcDbEntity
  8
LS
100
AcDbCircle
 10
7575.294034851125
 20
-1479.594166986098
 30
0.0
 40
10.0
100
AcDbArc
 50
180.0
 51
270.0
  0
LINE
  5
1B0A
330
18
100
AcDbEntity
  8
LS
100
AcDbLine
 10
7575.294034851125
 20
-1409.594166986098
 30
0.0
 11
7590.294034851123
 21
-1409.594166986098
 31
0.0
  0
LINE
  5
1B0C
330
18
100
AcDbEntity
  8
LS
100
AcDbLine
 10
7565.294034851124
 20
-1479.594166986098
 30
0.0
 11
7565.294034851124
 21
-1419.594166986098
 31
0.0
  0
ARC
  5
1B0E
330
18
100
AcDbEntity
  8
LS
100
AcDbCircle
 10
7715.294034851123
 20
-1419.594166986098
 30
0.0
 40
10.0
100
AcDbArc
 50
0.0
 51
90.0
  0
ARC
  5
1B0F
330
18
100
AcDbEntity
  8
LS
100
AcDbCircle
 10
7715.294034851123
 20
-1479.594166986098
 30
0.0
 40
10.0
100
AcDbArc
 50
270.0
 51
0.0
  0
LINE
  5
1B12
330
18
100
AcDbEntity
  8
LS
100
AcDbLine
 10
7715.294034851123
 20
-1409.594166986098
 30
0.0
 11
7700.294034851125
 21
-1409.594166986098
 31
0.0
  0
LINE
  5
1B15
330
18
100
AcDbEntity
  8
LS
100
AcDbLine
 10
7725.294034851124
 20
-1419.594166986098
 30
0.0
 11
7725.294034851124
 21
-1479.594166986098
 31
0.0
  0
DIMENSION
  5
1B17
330
18
100
AcDbEntity
  8
25
100
AcDbDimension
  2
*D39
 10
7409.862755642077
 20
-645.6155792746215
 30
0.0
 11
7409.862755642077
 21
-737.7124414847159
 31
0.0
 70
   160
 71
     5
 42
156.0
  3
TYPENBLATT_M10
100
AcDbAlignedDimension
 13
7556.294034851122
 23
-489.6155792746216
 33
0.0
 14
7556.294034851122
 24
-645.6155792746216
 34
0.0
 50
90.0
100
AcDbRotatedDimension
  0
LINE
  5
1B1A
330
18
100
AcDbEntity
  8
70
100
AcDbLine
 10
7505.294034851123
 20
-612.366867968658
 30
0.0
 11
7505.294034851123
 21
-522.8642905805855
 31
0.0
  0
DIMENSION
  5
1B1C
330
18
100
AcDbEntity
  8
25
100
AcDbDimension
  2
*D40
 10
7260.667450086038
 20
-836.9432260897291
 30
0.0
 11
7260.667450086038
 21
-678.9010657812541
 31
0.0
 70
   160
 71
     5
 42
270.0
  3
TYPENBLATT_M10
100
AcDbAlignedDimension
 13
7505.294034851123
 23
-566.9432260897292
 33
0.0
 14
7445.294034851123
 24
-836.9432260897292
 34
0.0
 50
90.0
100
AcDbRotatedDimension
  0
LINE
  5
1B1D
330
18
100
AcDbEntity
  8
50
100
AcDbLine
 10
7838.15673543357
 20
-836.9432260897296
 30
0.0
 11
7075.502917884822
 21
-836.9432260897296
 31
0.0
  0
HATCH
  5
1B1E
330
18
100
AcDbEntity
  8
18
100
AcDbHatch
 10
0.0
 20
0.0
 30
0.0
210
0.0
220
0.0
230
1.0
  2
ANSI31
 70
     0
 71
     0
 91
        1
 92
        7
 72
     0
 73
     1
 93
        4
 10
7838.156735433573
 20
-836.9432260897298
 10
7075.476686086004
 20
-836.9432260897296
 10
7075.476686086005
 20
-874.5756187906813
 10
7838.15673543357
 20
-874.5756187906815
 97
        0
 75
     0
 76
     1
 52
0.0
 41
100.0
 77
     0
 78
     1
 53
45.0
 43
-110.1643158337811
 44
-301.5745673623646
 45
-8.838834764831842
 46
8.838834764831844
 79
     0
 47
0.9188338305433763
 98
        1
 10
7493.068534934415
 20
-847.7076773146041
  0
ARC
  5
1B20
330
18
100
AcDbEntity
  8
70
100
AcDbCircle
 10
7514.294034851122
 20
-612.366867968658
 30
0.0
 40
9.0
100
AcDbArc
 50
180.0
 51
240.0000000000027
  0
ARC
  5
1B22
330
18
100
AcDbEntity
  8
70
100
AcDbCircle
 10
7556.294034851122
 20
-636.6155792746217
 30
0.0
 40
9.0
100
AcDbArc
 50
240.0000000000027
 51
0.0
  0
LINE
  5
1B24
330
18
100
AcDbEntity
  8
70
100
AcDbLine
 10
7551.794034851122
 20
-644.4098079086816
 30
0.0
 11
7509.794034851122
 21
-620.1610966027178
 31
0.0
  0
LINE
  5
1B27
330
18
100
AcDbEntity
  8
70
100
AcDbLine
 10
7565.294034851122
 20
-598.6155792746217
 30
0.0
 11
7565.294034851122
 21
-636.6155792746217
 31
0.0
  0
LINE
  5
1B31
330
18
100
AcDbEntity
  8
25
 48
0.2
100
AcDbLine
 10
7382.794034851123
 20
-272.9432260897293
 30
0.0
 11
7276.294034851123
 21
-272.9432260897293
 31
0.0
  0
LINE
  5
1B33
330
18
100
AcDbEntity
  8
70
100
AcDbLine
 10
7252.555925369397
 20
-313.9689417926061
 30
0.0
 11
7318.931447782304
 21
-350.9432260897292
 31
0.0
  0
ARC
  5
1B36
330
18
100
AcDbEntity
  8
70
100
AcDbCircle
 10
7260.731447782305
 20
-270.2657482167315
 30
0.0
 40
16.8
100
AcDbArc
 50
119.372573201946
 51
180.0
  0
ARC
  5
1B37
330
18
100
AcDbEntity
  8
70
100
AcDbCircle
 10
7260.731447782304
 20
-299.2924015573862
 30
0.0
 40
16.8
100
AcDbArc
 50
180.0
 51
240.880138777024
  0
LINE
  5
1B3A
330
18
100
AcDbEntity
  8
70
100
AcDbLine
 10
7243.931447782305
 20
-270.2657482167315
 30
0.0
 11
7243.931447782305
 21
-299.2924015573862
 31
0.0
  0
ARC
  5
1B3C
330
18
100
AcDbEntity
  8
25
 48
0.2
100
AcDbCircle
 10
7276.294034851123
 20
-260.4432260897293
 30
0.0
 40
12.5
100
AcDbArc
 50
119.9999999999973
 51
270.0
  0
LINE
  5
1B3D
330
18
100
AcDbEntity
  8
25
 48
0.2
100
AcDbLine
 10
7324.144034851125
 20
-227.9432260897293
 30
0.0
 11
7307.585686097112
 21
-227.9432260897295
 31
0.0
  0
LINE
  5
1B3E
330
18
100
AcDbEntity
  8
25
 48
0.2
100
AcDbLine
 10
7270.044034851124
 20
-249.6179085424237
 30
0.0
 11
7307.585686097112
 21
-227.9432260897295
 31
0.0
  0
DIMENSION
  5
1B3F
330
18
100
AcDbEntity
  8
KOTIERUNG
100
AcDbDimension
  2
*D41
 10
7565.294034851122
 20
-377.3752015896425
 30
0.0
 11
7535.294034851123
 21
-377.3752015896425
 31
0.0
 70
   160
 71
     5
 42
60.0
  3
TYPENBLATT_M10
100
AcDbAlignedDimension
 13
7505.294034851123
 23
-522.8642905805858
 33
0.0
 14
7565.294034851122
 24
-498.6155792746216
 34
0.0
100
AcDbRotatedDimension
  0
DIMENSION
  5
1B40
330
18
100
AcDbEntity
  8
25
100
AcDbDimension
  2
*D42
 10
7725.294034851121
 20
-377.3752015896425
 30
0.0
 11
7645.294034851122
 21
-357.1108768966003
 31
0.0
 70
    32
 71
     5
 42
160.0
  3
TYPENBLATT_M10
100
AcDbAlignedDimension
 13
7565.294034851122
 23
-423.2344848927859
 33
0.0
 14
7725.294034851121
 24
-423.2344848927859
 34
0.0
100
AcDbRotatedDimension
  0
ARC
  5
1B41
330
18
100
AcDbEntity
  8
70
100
AcDbCircle
 10
7556.294034851122
 20
-498.6155792746217
 30
0.0
 40
9.0
100
AcDbArc
 50
0.0
 51
119.9999999999973
  0
LINE
  5
1B43
330
18
100
AcDbEntity
  8
70
100
AcDbLine
 10
7551.794034851122
 20
-490.8213506405614
 30
0.0
 11
7509.794034851122
 21
-515.0700619465255
 31
0.0
  0
ARC
  5
1B46
330
18
100
AcDbEntity
  8
70
100
AcDbCircle
 10
7514.294034851122
 20
-522.8642905805859
 30
0.0
 40
9.0
100
AcDbArc
 50
119.9999999999973
 51
180.0
  0
LINE
  5
1B4A
330
18
100
AcDbEntity
  8
70
100
AcDbLine
 10
7565.294034851122
 20
-498.6155792746217
 30
0.0
 11
7565.294034851122
 21
-536.6155792746217
 31
0.0
  0
LINE
  5
1B57
330
18
100
AcDbEntity
  8
70
100
AcDbLine
 10
8038.03214433285
 20
-313.9689417926061
 30
0.0
 11
7971.656621919944
 21
-350.9432260897292
 31
0.0
  0
LINE
  5
1B5A
330
18
100
AcDbEntity
  8
25
 48
0.2
100
AcDbLine
 10
7907.794034851123
 20
-272.9432260897293
 30
0.0
 11
8014.294034851124
 21
-272.9432260897293
 31
0.0
  0
ARC
  5
1B5C
330
18
100
AcDbEntity
  8
70
100
AcDbCircle
 10
8029.856621919941
 20
-270.2657482167315
 30
0.0
 40
16.8
100
AcDbArc
 50
0.0
 51
60.62742679805394
  0
ARC
  5
1B5D
330
18
100
AcDbEntity
  8
70
100
AcDbCircle
 10
8029.856621919945
 20
-299.2924015573862
 30
0.0
 40
16.8
100
AcDbArc
 50
299.119861222976
 51
0.0
  0
LINE
  5
1B60
330
18
100
AcDbEntity
  8
70
100
AcDbLine
 10
8046.656621919943
 20
-270.2657482167315
 30
0.0
 11
8046.656621919943
 21
-299.2924015573862
 31
0.0
  0
LINE
  5
1B62
330
18
100
AcDbEntity
  8
25
 48
0.2
100
AcDbLine
 10
8020.544034851125
 20
-249.6179085424237
 30
0.0
 11
7983.002383605136
 21
-227.9432260897295
 31
0.0
  0
LINE
  5
1B63
330
18
100
AcDbEntity
  8
25
 48
0.2
100
AcDbLine
 10
7966.444034851123
 20
-227.9432260897293
 30
0.0
 11
7983.002383605136
 21
-227.9432260897295
 31
0.0
  0
ARC
  5
1B64
330
18
100
AcDbEntity
  8
25
 48
0.2
100
AcDbCircle
 10
8014.294034851124
 20
-260.4432260897293
 30
0.0
 40
12.5
100
AcDbArc
 50
270.0
 51
60.00000000000272
  0
DIMENSION
  5
1B66
330
18
100
AcDbEntity
  8
25
100
AcDbDimension
  2
*D44
 10
8046.656621919943
 20
497.2077085077508
 30
0.0
 11
7645.294034851123
 21
517.4720332007931
 31
0.0
 70
    32
  1
800
 71
     5
 42
802.7251741376385
  3
TYPENBLATT_M10
100
AcDbAlignedDimension
 13
7243.931447782305
 23
361.4059493779273
 33
0.0
 14
8046.656621919943
 24
361.4059493779273
 34
0.0
100
AcDbRotatedDimension
  0
LINE
  5
1B67
330
18
100
AcDbEntity
  8
25
 48
0.2
100
AcDbLine
 10
7255.294034851124
 20
335.0567739102708
 30
0.0
 11
8035.294034851125
 21
335.0567739102708
 31
0.0
  0
LINE
  5
1B68
330
18
100
AcDbEntity
  8
25
 48
0.2
100
AcDbLine
 10
7432.794034851124
 20
-70.79322608972893
 30
0.0
 11
7857.794034851123
 21
-70.79322608972915
 31
0.0
  0
LINE
  5
1B6A
330
18
100
AcDbEntity
  8
70
100
AcDbLine
 10
7243.931447782305
 20
159.7342517832683
 30
0.0
 11
7243.931447782305
 21
130.7075984426135
 31
0.0
  0
LINE
  5
1B6B
330
18
100
AcDbEntity
  8
18
  6
STRICHLINIE
 48
0.3
100
AcDbLine
 10
7725.294034851121
 20
-70.79322608972915
 30
0.0
 11
7725.294034851124
 21
150.9941961927461
 31
0.0
  0
LINE
  5
1B6C
330
18
100
AcDbEntity
  8
18
  6
STRICHLINIE
 48
0.3
100
AcDbLine
 10
7565.294034851122
 20
-70.79322608972893
 30
0.0
 11
7565.294034851124
 21
150.9941961927461
 31
0.0
  0
LINE
  5
1B6D
330
18
100
AcDbEntity
  8
25
 48
0.2
100
AcDbLine
 10
7320.294034851123
 20
326.0567739102707
 30
0.0
 11
7320.294034851123
 21
-215.9432260897292
 31
0.0
  0
LINE
  5
1B6F
330
18
100
AcDbEntity
  8
70
100
AcDbLine
 10
7252.555925369397
 20
-53.91751038685288
 30
0.0
 11
7318.931447782304
 21
-16.94322608972993
 31
0.0
  0
LINE
  5
1B71
330
18
100
AcDbEntity
  8
70
100
AcDbLine
 10
7252.491271930395
 20
-112.2610421394779
 30
0.0
 11
7308.99826099223
 21
-144.0654664027729
 31
0.0
  0
ARC
  5
1B73
330
18
100
AcDbEntity
  8
70
100
AcDbCircle
 10
7302.131447782305
 20
-156.265748216731
 30
0.0
 40
14.0
100
AcDbArc
 50
0.0
 51
60.62742679805394
  0
LINE
  5
1B75
330
18
100
AcDbEntity
  8
70
100
AcDbLine
 10
7316.131447782305
 20
-183.9432260897297
 30
0.0
 11
7316.131447782305
 21
-211.6207039627279
 31
0.0
  0
LINE
  5
1B77
330
18
100
AcDbEntity
  8
70
100
AcDbLine
 10
7316.131447782305
 20
-183.9432260897297
 30
0.0
 11
7316.131447782305
 21
-156.2657482167315
 31
0.0
  0
LINE
  5
1B79
330
18
100
AcDbEntity
  8
25
 48
0.2
100
AcDbLine
 10
7320.294034851123
 20
-215.9432260897292
 30
0.0
 11
7324.144034851125
 21
-215.9432260897292
 31
0.0
  0
ARC
  5
1B7A
330
18
100
AcDbEntity
  8
70
100
AcDbCircle
 10
7260.731447782304
 20
-68.5940506220727
 30
0.0
 40
16.8
100
AcDbArc
 50
119.1198612229759
 51
180.0
  0
LINE
  5
1B7D
330
18
100
AcDbEntity
  8
70
100
AcDbLine
 10
7243.931447782305
 20
-97.62070396272793
 30
0.0
 11
7243.931447782306
 21
-68.59405062207315
 31
0.0
  0
ARC
  5
1B7F
330
18
100
AcDbEntity
  8
70
100
AcDbCircle
 10
7260.731447782305
 20
-97.62070396272793
 30
0.0
 40
16.8
100
AcDbArc
 50
180.0
 51
240.6274267980539
  0
LINE
  5
1B81
330
18
100
AcDbEntity
  8
70
100
AcDbLine
 10
7252.555925369397
 20
116.0310582073937
 30
0.0
 11
7318.931447782304
 21
79.05677391027052
 31
0.0
  0
ARC
  5
1B84
330
18
100
AcDbEntity
  8
70
100
AcDbCircle
 10
7260.731447782304
 20
130.7075984426135
 30
0.0
 40
16.8
100
AcDbArc
 50
180.0
 51
240.880138777024
  0
ARC
  5
1B88
330
18
100
AcDbEntity
  8
25
 48
0.2
100
AcDbCircle
 10
7426.794034851124
 20
-66.94322608972925
 30
0.0
 40
6.0
100
AcDbArc
 50
0.0
 51
169.5754553183487
  0
LINE
  5
1B89
330
18
100
AcDbEntity
  8
25
 48
0.2
100
AcDbLine
 10
7432.794034851124
 20
-70.79322608972915
 30
0.0
 11
7432.794034851124
 21
-66.94322608972925
 31
0.0
  0
CIRCLE
  5
1B8D
330
18
100
AcDbEntity
  8
25
 48
0.2
100
AcDbCircle
 10
7645.294034851123
 20
-26.94322608972925
 30
0.0
 40
6.0
  0
ARC
  5
1B91
330
18
100
AcDbEntity
  8
70
100
AcDbCircle
 10
7260.731447782305
 20
332.3792960372721
 30
0.0
 40
16.8
100
AcDbArc
 50
180.0
 51
240.6274267980539
  0
LINE
  5
1B92
330
18
100
AcDbEntity
  8
70
100
AcDbLine
 10
7316.131447782305
 20
246.0567739102703
 30
0.0
 11
7316.131447782305
 21
218.3792960372721
 31
0.0
  0
ARC
  5
1B94
330
18
100
AcDbEntity
  8
70
100
AcDbCircle
 10
7302.131447782305
 20
218.3792960372725
 30
0.0
 40
14.0
100
AcDbArc
 50
299.3725732019461
 51
0.0
  0
LINE
  5
1B97
330
18
100
AcDbEntity
  8
70
100
AcDbLine
 10
7252.491271930395
 20
174.3745899600183
 30
0.0
 11
7308.998260992232
 21
206.179014223314
 31
0.0
  0
ARC
  5
1B99
330
18
100
AcDbEntity
  8
70
100
AcDbCircle
 10
7260.731447782305
 20
159.7342517832685
 30
0.0
 40
16.8
100
AcDbArc
 50
119.372573201946
 51
180.0
  0
LINE
  5
1B9A
330
18
100
AcDbEntity
  8
70
100
AcDbLine
 10
7316.131447782305
 20
246.0567739102703
 30
0.0
 11
7316.131447782305
 21
273.7342517832685
 31
0.0
  0
ARC
  5
1B9C
330
18
100
AcDbEntity
  8
70
100
AcDbCircle
 10
7302.131447782305
 20
273.734251783269
 30
0.0
 40
14.0
100
AcDbArc
 50
0.0
 51
60.62742679805394
  0
LINE
  5
1B9F
330
18
100
AcDbEntity
  8
70
100
AcDbLine
 10
7252.491271930395
 20
317.7389578605221
 30
0.0
 11
7308.99826099223
 21
285.9345335972271
 31
0.0
  0
LINE
  5
1BA1
330
18
100
AcDbEntity
  8
70
100
AcDbLine
 10
7252.555925369397
 20
376.0824896131471
 30
0.0
 11
7318.931447782304
 21
413.0567739102702
 31
0.0
  0
LINE
  5
1BA2
330
18
100
AcDbEntity
  8
25
 48
0.2
100
AcDbLine
 10
7320.294034851123
 20
326.0567739102707
 30
0.0
 11
7324.144034851125
 21
326.0567739102707
 31
0.0
  0
ARC
  5
1BA3
330
18
100
AcDbEntity
  8
70
100
AcDbCircle
 10
7260.731447782304
 20
361.4059493779273
 30
0.0
 40
16.8
100
AcDbArc
 50
119.1198612229759
 51
180.0
  0
LINE
  5
1BA6
330
18
100
AcDbEntity
  8
70
100
AcDbLine
 10
7243.931447782305
 20
332.3792960372721
 30
0.0
 11
7243.931447782306
 21
361.4059493779269
 31
0.0
  0
ARC
  5
1BAA
330
18
100
AcDbEntity
  8
25
 48
0.2
100
AcDbCircle
 10
7323.097929788836
 20
332.2406982058122
 30
0.0
 40
6.271782481426845
100
AcDbArc
 50
279.6015543227062
 51
26.68000694009682
  0
LINE
  5
1BAC
330
18
100
AcDbEntity
  8
18
  6
STRICHLINIE
 48
0.3
100
AcDbLine
 10
7565.294034851124
 20
293.0567739102703
 30
0.0
 11
7725.294034851124
 21
293.0567739102703
 31
0.0
  0
LINE
  5
1BAD
330
18
100
AcDbEntity
  8
18
  6
STRICHLINIE
 48
0.3
100
AcDbLine
 10
7565.294034851124
 20
227.314403275293
 30
0.0
 11
7565.294034851124
 21
293.0567739102703
 31
0.0
  0
LINE
  5
1BB0
330
18
100
AcDbEntity
  8
35
100
AcDbLine
 10
7565.294034851124
 20
227.314403275293
 30
0.0
 11
7565.294034851124
 21
150.994196192747
 31
0.0
  0
LINE
  5
1BB1
330
18
100
AcDbEntity
  8
35
 48
0.2
100
AcDbLine
 10
7492.795077377031
 20
223.0567739102708
 30
0.0
 11
7492.795077377031
 21
163.9845772495132
 31
0.0
  0
LINE
  5
1BB2
330
18
100
AcDbEntity
  8
35
 48
0.2
100
AcDbLine
 10
7557.794034851124
 20
148.9845772495132
 30
0.0
 11
7507.795077377032
 21
148.9845772495132
 31
0.0
  0
ARC
  5
1BB3
330
18
100
AcDbEntity
  8
35
 48
0.2
100
AcDbCircle
 10
7507.795077377032
 20
163.9845772495132
 30
0.0
 40
15.0
100
AcDbArc
 50
180.0
 51
270.0
  0
LINE
  5
1BB4
330
18
100
AcDbEntity
  8
35
 48
0.2
100
AcDbLine
 10
7572.794034851124
 20
223.0567739102708
 30
0.0
 11
7572.794034851124
 21
163.9845772495132
 31
0.0
  0
ARC
  5
1BB5
330
18
100
AcDbEntity
  8
35
 48
0.2
100
AcDbCircle
 10
7557.794034851124
 20
163.9845772495132
 30
0.0
 40
15.0
100
AcDbArc
 50
270.0
 51
0.0
  0
ARC
  5
1BB6
330
18
100
AcDbEntity
  8
35
 48
0.2
100
AcDbCircle
 10
7497.794556114077
 20
222.9845772495132
 30
0.0
 40
5.000000000000008
100
AcDbArc
 50
0.8273415423070851
 51
179.1726584576929
  0
ARC
  5
1BB7
330
18
100
AcDbEntity
  8
35
 48
0.2
100
AcDbCircle
 10
7567.794556114077
 20
222.9845772495132
 30
0.0
 40
5.000000000000008
100
AcDbArc
 50
0.8273415423070851
 51
179.1726584576929
  0
LINE
  5
1BB8
330
18
100
AcDbEntity
  8
35
 48
0.2
100
AcDbLine
 10
7562.794556114077
 20
219.1345772495133
 30
0.0
 11
7502.794556114077
 21
219.1345772495133
 31
0.0
  0
LINE
  5
1BB9
330
18
100
AcDbEntity
  8
35
 48
0.2
100
AcDbLine
 10
7502.794556114077
 20
222.9845772495132
 30
0.0
 11
7502.794556114077
 21
219.1345772495133
 31
0.0
  0
LINE
  5
1BBA
330
18
100
AcDbEntity
  8
35
 48
0.2
100
AcDbLine
 10
7562.794556114077
 20
222.9845772495132
 30
0.0
 11
7562.794556114077
 21
219.1345772495131
 31
0.0
  0
LINE
  5
1BBC
330
18
100
AcDbEntity
  8
18
  6
STRICHLINIE
 48
0.3
100
AcDbLine
 10
7725.294034851124
 20
227.3144032752921
 30
0.0
 11
7725.294034851124
 21
293.0567739102703
 31
0.0
  0
ARC
  5
1BBF
330
18
100
AcDbEntity
  8
35
 48
0.2
100
AcDbCircle
 10
7732.794034851123
 20
163.9845772495132
 30
0.0
 40
15.0
100
AcDbArc
 50
180.0
 51
270.0
  0
CIRCLE
  5
1BC0
330
18
100
AcDbEntity
  8
35
 48
0.2
100
AcDbCircle
 10
7645.294034851123
 20
223.0567739102708
 30
0.0
 40
6.0
  0
LINE
  5
1BC2
330
18
100
AcDbEntity
  8
35
100
AcDbLine
 10
7725.294034851124
 20
227.3144032752921
 30
0.0
 11
7725.294034851124
 21
150.994196192747
 31
0.0
  0
LINE
  5
1BC3
330
18
100
AcDbEntity
  8
35
 48
0.2
100
AcDbLine
 10
7727.793513588169
 20
222.9845772495132
 30
0.0
 11
7727.793513588169
 21
219.1345772495131
 31
0.0
  0
LINE
  5
1BC4
330
18
100
AcDbEntity
  8
35
 48
0.2
100
AcDbLine
 10
7787.793513588169
 20
222.9845772495132
 30
0.0
 11
7787.793513588169
 21
219.1345772495133
 31
0.0
  0
LINE
  5
1BC5
330
18
100
AcDbEntity
  8
35
 48
0.2
100
AcDbLine
 10
7727.793513588169
 20
219.1345772495133
 30
0.0
 11
7787.793513588169
 21
219.1345772495133
 31
0.0
  0
ARC
  5
1BC6
330
18
100
AcDbEntity
  8
35
 48
0.2
100
AcDbCircle
 10
7722.793513588169
 20
222.9845772495132
 30
0.0
 40
5.000000000000008
100
AcDbArc
 50
0.8273415423070851
 51
179.1726584576929
  0
ARC
  5
1BC7
330
18
100
AcDbEntity
  8
35
 48
0.2
100
AcDbCircle
 10
7792.793513588169
 20
222.9845772495132
 30
0.0
 40
5.000000000000008
100
AcDbArc
 50
0.8273415423070851
 51
179.1726584576929
  0
LINE
  5
1BC8
330
18
100
AcDbEntity
  8
35
 48
0.2
100
AcDbLine
 10
7717.794034851124
 20
223.0567739102708
 30
0.0
 11
7717.794034851124
 21
163.9845772495132
 31
0.0
  0
ARC
  5
1BC9
330
18
100
AcDbEntity
  8
35
 48
0.2
100
AcDbCircle
 10
7782.792992325216
 20
163.9845772495132
 30
0.0
 40
15.0
100
AcDbArc
 50
270.0
 51
0.0
  0
LINE
  5
1BCA
330
18
100
AcDbEntity
  8
35
 48
0.2
100
AcDbLine
 10
7732.794034851123
 20
148.9845772495132
 30
0.0
 11
7782.792992325216
 21
148.9845772495132
 31
0.0
  0
LINE
  5
1BCB
330
18
100
AcDbEntity
  8
35
 48
0.2
100
AcDbLine
 10
7797.792992325216
 20
223.0567739102708
 30
0.0
 11
7797.792992325216
 21
163.9845772495132
 31
0.0
  0
LINE
  5
1BCE
330
18
100
AcDbEntity
  8
70
100
AcDbLine
 10
8046.656621919943
 20
159.7342517832683
 30
0.0
 11
8046.656621919943
 21
130.7075984426135
 31
0.0
  0
LINE
  5
1BCF
330
18
100
AcDbEntity
  8
25
 48
0.2
100
AcDbLine
 10
7970.294034851123
 20
326.0567739102707
 30
0.0
 11
7970.294034851123
 21
-215.9432260897292
 31
0.0
  0
LINE
  5
1BD1
330
18
100
AcDbEntity
  8
70
100
AcDbLine
 10
8038.03214433285
 20
-53.91751038685288
 30
0.0
 11
7971.656621919944
 21
-16.94322608972993
 31
0.0
  0
LINE
  5
1BD2
330
18
100
AcDbEntity
  8
70
100
AcDbLine
 10
8038.096797771853
 20
-112.2610421394779
 30
0.0
 11
7981.589808710018
 21
-144.0654664027729
 31
0.0
  0
ARC
  5
1BD5
330
18
100
AcDbEntity
  8
70
100
AcDbCircle
 10
7988.456621919943
 20
-156.265748216731
 30
0.0
 40
14.0
100
AcDbArc
 50
119.372573201946
 51
180.0
  0
LINE
  5
1BD7
330
18
100
AcDbEntity
  8
70
100
AcDbLine
 10
7974.456621919943
 20
-183.9432260897297
 30
0.0
 11
7974.456621919943
 21
-211.6207039627279
 31
0.0
  0
LINE
  5
1BD9
330
18
100
AcDbEntity
  8
70
100
AcDbLine
 10
7974.456621919943
 20
-183.9432260897297
 30
0.0
 11
7974.456621919943
 21
-156.2657482167315
 31
0.0
  0
LINE
  5
1BDB
330
18
100
AcDbEntity
  8
25
 48
0.2
100
AcDbLine
 10
7970.294034851123
 20
-215.9432260897292
 30
0.0
 11
7966.444034851123
 21
-215.9432260897292
 31
0.0
  0
LINE
  5
1BDC
330
18
100
AcDbEntity
  8
25
 48
0.2
100
AcDbLine
 10
7857.794034851123
 20
-70.79322608972915
 30
0.0
 11
7857.794034851123
 21
-66.94322608972925
 31
0.0
  0
ARC
  5
1BDD
330
18
100
AcDbEntity
  8
25
 48
0.2
100
AcDbCircle
 10
7863.794034851124
 20
-66.94322608972925
 30
0.0
 40
6.0
100
AcDbArc
 50
10.42454468165123
 51
180.0
  0
ARC
  5
1BDE
330
18
100
AcDbEntity
  8
70
100
AcDbCircle
 10
8029.856621919945
 20
-68.5940506220727
 30
0.0
 40
16.8
100
AcDbArc
 50
0.0
 51
60.88013877702403
  0
LINE
  5
1BE1
330
18
100
AcDbEntity
  8
70
100
AcDbLine
 10
8046.656621919943
 20
-97.62070396272793
 30
0.0
 11
8046.656621919941
 21
-68.59405062207315
 31
0.0
  0
ARC
  5
1BE3
330
18
100
AcDbEntity
  8
70
100
AcDbCircle
 10
8029.856621919941
 20
-97.62070396272793
 30
0.0
 40
16.8
100
AcDbArc
 50
299.3725732019461
 51
0.0
  0
ARC
  5
1BE5
330
18
100
AcDbEntity
  8
70
100
AcDbCircle
 10
8029.856621919945
 20
130.7075984426135
 30
0.0
 40
16.8
100
AcDbArc
 50
299.119861222976
 51
0.0
  0
LINE
  5
1BE9
330
18
100
AcDbEntity
  8
70
100
AcDbLine
 10
8038.03214433285
 20
116.0310582073937
 30
0.0
 11
7971.656621919944
 21
79.05677391027052
 31
0.0
  0
ARC
  5
1BEB
330
18
100
AcDbEntity
  8
70
100
AcDbCircle
 10
8029.856621919941
 20
332.3792960372721
 30
0.0
 40
16.8
100
AcDbArc
 50
299.3725732019461
 51
0.0
  0
LINE
  5
1BEC
330
18
100
AcDbEntity
  8
70
100
AcDbLine
 10
7974.456621919943
 20
246.0567739102703
 30
0.0
 11
7974.456621919943
 21
218.3792960372721
 31
0.0
  0
ARC
  5
1BEE
330
18
100
AcDbEntity
  8
70
100
AcDbCircle
 10
7988.456621919943
 20
218.3792960372725
 30
0.0
 40
14.0
100
AcDbArc
 50
180.0
 51
240.6274267980539
  0
ARC
  5
1BF1
330
18
100
AcDbEntity
  8
70
100
AcDbCircle
 10
8029.856621919941
 20
159.7342517832685
 30
0.0
 40
16.8
100
AcDbArc
 50
0.0
 51
60.62742679805394
  0
LINE
  5
1BF3
330
18
100
AcDbEntity
  8
70
100
AcDbLine
 10
8038.096797771853
 20
174.3745899600183
 30
0.0
 11
7981.589808710016
 21
206.179014223314
 31
0.0
  0
ARC
  5
1BF5
330
18
100
AcDbEntity
  8
70
100
AcDbCircle
 10
7988.456621919943
 20
273.734251783269
 30
0.0
 40
14.0
100
AcDbArc
 50
119.372573201946
 51
180.0
  0
LINE
  5
1BF6
330
18
100
AcDbEntity
  8
70
100
AcDbLine
 10
8038.096797771853
 20
317.7389578605221
 30
0.0
 11
7981.589808710018
 21
285.9345335972271
 31
0.0
  0
LINE
  5
1BF8
330
18
100
AcDbEntity
  8
70
100
AcDbLine
 10
7974.456621919943
 20
246.0567739102703
 30
0.0
 11
7974.456621919943
 21
273.7342517832685
 31
0.0
  0
LINE
  5
1BFC
330
18
100
AcDbEntity
  8
70
100
AcDbLine
 10
8038.03214433285
 20
376.0824896131471
 30
0.0
 11
7971.656621919944
 21
413.0567739102702
 31
0.0
  0
ARC
  5
1BFE
330
18
100
AcDbEntity
  8
25
 48
0.2
100
AcDbCircle
 10
7967.49013991341
 20
332.2406982058117
 30
0.0
 40
6.271782481426137
100
AcDbArc
 50
153.3199930598948
 51
260.398445677293
  0
LINE
  5
1BFF
330
18
100
AcDbEntity
  8
25
 48
0.2
100
AcDbLine
 10
7966.444034851123
 20
326.0567739102707
 30
0.0
 11
7970.294034851123
 21
326.0567739102707
 31
0.0
  0
ARC
  5
1C00
330
18
100
AcDbEntity
  8
70
100
AcDbCircle
 10
8029.856621919945
 20
361.4059493779273
 30
0.0
 40
16.8
100
AcDbArc
 50
0.0
 51
60.88013877702403
  0
LINE
  5
1C02
330
18
100
AcDbEntity
  8
70
100
AcDbLine
 10
8046.656621919943
 20
332.3792960372721
 30
0.0
 11
8046.656621919941
 21
361.4059493779269
 31
0.0
  0
LINE
  5
1D6D
330
18
100
AcDbEntity
  8
70
100
AcDbLine
 10
7725.294034851126
 20
-498.6155792746217
 30
0.0
 11
7725.294034851126
 21
-536.6155792746217
 31
0.0
  0
LINE
  5
1D6E
330
18
100
AcDbEntity
  8
70
100
AcDbLine
 10
7785.294034851125
 20
-612.366867968658
 30
0.0
 11
7785.294034851125
 21
-522.8642905805855
 31
0.0
  0
LINE
  5
1D6F
330
18
100
AcDbEntity
  8
70
100
AcDbLine
 10
7725.294034851126
 20
-598.6155792746217
 30
0.0
 11
7725.294034851126
 21
-636.6155792746217
 31
0.0
  0
ARC
  5
1D70
330
18
100
AcDbEntity
  8
70
100
AcDbCircle
 10
7734.294034851126
 20
-636.6155792746217
 30
0.0
 40
9.0
100
AcDbArc
 50
180.0
 51
299.9999999999973
  0
LINE
  5
1D71
330
18
100
AcDbEntity
  8
70
100
AcDbLine
 10
7738.794034851126
 20
-644.4098079086816
 30
0.0
 11
7780.794034851125
 21
-620.1610966027178
 31
0.0
  0
ARC
  5
1D72
330
18
100
AcDbEntity
  8
70
100
AcDbCircle
 10
7776.294034851126
 20
-612.366867968658
 30
0.0
 40
9.0
100
AcDbArc
 50
299.9999999999973
 51
0.000000000000007
  0
ARC
  5
1D73
330
18
100
AcDbEntity
  8
70
100
AcDbCircle
 10
7734.294034851126
 20
-498.6155792746217
 30
0.0
 40
9.0
100
AcDbArc
 50
60.0000000000027
 51
180.0
  0
ARC
  5
1D74
330
18
100
AcDbEntity
  8
70
100
AcDbCircle
 10
7776.294034851126
 20
-522.8642905805859
 30
0.0
 40
9.0
100
AcDbArc
 50
0.000000000000007
 51
60.0000000000027
  0
LINE
  5
1D75
330
18
100
AcDbEntity
  8
70
100
AcDbLine
 10
7738.794034851126
 20
-490.8213506405614
 30
0.0
 11
7780.794034851125
 21
-515.0700619465255
 31
0.0
  0
VIEWPORT
  5
1DF
102
{ACAD_XDICTIONARY
360
1DA8
102
}
330
15
100
AcDbEntity
 67
     1
  8
0
100
AcDbViewport
 10
6.963657566561437
 20
4.161599124587294
 30
0.0
 40
28.41543778150511
 41
18.76313497254314
 68
     1
 69
     1
 12
6.963657566561437
 22
4.161599124587294
 13
0.0
 23
0.0
 14
0.5
 24
0.5
 15
0.5
 25
0.5
 16
0.0
 26
0.0
 36
1.0
 17
0.0
 27
0.0
 37
0.0
 42
50.0
 43
0.0
 44
0.0
 45
18.76313497254314
 50
0.0
 51
0.0
 72
   100
 90
    32800
  1

281
     0
 71
     1
 74
     0
110
0.0
120
0.0
130
0.0
111
1.0
121
0.0
131
0.0
112
0.0
122
1.0
132
0.0
 79
     0
146
0.0
  0
MTEXT
  5
13A5
330
15
100
AcDbEntity
 67
     1
  8
KOTIERUNG
100
AcDbMText
 10
334.574239722046
 20
33.70865160095127
 30
0.0
 40
2.5
 41
0.0
 71
     4
 72
     1
  1
\A1;
  7
VOEST
 73
     1
 44
1.0
1001
ACAD
1000
MTEXTBEGIN
1070
    73
1070
     1
1070
    44
1040
1.0
1070
    74
1070
     0
1000
MTEXTEND
  0
MTEXT
  5
1505
330
15
100
AcDbEntity
 67
     1
  8
TEXT
100
AcDbMText
 10
170.1309310268098
 20
188.4899274501241
 30
0.0
 40
125.0
 41
0.0
 71
     4
 72
     1
  1
\A1;
  7
VOEST
 73
     1
 44
1.0
1001
ACAD
1000
MTEXTBEGIN
1070
    73
1070
     1
1070
    44
1040
1.0
1070
    74
1070
     0
1000
MTEXTEND
  0
MTEXT
  5
1509
330
15
100
AcDbEntity
 67
     1
  8
TEXT
100
AcDbMText
 10
122.2170016261258
 20
214.8213238210264
 30
0.0
 40
2.5
 41
0.0
 71
     4
 72
     1
  1
\A1;
  7
VOEST
 73
     1
 44
1.0
1001
ACAD
1000
MTEXTBEGIN
1070
    73
1070
     1
1070
    44
1040
1.0
1070
    74
1070
     0
1000
MTEXTEND
  0
MTEXT
  5
150D
330
15
100
AcDbEntity
 67
     1
  8
TEXT
100
AcDbMText
 10
122.2170016261258
 20
214.9995195096872
 30
0.0
 40
2.5
 41
0.0
 71
     4
 72
     1
  1
\A1;
  7
VOEST
 73
     1
 44
1.0
1001
ACAD
1000
MTEXTBEGIN
1070
    73
1070
     1
1070
    44
1040
1.0
1070
    74
1070
     0
1000
MTEXTEND
  0
MTEXT
  5
150F
330
15
100
AcDbEntity
 67
     1
  8
TEXT
100
AcDbMText
 10
122.2170016261258
 20
214.9995195096872
 30
0.0
 40
2.5
 41
0.0
 71
     4
 72
     1
  1
\A1;
  7
VOEST
 73
     1
 44
1.0
1001
ACAD
1000
MTEXTBEGIN
1070
    73
1070
     1
1070
    44
1040
1.0
1070
    74
1070
     0
1000
MTEXTEND
  0
MTEXT
  5
1513
330
15
100
AcDbEntity
 67
     1
  8
TEXT
100
AcDbMText
 10
130.9001099666395
 20
219.6788439368279
 30
0.0
 40
2.5
 41
0.0
 71
     4
 72
     1
  1
\A1;
  7
VOEST
 73
     1
 44
1.0
1001
ACAD
1000
MTEXTBEGIN
1070
    73
1070
     1
1070
    44
1040
1.0
1070
    74
1070
     0
1000
MTEXTEND
  0
MTEXT
  5
1D92
330
15
100
AcDbEntity
 67
     1
  8
ZUSATZTEXTE
100
AcDbMText
 10
0.3549900577245694
 20
0.4372932842833562
 30
0.0
 40
0.0850563466463626
 41
0.0
 71
     1
 72
     5
  3
Der Inhalt dieser Zeichnung ist unser geistiges Eigentum. Die Zeichnung ist dem Empfänger nur zum persönlichen Gebrauch anvertraut. Ohne unsere schriftliche \PBewilligung darf sie weder vervielfältigt, noch dritten Personen zugängig gemacht werden. Z
  1
uwiderhandeln wird von uns gerichtlich verfolgt.\PVOEST ALPINE KREMS FINALTECHNIK GmbH
  7
VOEST
 73
     1
 44
1.0
1001
ACAD
1000
MTEXTBEGIN
1070
    73
1070
     1
1070
    44
1040
1.0
1070
    74
1070
     0
1000
MTEXTEND
  0
MTEXT
  5
1D93
330
15
100
AcDbEntity
 67
     1
  8
TEXT
100
AcDbMText
 10
5.895711899698873
 20
1.311059185855036
 30
0.0
 40
0.15
 41
0.0
 71
     1
 72
     5
  1
FS / Jiraut\P10-09-2002
 73
     1
 44
1.0
1001
ACAD
1000
MTEXTBEGIN
1070
    73
1070
     1
1070
    44
1040
1.0
1070
    74
1070
     0
1000
MTEXTEND
  0
INSERT
  5
1D94
330
15
100
AcDbEntity
 67
     1
  8
TEXT
100
AcDbBlockReference
  2
LOGO ACAD
 10
0.3101350069229811
 20
1.436995493019096
 30
0.0
 41
0.0800019437502532
 42
0.0800019437502532
 43
0.0800019437502532
  0
VIEWPORT
  5
1D96
102
{ACAD_XDICTIONARY
360
1DAE
102
}
330
15
100
AcDbEntity
 67
     1
  8
DEFPOINTS
100
AcDbViewport
 10
4.01140434091291
 20
6.349191220065188
 30
0.0
 40
6.377361026988594
 41
9.095487864184644
 68
     2
 69
     2
 12
7622.132800900505
 22
-290.6436028739713
 13
0.0
 23
0.0
 14
0.5
 24
0.5
 15
0.5
 25
0.5
 16
0.0
 26
0.0
 36
1.0
 17
0.0
 27
0.0
 37
0.0
 42
50.0
 43
0.0
 44
0.0
 45
2423.861128762011
 50
0.0
 51
0.0
 72
   100
 90
    32800
  1

281
     0
 71
     1
 74
     0
110
0.0
120
0.0
130
0.0
111
1.0
121
0.0
131
0.0
112
0.0
122
1.0
132
0.0
 79
     0
146
0.0
  0
ENDSEC
  0
SECTION
  2
OBJECTS
  0
DICTIONARY
  5
C
330
0
100
AcDbDictionary
281
     1
  3
ACAD_COLOR
350
1D9C
  3
ACAD_GROUP
350
D
  3
ACAD_LAYOUT
350
1612
  3
ACAD_MATERIAL
350
1D9B
  3
ACAD_MLINESTYLE
350
1B
  3
ACAD_PLOTSETTINGS
350
1613
  3
ACAD_PLOTSTYLENAME
350
1610
  3
ACDBHEADERROUNDTRIPXREC
350
1DA5
  3
ACDBVARIABLEDICTIONARY
350
1109
  3
CONTENTDICTIONARY
350
23
  0
DICTIONARY
  5
1DA8
330
1DF
100
AcDbDictionary
280
     1
281
     1
  3
ACAD_XREC_ROUNDTRIP
360
1DA9
  0
DICTIONARY
  5
1DAE
330
1D96
100
AcDbDictionary
280
     1
281
     1
  3
ACAD_XREC_ROUNDTRIP
360
1DAF
  0
DICTIONARY
  5
1D9C
102
{ACAD_REACTORS
330
C
102
}
330
C
100
AcDbDictionary
281
     1
  0
DICTIONARY
  5
D
102
{ACAD_REACTORS
330
C
102
}
330
C
100
AcDbDictionary
281
     1
  3
*A1
350
1B1
  3
*A10
350
95B
  3
*A2
350
95C
  3
*A3
350
95D
  3
*A4
350
1B2
  3
*A5
350
1C3
  3
*A6
350
1D2
  3
*A7
350
46A
  3
*A8
350
46B
  3
*A9
350
95A
  0
DICTIONARY
  5
1612
102
{ACAD_REACTORS
330
C
102
}
330
C
100
AcDbDictionary
281
     1
  3
Layout1
350
1615
  3
Model
350
1614
  0
DICTIONARY
  5
1D9B
102
{ACAD_REACTORS
330
C
102
}
330
C
100
AcDbDictionary
281
     1
  0
DICTIONARY
  5
1B
102
{ACAD_REACTORS
330
C
102
}
330
C
100
AcDbDictionary
281
     1
  3
STANDARD
350
1C
  0
DICTIONARY
  5
1613
102
{ACAD_REACTORS
330
C
102
}
330
C
100
AcDbDictionary
281
     1
  0
ACDBDICTIONARYWDFLT
  5
1610
102
{ACAD_REACTORS
330
C
102
}
330
C
100
AcDbDictionary
281
     1
  3
Normal
350
1611
100
AcDbDictionaryWithDefault
340
1611
  0
DICTIONARY
  5
1DA5
102
{ACAD_REACTORS
330
C
102
}
330
C
100
AcDbDictionary
281
     1
  3
COLORDICT
350
1DA7
  3
MATERIALDICT
350
1DA6
  0
DICTIONARY
  5
1109
102
{ACAD_REACTORS
330
C
102
}
330
C
100
AcDbDictionary
281
     1
  3
DIMASSOC
350
1DA3
  3
PROJECTNAME
350
1DA4
  3
SORTENTS
350
110A
  0
DICTIONARY
  5
23
102
{ACAD_REACTORS
330
C
102
}
330
C
100
AcDbDictionary
281
     1
  0
XRECORD
  5
1DA9
102
{ACAD_REACTORS
330
1DA8
102
}
330
1DA8
100
AcDbXrecord
280
     1
102
SHADEPLOT
 70
     0
  0
XRECORD
  5
1DAF
102
{ACAD_REACTORS
330
1DAE
102
}
330
1DAE
100
AcDbXrecord
280
     1
102
SHADEPLOT
 70
     0
  0
GROUP
  5
1B1
102
{ACAD_REACTORS
330
D
102
}
330
D
100
AcDbGroup
300

 70
     1
 71
     1
  0
GROUP
  5
95B
102
{ACAD_REACTORS
330
D
102
}
330
D
100
AcDbGroup
300

 70
     1
 71
     1
  0
GROUP
  5
95C
102
{ACAD_REACTORS
330
D
102
}
330
D
100
AcDbGroup
300

 70
     1
 71
     1
  0
GROUP
  5
95D
102
{ACAD_REACTORS
330
D
102
}
330
D
100
AcDbGroup
300

 70
     1
 71
     1
  0
GROUP
  5
1B2
102
{ACAD_REACTORS
330
D
102
}
330
D
100
AcDbGroup
300

 70
     1
 71
     1
  0
GROUP
  5
1C3
102
{ACAD_REACTORS
330
D
102
}
330
D
100
AcDbGroup
300

 70
     1
 71
     1
  0
GROUP
  5
1D2
102
{ACAD_REACTORS
330
D
102
}
330
D
100
AcDbGroup
300

 70
     1
 71
     1
  0
GROUP
  5
46A
102
{ACAD_REACTORS
330
D
102
}
330
D
100
AcDbGroup
300

 70
     1
 71
     1
  0
GROUP
  5
46B
102
{ACAD_REACTORS
330
D
102
}
330
D
100
AcDbGroup
300

 70
     1
 71
     1
  0
GROUP
  5
95A
102
{ACAD_REACTORS
330
D
102
}
330
D
100
AcDbGroup
300

 70
     1
 71
     1
  0
LAYOUT
  5
1615
102
{ACAD_XDICTIONARY
360
1DAC
102
}
102
{ACAD_REACTORS
330
1612
102
}
330
1612
100
AcDbPlotSettings
  1

  2
\\VAKF11\Lexmark Optra E312 lex15
  4
A4
  6

 40
6.805083274841308
 41
5.535083293914794
 42
6.974411010742187
 43
7.14373779296875
 44
209.9733276367187
 45
296.9259948730469
 46
0.0
 47
0.0
 48
0.0
 49
0.0
140
0.0
141
0.0
142
1.0
143
1.0
 70
   690
 72
     0
 73
     0
 74
     5
  7
monochrome.ctb
 75
     0
147
1.0
148
0.0
149
0.0
100
AcDbLayout
  1
Layout1
 70
     1
 71
     1
 10
-0.2679166643638311
 20
-0.2179166651147557
 11
7.99874977802667
 21
11.47208313303669
 12
0.0
 22
0.0
 32
0.0
 14
0.3151759405626242
 24
0.0392419594367362
 34
0.0
 15
7.329726521398396
 25
10.89693515215751
 35
0.0
146
0.0
 13
0.0
 23
0.0
 33
0.0
 16
1.0
 26
0.0
 36
0.0
 17
0.0
 27
1.0
 37
0.0
 76
     0
330
15
331
1DF
  0
LAYOUT
  5
1614
102
{ACAD_XDICTIONARY
360
1DAA
102
}
102
{ACAD_REACTORS
330
1612
102
}
330
1612
100
AcDbPlotSettings
  1

  2
\\VAKF11\Lexmark Optra E312 lex15
  4

  6

 40
0.0
 41
0.0
 42
0.0
 43
0.0
 44
0.0
 45
0.0
 46
0.0
 47
0.0
 48
0.0
 49
0.0
140
0.0
141
0.0
142
1.0
143
1.0
 70
  1712
 72
     0
 73
     0
 74
     0
  7

 75
     0
147
1.0
148
0.0
149
0.0
100
AcDbLayout
  1
Model
 70
     1
 71
     0
 10
0.0
 20
0.0
 11
12.0
 21
9.0
 12
0.0
 22
0.0
 32
0.0
 14
0.0
 24
0.0
 34
0.0
 15
0.0
 25
0.0
 35
0.0
146
0.0
 13
0.0
 23
0.0
 33
0.0
 16
1.0
 26
0.0
 36
0.0
 17
0.0
 27
1.0
 37
0.0
 76
     0
330
18
  0
MLINESTYLE
  5
1C
102
{ACAD_REACTORS
330
1B
102
}
330
1B
100
AcDbMlineStyle
  2
STANDARD
 70
     0
  3

 62
   256
 51
90.0
 52
90.0
 71
     2
 49
0.5
 62
   256
  6
BYLAYER
 49
-0.5
 62
   256
  6
BYLAYER
  0
ACDBPLACEHOLDER
  5
1611
102
{ACAD_REACTORS
330
1610
102
}
330
1610
  0
XRECORD
  5
1DA7
102
{ACAD_REACTORS
330
1DA5
102
}
330
1DA5
100
AcDbXrecord
280
     1
340
1D9C
  0
XRECORD
  5
1DA6
102
{ACAD_REACTORS
330
1DA5
102
}
330
1DA5
100
AcDbXrecord
280
     1
340
1D9B
  0
DICTIONARYVAR
  5
1DA3
102
{ACAD_REACTORS
330
1109
102
}
330
1109
100
DictionaryVariables
280
     0
  1
1
  0
DICTIONARYVAR
  5
1DA4
102
{ACAD_REACTORS
330
1109
102
}
330
1109
100
DictionaryVariables
280
     0
  1

  0
DICTIONARYVAR
  5
110A
102
{ACAD_REACTORS
330
1109
102
}
330
1109
100
DictionaryVariables
280
     0
  1
96
  0
DICTIONARY
  5
1DAC
330
1615
100
AcDbDictionary
280
     1
281
     1
  3
ACAD_XREC_ROUNDTRIP
360
1DAD
  0
DICTIONARY
  5
1DAA
330
1614
100
AcDbDictionary
280
     1
281
     1
  3
ACAD_XREC_ROUNDTRIP
360
1DAB
  0
XRECORD
  5
1DAD
102
{ACAD_REACTORS
330
1DAC
102
}
330
1DAC
100
AcDbXrecord
280
     1
102
SHADEPLOT
 70
     0
102
SHADEPLOTRESLEVEL
 70
     2
102
SHADEPLOTCUSTOMDPI
 70
   300
  0
XRECORD
  5
1DAB
102
{ACAD_REACTORS
330
1DAA
102
}
330
1DAA
100
AcDbXrecord
280
     1
102
SHADEPLOT
 70
     0
102
SHADEPLOTRESLEVEL
 70
     2
102
SHADEPLOTCUSTOMDPI
 70
   300
  0
ENDSEC
  0
EOF
