  0
SECTION
  2
HEADER
  9
$ACADVER
  1
AC1015
  9
$ACADMAINTVER
 70
    20
  9
$DWGCODEPAGE
  3
ANSI_1252
  9
$INSBASE
 10
0.0
 20
0.0
 30
0.0
  9
$EXTMIN
 10
4481.959501977886
 20
-3191.443728536486
 30
-0.0015258207003583
  9
$EXTMAX
 10
9540.782426149748
 20
966.6475741083013
 30
0.0000000349246037
  9
$LIMMIN
 10
-1091.180495341761
 20
-619.6501650024412
  9
$LIMMAX
 10
1056.97244419739
 20
951.0353648293053
  9
$ORTHOMODE
 70
     0
  9
$REGENMODE
 70
     1
  9
$FILLMODE
 70
     1
  9
$QTEXTMODE
 70
     0
  9
$MIRRTEXT
 70
     1
  9
$LTSCALE
 40
1.0
  9
$ATTMODE
 70
     1
  9
$TEXTSIZE
 40
100.0
  9
$TRACEWID
 40
0.05
  9
$TEXTSTYLE
  7
VOESTB
  9
$CLAYER
  8
70
  9
$CELTYPE
  6
BYLAYER
  9
$CECOLOR
 62
   256
  9
$CELTSCALE
 40
1.0
  9
$DISPSILH
 70
     0
  9
$DIMSCALE
 40
10.0
  9
$DIMASZ
 40
0.25
  9
$DIMEXO
 40
0.1
  9
$DIMDLI
 40
0.5
  9
$DIMRND
 40
0.0
  9
$DIMDLE
 40
0.0
  9
$DIMEXE
 40
0.25
  9
$DIMTP
 40
0.0
  9
$DIMTM
 40
0.0
  9
$DIMTXT
 40
0.25
  9
$DIMCEN
 40
0.0
  9
$DIMTSZ
 40
0.0
  9
$DIMTOL
 70
     0
  9
$DIMLIM
 70
     0
  9
$DIMTIH
 70
     0
  9
$DIMTOH
 70
     0
  9
$DIMSE1
 70
     0
  9
$DIMSE2
 70
     0
  9
$DIMTAD
 70
     0
  9
$DIMZIN
 70
     0
  9
$DIMBLK
  1

  9
$DIMASO
 70
     1
  9
$DIMSHO
 70
     1
  9
$DIMPOST
  1

  9
$DIMAPOST
  1

  9
$DIMALT
 70
     0
  9
$DIMALTD
 70
     2
  9
$DIMALTF
 40
25.4
  9
$DIMLFAC
 40
1.0
  9
$DIMTOFL
 70
     0
  9
$DIMTVP
 40
0.0
  9
$DIMTIX
 70
     0
  9
$DIMSOXD
 70
     0
  9
$DIMSAH
 70
     0
  9
$DIMBLK1
  1

  9
$DIMBLK2
  1

  9
$DIMSTYLE
  2
TYPENBLATT_M50
  9
$DIMCLRD
 70
     0
  9
$DIMCLRE
 70
     0
  9
$DIMCLRT
 70
     0
  9
$DIMTFAC
 40
1.0
  9
$DIMGAP
 40
0.075
  9
$DIMJUST
 70
     0
  9
$DIMSD1
 70
     0
  9
$DIMSD2
 70
     0
  9
$DIMTOLJ
 70
     1
  9
$DIMTZIN
 70
     0
  9
$DIMALTZ
 70
     0
  9
$DIMALTTZ
 70
     0
  9
$DIMUPT
 70
     0
  9
$DIMDEC
 70
     0
  9
$DIMTDEC
 70
     4
  9
$DIMALTU
 70
     2
  9
$DIMALTTD
 70
     2
  9
$DIMTXSTY
  7
VOEST
  9
$DIMAUNIT
 70
     0
  9
$DIMADEC
 70
     0
  9
$DIMALTRND
 40
0.0
  9
$DIMAZIN
 70
     0
  9
$DIMDSEP
 70
    46
  9
$DIMATFIT
 70
     3
  9
$DIMFRAC
 70
     0
  9
$DIMLDRBLK
  1

  9
$DIMLUNIT
 70
     2
  9
$DIMLWD
 70
    -2
  9
$DIMLWE
 70
    -2
  9
$DIMTMOVE
 70
     0
  9
$LUNITS
 70
     2
  9
$LUPREC
 70
     4
  9
$SKETCHINC
 40
0.1
  9
$FILLETRAD
 40
0.0
  9
$AUNITS
 70
     0
  9
$AUPREC
 70
     4
  9
$MENU
  1
acad
  9
$ELEVATION
 40
0.0
  9
$PELEVATION
 40
0.0
  9
$THICKNESS
 40
0.0
  9
$LIMCHECK
 70
     0
  9
$CHAMFERA
 40
0.0
  9
$CHAMFERB
 40
0.0
  9
$CHAMFERC
 40
1.0
  9
$CHAMFERD
 40
0.0
  9
$SKPOLY
 70
     0
  9
$TDCREATE
 40
2451353.459995197
  9
$TDUCREATE
 40
2451353.418328530
  9
$TDUPDATE
 40
2454799.525174468
  9
$TDUUPDATE
 40
2454799.483507801
  9
$TDINDWG
 40
2.4079131366
  9
$TDUSRTIMER
 40
2.4079131366
  9
$USRTIMER
 70
     1
  9
$ANGBASE
 50
0.0
  9
$ANGDIR
 70
     0
  9
$PDMODE
 70
     0
  9
$PDSIZE
 40
0.0
  9
$PLINEWID
 40
0.0
  9
$SPLFRAME
 70
     0
  9
$SPLINETYPE
 70
     6
  9
$SPLINESEGS
 70
     8
  9
$HANDSEED
  5
2E60
  9
$SURFTAB1
 70
     6
  9
$SURFTAB2
 70
     6
  9
$SURFTYPE
 70
     6
  9
$SURFU
 70
     6
  9
$SURFV
 70
     6
  9
$UCSBASE
  2

  9
$UCSNAME
  2

  9
$UCSORG
 10
0.0
 20
0.0
 30
0.0
  9
$UCSXDIR
 10
1.0
 20
0.0
 30
0.0
  9
$UCSYDIR
 10
0.0
 20
1.0
 30
0.0
  9
$UCSORTHOREF
  2

  9
$UCSORTHOVIEW
 70
     0
  9
$UCSORGTOP
 10
0.0
 20
0.0
 30
0.0
  9
$UCSORGBOTTOM
 10
0.0
 20
0.0
 30
0.0
  9
$UCSORGLEFT
 10
0.0
 20
0.0
 30
0.0
  9
$UCSORGRIGHT
 10
0.0
 20
0.0
 30
0.0
  9
$UCSORGFRONT
 10
0.0
 20
0.0
 30
0.0
  9
$UCSORGBACK
 10
0.0
 20
0.0
 30
0.0
  9
$PUCSBASE
  2

  9
$PUCSNAME
  2

  9
$PUCSORG
 10
0.0
 20
0.0
 30
0.0
  9
$PUCSXDIR
 10
1.0
 20
0.0
 30
0.0
  9
$PUCSYDIR
 10
0.0
 20
1.0
 30
0.0
  9
$PUCSORTHOREF
  2

  9
$PUCSORTHOVIEW
 70
     0
  9
$PUCSORGTOP
 10
0.0
 20
0.0
 30
0.0
  9
$PUCSORGBOTTOM
 10
0.0
 20
0.0
 30
0.0
  9
$PUCSORGLEFT
 10
0.0
 20
0.0
 30
0.0
  9
$PUCSORGRIGHT
 10
0.0
 20
0.0
 30
0.0
  9
$PUCSORGFRONT
 10
0.0
 20
0.0
 30
0.0
  9
$PUCSORGBACK
 10
0.0
 20
0.0
 30
0.0
  9
$USERI1
 70
     0
  9
$USERI2
 70
     0
  9
$USERI3
 70
     0
  9
$USERI4
 70
     0
  9
$USERI5
 70
     0
  9
$USERR1
 40
0.0
  9
$USERR2
 40
0.0
  9
$USERR3
 40
0.0
  9
$USERR4
 40
0.0
  9
$USERR5
 40
0.0
  9
$WORLDVIEW
 70
     1
  9
$SHADEDGE
 70
     3
  9
$SHADEDIF
 70
    70
  9
$TILEMODE
 70
     1
  9
$MAXACTVP
 70
    48
  9
$PINSBASE
 10
0.0
 20
0.0
 30
0.0
  9
$PLIMCHECK
 70
     0
  9
$PEXTMIN
 10
1.000000000000000E+20
 20
1.000000000000000E+20
 30
1.000000000000000E+20
  9
$PEXTMAX
 10
-1.000000000000000E+20
 20
-1.000000000000000E+20
 30
-1.000000000000000E+20
  9
$PLIMMIN
 10
-0.2679166643638311
 20
-0.2179166651147557
  9
$PLIMMAX
 10
7.99874977802667
 20
11.47208313303669
  9
$UNITMODE
 70
     0
  9
$VISRETAIN
 70
     1
  9
$PLINEGEN
 70
     0
  9
$PSLTSCALE
 70
     1
  9
$TREEDEPTH
 70
  3020
  9
$CMLSTYLE
  2
STANDARD
  9
$CMLJUST
 70
     0
  9
$CMLSCALE
 40
1.0
  9
$PROXYGRAPHICS
 70
     1
  9
$MEASUREMENT
 70
     0
  9
$CELWEIGHT
370
    -1
  9
$ENDCAPS
280
     0
  9
$JOINSTYLE
280
     0
  9
$LWDISPLAY
290
     0
  9
$INSUNITS
 70
     0
  9
$HYPERLINKBASE
  1

  9
$STYLESHEET
  1

  9
$XEDIT
290
     1
  9
$CEPSNTYPE
380
     0
  9
$PSTYLEMODE
290
     1
  9
$FINGERPRINTGUID
  2
{B7B02B73-C3B6-11D6-A697-000102FA756E}
  9
$VERSIONGUID
  2
{F11D2993-7B40-46A4-AE75-08FA98CD9078}
  9
$EXTNAMES
290
     1
  9
$PSVPSCALE
 40
0.0
  9
$OLESTARTUP
290
     0
  0
ENDSEC
  0
SECTION
  2
CLASSES
  0
CLASS
  1
DICTIONARYVAR
  2
AcDbDictionaryVar
  3
ObjectDBX Classes
 90
        0
280
     0
281
     0
  0
CLASS
  1
ACDBDICTIONARYWDFLT
  2
AcDbDictionaryWithDefault
  3
ObjectDBX Classes
 90
        0
280
     0
281
     0
  0
CLASS
  1
ACDBPLACEHOLDER
  2
AcDbPlaceHolder
  3
ObjectDBX Classes
 90
        0
280
     0
281
     0
  0
CLASS
  1
LAYOUT
  2
AcDbLayout
  3
ObjectDBX Classes
 90
        0
280
     0
281
     0
  0
CLASS
  1
TABLESTYLE
  2
AcDbTableStyle
  3
ObjectDBX Classes
 90
     4095
280
     0
281
     0
  0
CLASS
  1
MATERIAL
  2
AcDbMaterial
  3
ObjectDBX Classes
 90
     1153
280
     0
281
     0
  0
CLASS
  1
VISUALSTYLE
  2
AcDbVisualStyle
  3
ObjectDBX Classes
 90
     4095
280
     0
281
     0
  0
CLASS
  1
SCALE
  2
AcDbScale
  3
ObjectDBX Classes
 90
     1153
280
     0
281
     0
  0
CLASS
  1
MLEADERSTYLE
  2
AcDbMLeaderStyle
  3
ACDB_MLEADERSTYLE_CLASS
 90
     4095
280
     0
281
     0
  0
CLASS
  1
SORTENTSTABLE
  2
AcDbSortentsTable
  3
ObjectDBX Classes
 90
        0
280
     0
281
     0
  0
CLASS
  1
CELLSTYLEMAP
  2
AcDbCellStyleMap
  3
ObjectDBX Classes
 90
     1152
280
     0
281
     0
  0
ENDSEC
  0
SECTION
  2
TABLES
  0
TABLE
  2
VPORT
  5
8
102
{ACAD_XDICTIONARY
360
24B9
102
}
330
0
100
AcDbSymbolTable
 70
     1
  0
VPORT
  5
22C6
330
8
100
AcDbSymbolTableRecord
100
AcDbViewportTableRecord
  2
*Active
 70
     0
 10
0.0
 20
0.0
 11
1.0
 21
1.0
 12
7011.370964063818
 22
-1112.398077214092
 13
0.0
 23
0.0
 14
0.5
 24
0.5
 15
0.5
 25
0.5
 16
0.0
 26
0.0
 36
1.0
 17
0.0
 27
0.0
 37
0.0
 40
4185.567676891338
 41
1.788313120176405
 42
50.0
 43
0.0
 44
0.0
 50
0.0
 51
0.0
 71
     0
 72
   100
 73
     1
 74
     1
 75
     0
 76
     0
 77
     0
 78
     0
281
     0
 65
     1
110
0.0
120
0.0
130
0.0
111
1.0
121
0.0
131
0.0
112
0.0
122
1.0
132
0.0
 79
     0
146
0.0
  0
ENDTAB
  0
TABLE
  2
LTYPE
  5
5
330
0
100
AcDbSymbolTable
 70
     5
  0
LTYPE
  5
12
330
5
100
AcDbSymbolTableRecord
100
AcDbLinetypeTableRecord
  2
BYBLOCK
 70
     0
  3

 72
    65
 73
     0
 40
0.0
  0
LTYPE
  5
13
330
5
100
AcDbSymbolTableRecord
100
AcDbLinetypeTableRecord
  2
BYLAYER
 70
     0
  3

 72
    65
 73
     0
 40
0.0
  0
LTYPE
  5
14
330
5
100
AcDbSymbolTableRecord
100
AcDbLinetypeTableRecord
  2
CONTINUOUS
 70
     0
  3
Solid line
 72
    65
 73
     0
 40
0.0
  0
LTYPE
  5
222
330
5
100
AcDbSymbolTableRecord
100
AcDbLinetypeTableRecord
  2
STRICHPUNKT
 70
     0
  3
Strichpunkt __ . __ . __ . __ . __ . __ . __ . 
 72
    65
 73
     4
 40
25.4
 49
12.7
 74
     0
 49
-6.349999999999999
 74
     0
 49
0.0
 74
     0
 49
-6.349999999999999
 74
     0
  0
LTYPE
  5
223
330
5
100
AcDbSymbolTableRecord
100
AcDbLinetypeTableRecord
  2
STRICHLINIE
 70
     0
  3
Strichlinie __ __ __ __ __ __ __ __ __ __ __ __
 72
    65
 73
     2
 40
19.05
 49
12.7
 74
     0
 49
-6.349999999999999
 74
     0
  0
LTYPE
  5
25A9
330
5
100
AcDbSymbolTableRecord
100
AcDbLinetypeTableRecord
  2
VERDECKT
 70
     0
  3
Verdeckt __ __ __ __ __ __ __ __ __ __ __ __ __
 72
    65
 73
     2
 40
0.375
 49
0.25
 74
     0
 49
-0.125
 74
     0
  0
ENDTAB
  0
TABLE
  2
LAYER
  5
2
102
{ACAD_XDICTIONARY
360
2192
102
}
330
0
100
AcDbSymbolTable
 70
    13
  0
LAYER
  5
E
102
{ACAD_XDICTIONARY
360
24A0
102
}
330
2
100
AcDbSymbolTableRecord
100
AcDbLayerTableRecord
  2
0
 70
     0
 62
     7
  6
CONTINUOUS
370
    -3
390
1611
  0
LAYER
  5
12F
102
{ACAD_XDICTIONARY
360
24A2
102
}
330
2
100
AcDbSymbolTableRecord
100
AcDbLayerTableRecord
  2
25
 70
     0
 62
     7
  6
CONTINUOUS
370
    -3
390
1611
  0
LAYER
  5
1DA
102
{ACAD_XDICTIONARY
360
24A4
102
}
330
2
100
AcDbSymbolTableRecord
100
AcDbLayerTableRecord
  2
35
 70
     0
 62
     2
  6
CONTINUOUS
370
    -3
390
1611
  0
LAYER
  5
224
102
{ACAD_XDICTIONARY
360
24A6
102
}
330
2
100
AcDbSymbolTableRecord
100
AcDbLayerTableRecord
  2
KOTIERUNG
 70
     0
 62
     7
  6
CONTINUOUS
370
    -3
390
1611
  0
LAYER
  5
225
330
2
100
AcDbSymbolTableRecord
100
AcDbLayerTableRecord
  2
DEFPOINTS
 70
     0
 62
     7
  6
CONTINUOUS
290
     0
370
    -3
390
1611
  0
LAYER
  5
226
102
{ACAD_XDICTIONARY
360
24A8
102
}
330
2
100
AcDbSymbolTableRecord
100
AcDbLayerTableRecord
  2
18
 70
     0
 62
     1
  6
CONTINUOUS
370
    -3
390
1611
  0
LAYER
  5
425
102
{ACAD_XDICTIONARY
360
24AA
102
}
330
2
100
AcDbSymbolTableRecord
100
AcDbLayerTableRecord
  2
50
 70
     0
 62
    33
  6
CONTINUOUS
370
    -3
390
1611
  0
LAYER
  5
14EF
102
{ACAD_XDICTIONARY
360
24AC
102
}
330
2
100
AcDbSymbolTableRecord
100
AcDbLayerTableRecord
  2
TEXT
 70
     0
 62
     7
  6
CONTINUOUS
370
    -3
390
1611
  0
LAYER
  5
1676
102
{ACAD_XDICTIONARY
360
24AE
102
}
330
2
100
AcDbSymbolTableRecord
100
AcDbLayerTableRecord
  2
LS
 70
     0
 62
     5
  6
CONTINUOUS
370
    -3
390
1611
  0
LAYER
  5
1677
102
{ACAD_XDICTIONARY
360
24B0
102
}
330
2
100
AcDbSymbolTableRecord
100
AcDbLayerTableRecord
  2
C160
 70
     0
 62
     7
  6
CONTINUOUS
370
    -3
390
1611
  0
LAYER
  5
190A
102
{ACAD_XDICTIONARY
360
24B2
102
}
330
2
100
AcDbSymbolTableRecord
100
AcDbLayerTableRecord
  2
70
 70
     0
 62
     5
  6
CONTINUOUS
370
    -3
390
1611
  0
LAYER
  5
2190
102
{ACAD_XDICTIONARY
360
24B4
102
}
330
2
100
AcDbSymbolTableRecord
100
AcDbLayerTableRecord
  2
ZUSATZTEXTE
 70
     0
 62
     7
  6
CONTINUOUS
370
    -3
390
1611
  0
LAYER
  5
25AA
102
{ACAD_XDICTIONARY
360
25AB
102
}
330
2
100
AcDbSymbolTableRecord
100
AcDbLayerTableRecord
  2
HILFSLINIEN
 70
     0
 62
     3
  6
CONTINUOUS
290
     0
370
    -3
390
1611
  0
ENDTAB
  0
TABLE
  2
STYLE
  5
3
330
0
100
AcDbSymbolTable
 70
     3
  0
STYLE
  5
F
330
3
100
AcDbSymbolTableRecord
100
AcDbTextStyleTableRecord
  2
STANDARD
 70
     0
 40
0.0
 41
1.0
 50
0.0
 71
     0
 42
25.0
  3
ARIALN.TTF
  4

1001
ACAD
1000
Arial Narrow
1071
       34
  0
STYLE
  5
428
330
3
100
AcDbSymbolTableRecord
100
AcDbTextStyleTableRecord
  2
VOEST
 70
     0
 40
0.0
 41
1.0
 50
0.0
 71
     0
 42
4.0
  3
ARIALN.TTF
  4

1001
ACAD
1000
Arial Narrow
1071
       34
  0
STYLE
  5
15F0
330
3
100
AcDbSymbolTableRecord
100
AcDbTextStyleTableRecord
  2
VOESTB
 70
     0
 40
0.0
 41
1.0
 50
0.0
 71
     0
 42
100.0
  3
ARIALNB.TTF
  4

1001
ACAD
1000
Arial Narrow
1071
 33554466
  0
ENDTAB
  0
TABLE
  2
VIEW
  5
6
330
0
100
AcDbSymbolTable
 70
     1
  0
ENDTAB
  0
TABLE
  2
UCS
  5
7
330
0
100
AcDbSymbolTable
 70
     0
  0
ENDTAB
  0
TABLE
  2
APPID
  5
9
330
0
100
AcDbSymbolTable
 70
     9
  0
APPID
  5
10
330
9
100
AcDbSymbolTableRecord
100
AcDbRegAppTableRecord
  2
ACAD
 70
     0
  0
APPID
  5
24
330
9
100
AcDbSymbolTableRecord
100
AcDbRegAppTableRecord
  2
CONTENTTABDATA
 70
     0
  0
APPID
  5
25
330
9
100
AcDbSymbolTableRecord
100
AcDbRegAppTableRecord
  2
CONTENTCURRENTTAB
 70
     0
  0
APPID
  5
116
330
9
100
AcDbSymbolTableRecord
100
AcDbRegAppTableRecord
  2
CONTENTBLOCKICON
 70
     0
  0
APPID
  5
117
330
9
100
AcDbSymbolTableRecord
100
AcDbRegAppTableRecord
  2
CONTENTBLOCKDESCRIPTION
 70
     0
  0
APPID
  5
2191
330
9
100
AcDbSymbolTableRecord
100
AcDbRegAppTableRecord
  2
ACAD_PSEXT
 70
     0
  0
APPID
  5
2316
330
9
100
AcDbSymbolTableRecord
100
AcDbRegAppTableRecord
  2
ACAD_MLEADERVER
 70
     0
  0
APPID
  5
2DB0
330
9
100
AcDbSymbolTableRecord
100
AcDbRegAppTableRecord
  2
ACAD_DSTYLE_DIMTALN
 70
     0
  0
APPID
  5
2DC3
330
9
100
AcDbSymbolTableRecord
100
AcDbRegAppTableRecord
  2
ACAD_EXEMPT_FROM_CAD_STANDARDS
 70
     0
  0
ENDTAB
  0
TABLE
  2
DIMSTYLE
  5
A
330
0
100
AcDbSymbolTable
 70
     3
100
AcDbDimStyleTable
 71
     2
340
EF9
340
EFA
  0
DIMSTYLE
105
1D
330
A
100
AcDbSymbolTableRecord
100
AcDbDimStyleTableRecord
  2
STANDARD
 70
     0
340
F
  0
DIMSTYLE
105
EF9
102
{ACAD_REACTORS
330
267D
330
267E
330
2680
330
2681
330
2682
330
2686
330
2718
330
2B4B
330
2B77
330
2BA6
330
2BD8
330
2BF8
102
}
330
A
100
AcDbSymbolTableRecord
100
AcDbDimStyleTableRecord
  2
TYPENBLATT_M10
 70
     0
 40
100.0
 41
0.25
 42
0.5
 43
0.5
 44
0.25
 73
     0
 74
     0
 77
     1
140
0.25
147
0.075
271
     0
340
428
  0
DIMSTYLE
105
EFA
102
{ACAD_REACTORS
330
1BCA
330
1BCB
330
1BCE
330
1C03
102
}
330
A
100
AcDbSymbolTableRecord
100
AcDbDimStyleTableRecord
  2
TYPENBLATT_M50
 70
     0
 40
500.0
 41
0.25
 42
0.1
 43
0.5
 44
0.25
 73
     0
 74
     0
 77
     1
140
0.25
147
0.075
271
     0
340
428
  0
ENDTAB
  0
TABLE
  2
BLOCK_RECORD
  5
1
330
0
100
AcDbSymbolTable
 70
    66
  0
BLOCK_RECORD
  5
18
102
{ACAD_XDICTIONARY
360
1FC3
102
}
330
1
100
AcDbSymbolTableRecord
100
AcDbBlockTableRecord
  2
*MODEL_SPACE
340
1614
  0
BLOCK_RECORD
  5
15
102
{ACAD_XDICTIONARY
360
1FC1
102
}
330
1
100
AcDbSymbolTableRecord
100
AcDbBlockTableRecord
  2
*PAPER_SPACE
340
1615
  0
BLOCK_RECORD
  5
17F4
330
1
100
AcDbSymbolTableRecord
100
AcDbBlockTableRecord
  2
*D0
340
0
  0
BLOCK_RECORD
  5
1800
330
1
100
AcDbSymbolTableRecord
100
AcDbBlockTableRecord
  2
*D1
340
0
  0
BLOCK_RECORD
  5
180C
330
1
100
AcDbSymbolTableRecord
100
AcDbBlockTableRecord
  2
*D2
340
0
  0
BLOCK_RECORD
  5
1819
330
1
100
AcDbSymbolTableRecord
100
AcDbBlockTableRecord
  2
*D3
340
0
  0
BLOCK_RECORD
  5
1826
330
1
100
AcDbSymbolTableRecord
100
AcDbBlockTableRecord
  2
*D4
340
0
  0
BLOCK_RECORD
  5
1CB3
330
1
100
AcDbSymbolTableRecord
100
AcDbBlockTableRecord
  2
*D5
340
0
  0
BLOCK_RECORD
  5
1CBF
330
1
100
AcDbSymbolTableRecord
100
AcDbBlockTableRecord
  2
*D6
340
0
  0
BLOCK_RECORD
  5
1CCB
330
1
100
AcDbSymbolTableRecord
100
AcDbBlockTableRecord
  2
*D7
340
0
  0
BLOCK_RECORD
  5
1CD7
330
1
100
AcDbSymbolTableRecord
100
AcDbBlockTableRecord
  2
*D8
340
0
  0
BLOCK_RECORD
  5
21E0
330
1
100
AcDbSymbolTableRecord
100
AcDbBlockTableRecord
  2
*D9
340
0
  0
BLOCK_RECORD
  5
21EC
330
1
100
AcDbSymbolTableRecord
100
AcDbBlockTableRecord
  2
*D10
340
0
  0
BLOCK_RECORD
  5
21F8
330
1
100
AcDbSymbolTableRecord
100
AcDbBlockTableRecord
  2
*D11
340
0
  0
BLOCK_RECORD
  5
2204
330
1
100
AcDbSymbolTableRecord
100
AcDbBlockTableRecord
  2
*D12
340
0
  0
BLOCK_RECORD
  5
2210
330
1
100
AcDbSymbolTableRecord
100
AcDbBlockTableRecord
  2
*D13
340
0
  0
BLOCK_RECORD
  5
221C
330
1
100
AcDbSymbolTableRecord
100
AcDbBlockTableRecord
  2
*D14
340
0
  0
BLOCK_RECORD
  5
2228
330
1
100
AcDbSymbolTableRecord
100
AcDbBlockTableRecord
  2
*D15
340
0
  0
BLOCK_RECORD
  5
23A0
330
1
100
AcDbSymbolTableRecord
100
AcDbBlockTableRecord
  2
*D16
340
0
  0
BLOCK_RECORD
  5
23AC
330
1
100
AcDbSymbolTableRecord
100
AcDbBlockTableRecord
  2
*D17
340
0
  0
BLOCK_RECORD
  5
23B8
330
1
100
AcDbSymbolTableRecord
100
AcDbBlockTableRecord
  2
*D18
340
0
  0
BLOCK_RECORD
  5
23C5
330
1
100
AcDbSymbolTableRecord
100
AcDbBlockTableRecord
  2
*D19
340
0
  0
BLOCK_RECORD
  5
23D1
330
1
100
AcDbSymbolTableRecord
100
AcDbBlockTableRecord
  2
*D20
340
0
  0
BLOCK_RECORD
  5
23DE
330
1
100
AcDbSymbolTableRecord
100
AcDbBlockTableRecord
  2
*D21
340
0
  0
BLOCK_RECORD
  5
23EA
330
1
100
AcDbSymbolTableRecord
100
AcDbBlockTableRecord
  2
*D22
340
0
  0
BLOCK_RECORD
  5
23F6
330
1
100
AcDbSymbolTableRecord
100
AcDbBlockTableRecord
  2
*D23
340
0
  0
BLOCK_RECORD
  5
2402
330
1
100
AcDbSymbolTableRecord
100
AcDbBlockTableRecord
  2
*D24
340
0
  0
BLOCK_RECORD
  5
240E
330
1
100
AcDbSymbolTableRecord
100
AcDbBlockTableRecord
  2
*D25
340
0
  0
BLOCK_RECORD
  5
241A
330
1
100
AcDbSymbolTableRecord
100
AcDbBlockTableRecord
  2
*D26
340
0
  0
BLOCK_RECORD
  5
2426
330
1
100
AcDbSymbolTableRecord
100
AcDbBlockTableRecord
  2
*D27
340
0
  0
BLOCK_RECORD
  5
24FF
330
1
100
AcDbSymbolTableRecord
100
AcDbBlockTableRecord
  2
*D28
340
0
  0
BLOCK_RECORD
  5
250B
330
1
100
AcDbSymbolTableRecord
100
AcDbBlockTableRecord
  2
*D29
340
0
  0
BLOCK_RECORD
  5
2517
330
1
100
AcDbSymbolTableRecord
100
AcDbBlockTableRecord
  2
*D30
340
0
  0
BLOCK_RECORD
  5
2524
330
1
100
AcDbSymbolTableRecord
100
AcDbBlockTableRecord
  2
*D31
340
0
  0
BLOCK_RECORD
  5
2530
330
1
100
AcDbSymbolTableRecord
100
AcDbBlockTableRecord
  2
*D32
340
0
  0
BLOCK_RECORD
  5
253C
330
1
100
AcDbSymbolTableRecord
100
AcDbBlockTableRecord
  2
*D33
340
0
  0
BLOCK_RECORD
  5
2548
330
1
100
AcDbSymbolTableRecord
100
AcDbBlockTableRecord
  2
*D34
340
0
  0
BLOCK_RECORD
  5
2554
330
1
100
AcDbSymbolTableRecord
100
AcDbBlockTableRecord
  2
*D35
340
0
  0
BLOCK_RECORD
  5
2560
330
1
100
AcDbSymbolTableRecord
100
AcDbBlockTableRecord
  2
*D36
340
0
  0
BLOCK_RECORD
  5
256C
330
1
100
AcDbSymbolTableRecord
100
AcDbBlockTableRecord
  2
*D37
340
0
  0
BLOCK_RECORD
  5
2578
330
1
100
AcDbSymbolTableRecord
100
AcDbBlockTableRecord
  2
*D38
340
0
  0
BLOCK_RECORD
  5
2584
330
1
100
AcDbSymbolTableRecord
100
AcDbBlockTableRecord
  2
*D39
340
0
  0
BLOCK_RECORD
  5
2590
330
1
100
AcDbSymbolTableRecord
100
AcDbBlockTableRecord
  2
*D40
340
0
  0
BLOCK_RECORD
  5
259D
330
1
100
AcDbSymbolTableRecord
100
AcDbBlockTableRecord
  2
*D41
340
0
  0
BLOCK_RECORD
  5
2734
330
1
100
AcDbSymbolTableRecord
100
AcDbBlockTableRecord
  2
*D43
340
0
  0
BLOCK_RECORD
  5
2740
330
1
100
AcDbSymbolTableRecord
100
AcDbBlockTableRecord
  2
*D44
340
0
  0
BLOCK_RECORD
  5
274C
330
1
100
AcDbSymbolTableRecord
100
AcDbBlockTableRecord
  2
*D45
340
0
  0
BLOCK_RECORD
  5
2759
330
1
100
AcDbSymbolTableRecord
100
AcDbBlockTableRecord
  2
*D46
340
0
  0
BLOCK_RECORD
  5
2765
330
1
100
AcDbSymbolTableRecord
100
AcDbBlockTableRecord
  2
*D47
340
0
  0
BLOCK_RECORD
  5
2771
330
1
100
AcDbSymbolTableRecord
100
AcDbBlockTableRecord
  2
*D48
340
0
  0
BLOCK_RECORD
  5
277D
330
1
100
AcDbSymbolTableRecord
100
AcDbBlockTableRecord
  2
*D49
340
0
  0
BLOCK_RECORD
  5
2789
330
1
100
AcDbSymbolTableRecord
100
AcDbBlockTableRecord
  2
*D50
340
0
  0
BLOCK_RECORD
  5
2795
330
1
100
AcDbSymbolTableRecord
100
AcDbBlockTableRecord
  2
*D51
340
0
  0
BLOCK_RECORD
  5
27A1
330
1
100
AcDbSymbolTableRecord
100
AcDbBlockTableRecord
  2
*D52
340
0
  0
BLOCK_RECORD
  5
27AD
330
1
100
AcDbSymbolTableRecord
100
AcDbBlockTableRecord
  2
*D53
340
0
  0
BLOCK_RECORD
  5
27B9
330
1
100
AcDbSymbolTableRecord
100
AcDbBlockTableRecord
  2
*D54
340
0
  0
BLOCK_RECORD
  5
27C5
330
1
100
AcDbSymbolTableRecord
100
AcDbBlockTableRecord
  2
*D55
340
0
  0
BLOCK_RECORD
  5
27D1
330
1
100
AcDbSymbolTableRecord
100
AcDbBlockTableRecord
  2
*D56
340
0
  0
BLOCK_RECORD
  5
2A6C
330
1
100
AcDbSymbolTableRecord
100
AcDbBlockTableRecord
  2
*D57
340
0
  0
BLOCK_RECORD
  5
2B4C
330
1
100
AcDbSymbolTableRecord
100
AcDbBlockTableRecord
  2
*D58
340
0
  0
BLOCK_RECORD
  5
2B78
330
1
100
AcDbSymbolTableRecord
100
AcDbBlockTableRecord
  2
*D59
340
0
  0
BLOCK_RECORD
  5
2B8F
330
1
100
AcDbSymbolTableRecord
100
AcDbBlockTableRecord
  2
*D60
340
0
  0
BLOCK_RECORD
  5
2BA7
330
1
100
AcDbSymbolTableRecord
100
AcDbBlockTableRecord
  2
*D61
340
0
  0
BLOCK_RECORD
  5
2BD9
330
1
100
AcDbSymbolTableRecord
100
AcDbBlockTableRecord
  2
*D62
340
0
  0
BLOCK_RECORD
  5
2BF9
330
1
100
AcDbSymbolTableRecord
100
AcDbBlockTableRecord
  2
*D63
340
0
  0
BLOCK_RECORD
  5
2CFD
330
1
100
AcDbSymbolTableRecord
100
AcDbBlockTableRecord
  2
*D65
340
0
  0
ENDTAB
  0
ENDSEC
  0
SECTION
  2
BLOCKS
  0
BLOCK
  5
19
330
18
100
AcDbEntity
  8
0
100
AcDbBlockBegin
  2
*MODEL_SPACE
 70
     0
 10
0.0
 20
0.0
 30
0.0
  3
*MODEL_SPACE
  1

  0
ENDBLK
  5
1A
330
18
100
AcDbEntity
  8
0
100
AcDbBlockEnd
  0
BLOCK
  5
16
330
15
100
AcDbEntity
 67
     1
  8
0
100
AcDbBlockBegin
  2
*PAPER_SPACE
 70
     0
 10
0.0
 20
0.0
 30
0.0
  3
*PAPER_SPACE
  1

  0
ENDBLK
  5
17
330
15
100
AcDbEntity
 67
     1
  8
0
100
AcDbBlockEnd
  0
BLOCK
  5
17FE
330
17F4
100
AcDbEntity
  8
0
100
AcDbBlockBegin
  2
*D0
 70
     1
 10
0.0
 20
0.0
 30
0.0
  3
*D0
  1

  0
LINE
  5
2A61
330
17F4
100
AcDbEntity
  8
KOTIERUNG
 62
     0
370
    -2
100
AcDbLine
 10
7704.714903806006
 20
594.2176536507984
 30
0.0
 11
7244.059380162403
 21
594.2176536507985
 31
0.0
  0
LINE
  5
2A62
330
17F4
100
AcDbEntity
  8
KOTIERUNG
 62
     0
370
    -2
100
AcDbLine
 10
7288.957993642573
 20
-811.6500787589243
 30
0.0
 11
7244.059380162403
 21
-811.6500787589243
 31
0.0
  0
LINE
  5
2A63
330
17F4
100
AcDbEntity
  8
KOTIERUNG
 62
     0
370
    -2
100
AcDbLine
 10
7274.059380162404
 20
564.2176536507985
 30
0.0
 11
7274.059380162404
 21
-781.6500787589243
 31
0.0
  0
SOLID
  5
2A64
330
17F4
100
AcDbEntity
  8
KOTIERUNG
 62
     0
100
AcDbTrace
 10
7269.059380162403
 20
564.2176536507985
 30
0.0
 11
7279.059380162404
 21
564.2176536507985
 31
0.0
 12
7274.059380162404
 22
594.2176536507985
 32
0.0
 13
7274.059380162404
 23
594.2176536507985
 33
0.0
  0
SOLID
  5
2A65
330
17F4
100
AcDbEntity
  8
KOTIERUNG
 62
     0
100
AcDbTrace
 10
7269.059380162403
 20
-781.6500787589243
 30
0.0
 11
7279.059380162404
 21
-781.6500787589243
 31
0.0
 12
7274.059380162404
 22
-811.6500787589243
 32
0.0
 13
7274.059380162404
 23
-811.6500787589243
 33
0.0
  0
MTEXT
  5
2A66
330
17F4
100
AcDbEntity
  8
KOTIERUNG
 62
     0
100
AcDbMText
 10
7249.742190530753
 20
-188.1509664138111
 30
0.0
 40
30.0
 41
0.0
 71
     5
 72
     1
  1
\A1;1406
  7
VOEST
 11
0.0000000000000001
 21
1.0
 31
0.0
 73
     1
 44
1.0
1001
ACAD
1000
MTEXTBEGIN
1070
    73
1070
     1
1070
    44
1040
1.0
1070
    74
1070
     0
1000
MTEXTEND
  0
POINT
  5
2A67
330
17F4
100
AcDbEntity
  8
DEFPOINTS
 62
     0
100
AcDbPoint
 10
7764.714903806005
 20
594.2176536507984
 30
0.0
  0
POINT
  5
2A68
330
17F4
100
AcDbEntity
  8
DEFPOINTS
 62
     0
100
AcDbPoint
 10
7348.957993642573
 20
-811.6500787589243
 30
0.0
  0
POINT
  5
2A69
330
17F4
100
AcDbEntity
  8
DEFPOINTS
 62
     0
100
AcDbPoint
 10
7274.059380162404
 20
-811.6500787589243
 30
0.0
  0
ENDBLK
  5
17FF
330
17F4
100
AcDbEntity
  8
0
100
AcDbBlockEnd
  0
BLOCK
  5
180A
330
1800
100
AcDbEntity
  8
0
100
AcDbBlockBegin
  2
*D1
 70
     1
 10
0.0
 20
0.0
 30
0.0
  3
*D1
  1

  0
LINE
  5
2AB7
330
1800
100
AcDbEntity
  8
KOTIERUNG
 62
     0
370
    -2
100
AcDbLine
 10
7278.193199828942
 20
-741.0825750839989
 30
0.0
 11
7308.193199828941
 21
-741.0825750839989
 31
0.0
  0
LINE
  5
2AB8
330
1800
100
AcDbEntity
  8
KOTIERUNG
 62
     0
370
    -2
100
AcDbLine
 10
7407.075954969508
 20
52.31067605674606
 30
0.0
 11
7308.193199828941
 21
52.31067605674609
 31
0.0
  0
LINE
  5
2AB9
330
1800
100
AcDbEntity
  8
KOTIERUNG
 62
     0
370
    -2
100
AcDbLine
 10
7338.193199828942
 20
-711.0825750839989
 30
0.0
 11
7338.193199828942
 21
22.31067605674608
 31
0.0
  0
SOLID
  5
2ABA
330
1800
100
AcDbEntity
  8
KOTIERUNG
 62
     0
100
AcDbTrace
 10
7333.193199828942
 20
-711.0825750839989
 30
0.0
 11
7343.193199828942
 21
-711.0825750839989
 31
0.0
 12
7338.193199828942
 22
-741.0825750839989
 32
0.0
 13
7338.193199828942
 23
-741.0825750839989
 33
0.0
  0
SOLID
  5
2ABB
330
1800
100
AcDbEntity
  8
KOTIERUNG
 62
     0
100
AcDbTrace
 10
7333.193199828942
 20
22.31067605674608
 30
0.0
 11
7343.193199828942
 21
22.31067605674608
 31
0.0
 12
7338.193199828942
 22
52.31067605674608
 32
0.0
 13
7338.193199828942
 23
52.31067605674608
 33
0.0
  0
MTEXT
  5
2ABC
330
1800
100
AcDbEntity
  8
KOTIERUNG
 62
     0
100
AcDbMText
 10
7313.876010197292
 20
-401.0499237857389
 30
0.0
 40
30.0
 41
0.0
 71
     5
 72
     1
  1
\A1;793
  7
VOEST
 11
0.0000000000000001
 21
1.0
 31
0.0
 73
     1
 44
1.0
1001
ACAD
1000
MTEXTBEGIN
1070
    73
1070
     1
1070
    44
1040
1.0
1070
    74
1070
     0
1000
MTEXTEND
  0
POINT
  5
2ABD
330
1800
100
AcDbEntity
  8
DEFPOINTS
 62
     0
100
AcDbPoint
 10
7338.193199828942
 20
-741.0825750839989
 30
0.0
  0
POINT
  5
2ABE
330
1800
100
AcDbEntity
  8
DEFPOINTS
 62
     0
100
AcDbPoint
 10
7467.075954969508
 20
52.31067605674605
 30
0.0
  0
POINT
  5
2ABF
330
1800
100
AcDbEntity
  8
DEFPOINTS
 62
     0
100
AcDbPoint
 10
7338.193199828942
 20
52.31067605674608
 30
0.0
  0
ENDBLK
  5
180B
330
1800
100
AcDbEntity
  8
0
100
AcDbBlockEnd
  0
BLOCK
  5
1817
330
180C
100
AcDbEntity
  8
0
100
AcDbBlockBegin
  2
*D2
 70
     1
 10
0.0
 20
0.0
 30
0.0
  3
*D2
  1

  0
LINE
  5
205C
330
180C
100
AcDbEntity
  8
KOTIERUNG
 62
     0
370
    -2
100
AcDbLine
 10
7424.163493807604
 20
-785.5482527029593
 30
0.0
 11
7424.163493807604
 21
-529.2859900478934
 31
0.0
  0
LINE
  5
205D
330
180C
100
AcDbEntity
  8
KOTIERUNG
 62
     0
370
    -2
100
AcDbLine
 10
7403.924312514977
 20
-137.0657973729713
 30
0.0
 11
7403.924312514977
 21
-589.2859900478933
 31
0.0
  0
LINE
  5
205E
330
180C
100
AcDbEntity
  8
KOTIERUNG
 62
     0
370
    -2
100
AcDbLine
 10
7373.924312514977
 20
-559.2859900478933
 30
0.0
 11
7343.924312514977
 21
-559.2859900478933
 31
0.0
  0
LINE
  5
205F
330
180C
100
AcDbEntity
  8
KOTIERUNG
 62
     0
370
    -2
100
AcDbLine
 10
7454.163493807605
 20
-559.2859900478933
 30
0.0
 11
7551.110235653981
 21
-559.2859900478933
 31
0.0
  0
SOLID
  5
2060
330
180C
100
AcDbEntity
  8
KOTIERUNG
 62
     0
100
AcDbTrace
 10
7373.924312514977
 20
-554.2859900478934
 30
0.0
 11
7373.924312514977
 21
-564.2859900478933
 31
0.0
 12
7403.924312514977
 22
-559.2859900478933
 32
0.0
 13
7403.924312514977
 23
-559.2859900478933
 33
0.0
  0
SOLID
  5
2061
330
180C
100
AcDbEntity
  8
KOTIERUNG
 62
     0
100
AcDbTrace
 10
7454.163493807605
 20
-554.2859900478934
 30
0.0
 11
7454.163493807605
 21
-564.2859900478933
 31
0.0
 12
7424.163493807604
 22
-559.2859900478933
 32
0.0
 13
7424.163493807604
 23
-559.2859900478933
 33
0.0
  0
MTEXT
  5
2062
330
180C
100
AcDbEntity
  8
KOTIERUNG
 62
     0
100
AcDbMText
 10
7524.327152434334
 20
-534.9688004162426
 30
0.0
 40
30.0
 41
0.0
 71
     5
 72
     1
  1
\A1;20
  7
VOEST
 73
     1
 44
1.0
1001
ACAD
1000
MTEXTBEGIN
1070
    73
1070
     1
1070
    44
1040
1.0
1070
    74
1070
     0
1000
MTEXTEND
  0
POINT
  5
2063
330
180C
100
AcDbEntity
  8
DEFPOINTS
 62
     0
100
AcDbPoint
 10
7424.163493807604
 20
-845.5482527029593
 30
0.0
  0
POINT
  5
2064
330
180C
100
AcDbEntity
  8
DEFPOINTS
 62
     0
100
AcDbPoint
 10
7403.924312514977
 20
-77.06579737297134
 30
0.0
  0
POINT
  5
2065
330
180C
100
AcDbEntity
  8
DEFPOINTS
 62
     0
100
AcDbPoint
 10
7403.924312514977
 20
-559.2859900478933
 30
0.0
  0
ENDBLK
  5
1818
330
180C
100
AcDbEntity
  8
0
100
AcDbBlockEnd
  0
BLOCK
  5
1824
330
1819
100
AcDbEntity
  8
0
100
AcDbBlockBegin
  2
*D3
 70
     1
 10
0.0
 20
0.0
 30
0.0
  3
*D3
  1

  0
LINE
  5
24EB
330
1819
100
AcDbEntity
  8
KOTIERUNG
 62
     0
370
    -2
100
AcDbLine
 10
7397.220539815762
 20
-811.6500787589243
 30
0.0
 11
7367.847963102693
 21
-811.6500787589243
 31
0.0
  0
LINE
  5
24EC
330
1819
100
AcDbEntity
  8
KOTIERUNG
 62
     0
370
    -2
100
AcDbLine
 10
7420.103981304338
 20
-741.0825750839989
 30
0.0
 11
7367.847963102693
 21
-741.0825750839989
 31
0.0
  0
LINE
  5
24ED
330
1819
100
AcDbEntity
  8
KOTIERUNG
 62
     0
370
    -2
100
AcDbLine
 10
7397.847963102693
 20
-841.6500787589242
 30
0.0
 11
7397.847963102693
 21
-871.6500787589243
 31
0.0
  0
LINE
  5
24EE
330
1819
100
AcDbEntity
  8
KOTIERUNG
 62
     0
370
    -2
100
AcDbLine
 10
7397.847963102693
 20
-711.0825750839989
 30
0.0
 11
7397.847963102693
 21
-681.0825750839988
 31
0.0
  0
SOLID
  5
24EF
330
1819
100
AcDbEntity
  8
KOTIERUNG
 62
     0
100
AcDbTrace
 10
7392.847963102693
 20
-841.6500787589242
 30
0.0
 11
7402.847963102693
 21
-841.6500787589242
 31
0.0
 12
7397.847963102693
 22
-811.6500787589243
 32
0.0
 13
7397.847963102693
 23
-811.6500787589243
 33
0.0
  0
SOLID
  5
24F0
330
1819
100
AcDbEntity
  8
KOTIERUNG
 62
     0
100
AcDbTrace
 10
7392.847963102693
 20
-711.0825750839989
 30
0.0
 11
7402.847963102693
 21
-711.0825750839989
 31
0.0
 12
7397.847963102693
 22
-741.0825750839989
 32
0.0
 13
7397.847963102693
 23
-741.0825750839989
 33
0.0
  0
MTEXT
  5
24F1
330
1819
100
AcDbEntity
  8
KOTIERUNG
 62
     0
100
AcDbMText
 10
7373.786571561083
 20
-776.3663269214605
 30
0.0
 40
30.0
 41
0.0
 71
     5
 72
     1
  1
\A1;71
  7
VOEST
 11
0.0000000000000001
 21
1.0
 31
0.0
 73
     1
 44
1.0
1001
ACAD
1000
MTEXTBEGIN
1070
    73
1070
     1
1070
    44
1040
1.0
1070
    74
1070
     0
1000
MTEXTEND
  0
POINT
  5
24F2
330
1819
100
AcDbEntity
  8
DEFPOINTS
 62
     0
100
AcDbPoint
 10
7409.220539815762
 20
-811.6500787589243
 30
0.0
  0
POINT
  5
24F3
330
1819
100
AcDbEntity
  8
DEFPOINTS
 62
     0
100
AcDbPoint
 10
7432.103981304338
 20
-741.082575083999
 30
0.0
  0
POINT
  5
24F4
330
1819
100
AcDbEntity
  8
DEFPOINTS
 62
     0
100
AcDbPoint
 10
7397.847963102693
 20
-741.0825750839989
 30
0.0
  0
ENDBLK
  5
1825
330
1819
100
AcDbEntity
  8
0
100
AcDbBlockEnd
  0
BLOCK
  5
1831
330
1826
100
AcDbEntity
  8
0
100
AcDbBlockBegin
  2
*D4
 70
     1
 10
0.0
 20
0.0
 30
0.0
  3
*D4
  1

  0
LINE
  5
2A9A
330
1826
100
AcDbEntity
  8
KOTIERUNG
 62
     0
370
    -2
100
AcDbLine
 10
7776.256417736838
 20
-521.082575083999
 30
0.0
 11
7627.439678111234
 21
-521.082575083999
 31
0.0
  0
LINE
  5
2A9B
330
1826
100
AcDbEntity
  8
KOTIERUNG
 62
     0
370
    -2
100
AcDbLine
 10
7444.103981304332
 20
-741.082575083999
 30
0.0
 11
7687.439678111234
 21
-741.082575083999
 31
0.0
  0
LINE
  5
2A9C
330
1826
100
AcDbEntity
  8
KOTIERUNG
 62
     0
370
    -2
100
AcDbLine
 10
7657.439678111234
 20
-551.082575083999
 30
0.0
 11
7657.439678111234
 21
-711.082575083999
 31
0.0
  0
LINE
  5
2A9D
330
1826
100
AcDbEntity
  8
KOTIERUNG
 62
     0
370
    -2
100
AcDbLine
 10
7657.439678111234
 20
-741.082575083999
 30
0.0
 11
7657.439678111234
 21
-771.082575083999
 31
0.0
  0
SOLID
  5
2A9E
330
1826
100
AcDbEntity
  8
KOTIERUNG
 62
     0
100
AcDbTrace
 10
7652.439678111234
 20
-551.082575083999
 30
0.0
 11
7662.439678111233
 21
-551.082575083999
 31
0.0
 12
7657.439678111234
 22
-521.082575083999
 32
0.0
 13
7657.439678111234
 23
-521.082575083999
 33
0.0
  0
SOLID
  5
2A9F
330
1826
100
AcDbEntity
  8
KOTIERUNG
 62
     0
100
AcDbTrace
 10
7652.439678111234
 20
-711.082575083999
 30
0.0
 11
7662.439678111233
 21
-711.082575083999
 31
0.0
 12
7657.439678111234
 22
-741.082575083999
 32
0.0
 13
7657.439678111234
 23
-741.082575083999
 33
0.0
  0
MTEXT
  5
2AA0
330
1826
100
AcDbEntity
  8
KOTIERUNG
 62
     0
100
AcDbMText
 10
7657.439678111234
 20
-807.4222749475721
 30
0.0
 40
30.0
 41
0.0
 71
     5
 72
     1
  1
\A1;220
  7
VOEST
 11
0.0000000000000001
 21
1.0
 31
0.0
 73
     1
 44
1.0
1001
ACAD
1000
MTEXTBEGIN
1070
    73
1070
     1
1070
    44
1040
1.0
1070
    74
1070
     0
1000
MTEXTEND
  0
POINT
  5
2AA1
330
1826
100
AcDbEntity
  8
DEFPOINTS
 62
     0
100
AcDbPoint
 10
7788.256417736838
 20
-521.082575083999
 30
0.0
  0
POINT
  5
2AA2
330
1826
100
AcDbEntity
  8
DEFPOINTS
 62
     0
100
AcDbPoint
 10
7432.103981304331
 20
-741.082575083999
 30
0.0
  0
POINT
  5
2AA3
330
1826
100
AcDbEntity
  8
DEFPOINTS
 62
     0
100
AcDbPoint
 10
7657.439678111234
 20
-741.082575083999
 30
0.0
  0
ENDBLK
  5
1832
330
1826
100
AcDbEntity
  8
0
100
AcDbBlockEnd
  0
BLOCK
  5
1CBD
330
1CB3
100
AcDbEntity
  8
0
100
AcDbBlockBegin
  2
*D5
 70
     1
 10
0.0
 20
0.0
 30
0.0
  3
*D5
  1

  0
LINE
  5
1E7E
330
1CB3
100
AcDbEntity
  8
KOTIERUNG
 62
     0
370
    -2
100
AcDbLine
 10
5111.16600567885
 20
-2327.210583144904
 30
0.0
 11
5111.16600567885
 21
-1923.678411047165
 31
0.0
  0
LINE
  5
1E7F
330
1CB3
100
AcDbEntity
  8
KOTIERUNG
 62
     0
370
    -2
100
AcDbLine
 10
8911.16598567885
 20
-2327.210583144904
 30
0.0
 11
8911.16598567885
 21
-1923.678411047165
 31
0.0
  0
LINE
  5
1E80
330
1CB3
100
AcDbEntity
  8
KOTIERUNG
 62
     0
370
    -2
100
AcDbLine
 10
5216.16600567885
 20
-2028.678411047165
 30
0.0
 11
8806.16598567885
 21
-2028.678411047165
 31
0.0
  0
SOLID
  5
1E81
330
1CB3
100
AcDbEntity
  8
KOTIERUNG
 62
     0
100
AcDbTrace
 10
5216.16600567885
 20
-2011.178411047165
 30
0.0
 11
5216.16600567885
 21
-2046.178411047165
 31
0.0
 12
5111.16600567885
 22
-2028.678411047165
 32
0.0
 13
5111.16600567885
 23
-2028.678411047165
 33
0.0
  0
SOLID
  5
1E82
330
1CB3
100
AcDbEntity
  8
KOTIERUNG
 62
     0
100
AcDbTrace
 10
8806.16598567885
 20
-2011.178411047165
 30
0.0
 11
8806.16598567885
 21
-2046.178411047165
 31
0.0
 12
8911.16598567885
 22
-2028.678411047165
 32
0.0
 13
8911.16598567885
 23
-2028.678411047165
 33
0.0
  0
MTEXT
  5
1E83
330
1CB3
100
AcDbEntity
  8
KOTIERUNG
 62
     0
100
AcDbMText
 10
7011.16599567885
 20
-1943.568247336387
 30
0.0
 40
105.0
 41
0.0
 71
     5
 72
     1
  1
\A1;3800
  7
VOEST
 73
     1
 44
1.0
1001
ACAD
1000
MTEXTBEGIN
1070
    73
1070
     1
1070
    44
1040
1.0
1070
    74
1070
     0
1000
MTEXTEND
  0
POINT
  5
1E84
330
1CB3
100
AcDbEntity
  8
DEFPOINTS
 62
     0
100
AcDbPoint
 10
5111.16600567885
 20
-2369.210583144905
 30
0.0
  0
POINT
  5
1E85
330
1CB3
100
AcDbEntity
  8
DEFPOINTS
 62
     0
100
AcDbPoint
 10
8911.16598567885
 20
-2369.210583144905
 30
0.0
  0
POINT
  5
1E86
330
1CB3
100
AcDbEntity
  8
DEFPOINTS
 62
     0
100
AcDbPoint
 10
8911.16598567885
 20
-2028.678411047165
 30
0.0
  0
ENDBLK
  5
1CBE
330
1CB3
100
AcDbEntity
  8
0
100
AcDbBlockEnd
  0
BLOCK
  5
1CC9
330
1CBF
100
AcDbEntity
  8
0
100
AcDbBlockBegin
  2
*D6
 70
     1
 10
0.0
 20
0.0
 30
0.0
  3
*D6
  1

  0
LINE
  5
1EA9
330
1CBF
100
AcDbEntity
  8
KOTIERUNG
 62
     0
370
    -2
100
AcDbLine
 10
6377.832665678848
 20
-2502.092569107607
 30
0.0
 11
6377.832665678848
 21
-2131.328597182203
 31
0.0
  0
LINE
  5
1EAA
330
1CBF
100
AcDbEntity
  8
KOTIERUNG
 62
     0
370
    -2
100
AcDbLine
 10
7644.49932567885
 20
-2502.092569107607
 30
0.0
 11
7644.49932567885
 21
-2131.328597182203
 31
0.0
  0
LINE
  5
1EAB
330
1CBF
100
AcDbEntity
  8
KOTIERUNG
 62
     0
370
    -2
100
AcDbLine
 10
6482.832665678849
 20
-2236.328597182202
 30
0.0
 11
7539.499325678851
 21
-2236.328597182202
 31
0.0
  0
SOLID
  5
1EAC
330
1CBF
100
AcDbEntity
  8
KOTIERUNG
 62
     0
100
AcDbTrace
 10
6482.832665678849
 20
-2218.828597182203
 30
0.0
 11
6482.832665678849
 21
-2253.828597182202
 31
0.0
 12
6377.832665678848
 22
-2236.328597182202
 32
0.0
 13
6377.832665678848
 23
-2236.328597182202
 33
0.0
  0
SOLID
  5
1EAD
330
1CBF
100
AcDbEntity
  8
KOTIERUNG
 62
     0
100
AcDbTrace
 10
7539.499325678851
 20
-2218.828597182203
 30
0.0
 11
7539.499325678851
 21
-2253.828597182202
 31
0.0
 12
7644.49932567885
 22
-2236.328597182202
 32
0.0
 13
7644.49932567885
 23
-2236.328597182202
 33
0.0
  0
MTEXT
  5
1EAE
330
1CBF
100
AcDbEntity
  8
KOTIERUNG
 62
     0
100
AcDbMText
 10
7011.16599567885
 20
-2151.218433471425
 30
0.0
 40
105.0
 41
0.0
 71
     5
 72
     1
  1
\A1;1266
  7
VOEST
 73
     1
 44
1.0
1001
ACAD
1000
MTEXTBEGIN
1070
    73
1070
     1
1070
    44
1040
1.0
1070
    74
1070
     0
1000
MTEXTEND
  0
POINT
  5
1EAF
330
1CBF
100
AcDbEntity
  8
DEFPOINTS
 62
     0
100
AcDbPoint
 10
6377.832665678848
 20
-2544.092569107606
 30
0.0
  0
POINT
  5
1EB0
330
1CBF
100
AcDbEntity
  8
DEFPOINTS
 62
     0
100
AcDbPoint
 10
7644.49932567885
 20
-2544.092569107606
 30
0.0
  0
POINT
  5
1EB1
330
1CBF
100
AcDbEntity
  8
DEFPOINTS
 62
     0
100
AcDbPoint
 10
7644.49932567885
 20
-2236.328597182202
 30
0.0
  0
ENDBLK
  5
1CCA
330
1CBF
100
AcDbEntity
  8
0
100
AcDbBlockEnd
  0
BLOCK
  5
1CD5
330
1CCB
100
AcDbEntity
  8
0
100
AcDbBlockBegin
  2
*D7
 70
     1
 10
0.0
 20
0.0
 30
0.0
  3
*D7
  1

  0
LINE
  5
1FE3
330
1CCB
100
AcDbEntity
  8
KOTIERUNG
 62
     0
100
AcDbLine
 10
6377.832665678848
 20
-2502.092569107607
 30
0.0
 11
6377.832665678848
 21
-2131.328597182203
 31
0.0
  0
LINE
  5
1FE4
330
1CCB
100
AcDbEntity
  8
KOTIERUNG
 62
     0
100
AcDbLine
 10
5111.16600567885
 20
-2502.092569107607
 30
0.0
 11
5111.16600567885
 21
-2131.328597182203
 31
0.0
  0
LINE
  5
1FE5
330
1CCB
100
AcDbEntity
  8
KOTIERUNG
 62
     0
100
AcDbLine
 10
6272.832665678849
 20
-2236.328597182202
 30
0.0
 11
5216.16600567885
 21
-2236.328597182202
 31
0.0
  0
SOLID
  5
1FE6
330
1CCB
100
AcDbEntity
  8
KOTIERUNG
 62
     0
100
AcDbTrace
 10
6272.832665678849
 20
-2218.828597182203
 30
0.0
 11
6272.832665678849
 21
-2253.828597182202
 31
0.0
 12
6377.832665678848
 22
-2236.328597182202
 32
0.0
 13
6377.832665678848
 23
-2236.328597182202
 33
0.0
  0
SOLID
  5
1FE7
330
1CCB
100
AcDbEntity
  8
KOTIERUNG
 62
     0
100
AcDbTrace
 10
5216.16600567885
 20
-2218.828597182203
 30
0.0
 11
5216.16600567885
 21
-2253.828597182202
 31
0.0
 12
5111.16600567885
 22
-2236.328597182202
 32
0.0
 13
5111.16600567885
 23
-2236.328597182202
 33
0.0
  0
MTEXT
  5
1FE8
330
1CCB
100
AcDbEntity
  8
KOTIERUNG
 62
     0
100
AcDbMText
 10
5744.499335678849
 20
-2151.218433471425
 30
0.0
 40
105.0
 41
0.0
 71
     5
 72
     1
  1
\A1;1267
  7
VOEST
 73
     1
 44
1.0
1001
ACAD
1000
MTEXTBEGIN
1070
    73
1070
     1
1070
    44
1040
1.0
1070
    74
1070
     0
1000
MTEXTEND
  0
POINT
  5
1FE9
330
1CCB
100
AcDbEntity
  8
DEFPOINTS
 62
     0
100
AcDbPoint
 10
6377.832665678848
 20
-2544.092569107606
 30
0.0
  0
POINT
  5
1FEA
330
1CCB
100
AcDbEntity
  8
DEFPOINTS
 62
     0
100
AcDbPoint
 10
5111.16600567885
 20
-2544.092569107606
 30
0.0
  0
POINT
  5
1FEB
330
1CCB
100
AcDbEntity
  8
DEFPOINTS
 62
     0
100
AcDbPoint
 10
5111.16600567885
 20
-2236.328597182202
 30
0.0
  0
ENDBLK
  5
1CD6
330
1CCB
100
AcDbEntity
  8
0
100
AcDbBlockEnd
  0
BLOCK
  5
1CE1
330
1CD7
100
AcDbEntity
  8
0
100
AcDbBlockBegin
  2
*D8
 70
     1
 10
0.0
 20
0.0
 30
0.0
  3
*D8
  1

  0
LINE
  5
20C9
330
1CD7
100
AcDbEntity
  8
KOTIERUNG
 62
     0
370
    -2
100
AcDbLine
 10
7644.49932567885
 20
-2502.092569107607
 30
0.0
 11
7644.49932567885
 21
-2131.328597182203
 31
0.0
  0
LINE
  5
20CA
330
1CD7
100
AcDbEntity
  8
KOTIERUNG
 62
     0
370
    -2
100
AcDbLine
 10
8911.16598567885
 20
-2502.092569107607
 30
0.0
 11
8911.16598567885
 21
-2131.328597182203
 31
0.0
  0
LINE
  5
20CB
330
1CD7
100
AcDbEntity
  8
KOTIERUNG
 62
     0
370
    -2
100
AcDbLine
 10
7749.499325678852
 20
-2236.328597182202
 30
0.0
 11
8806.16598567885
 21
-2236.328597182202
 31
0.0
  0
MTEXT
  5
20CC
330
1CD7
100
AcDbEntity
  8
KOTIERUNG
 62
     0
100
AcDbMText
 10
8485.474755295426
 20
-2151.218433471425
 30
0.0
 40
105.0
 41
0.0
 71
     5
 72
     1
  1
\A1;1267
  7
VOEST
 73
     1
 44
1.0
1001
ACAD
1000
MTEXTBEGIN
1070
    73
1070
     1
1070
    44
1040
1.0
1070
    74
1070
     0
1000
MTEXTEND
  0
SOLID
  5
20CD
330
1CD7
100
AcDbEntity
  8
KOTIERUNG
 62
     0
100
AcDbTrace
 10
7749.499325678852
 20
-2218.828597182203
 30
0.0
 11
7749.499325678852
 21
-2253.828597182202
 31
0.0
 12
7644.49932567885
 22
-2236.328597182202
 32
0.0
 13
7644.49932567885
 23
-2236.328597182202
 33
0.0
  0
SOLID
  5
20CE
330
1CD7
100
AcDbEntity
  8
KOTIERUNG
 62
     0
100
AcDbTrace
 10
8806.16598567885
 20
-2218.828597182203
 30
0.0
 11
8806.16598567885
 21
-2253.828597182202
 31
0.0
 12
8911.16598567885
 22
-2236.328597182202
 32
0.0
 13
8911.16598567885
 23
-2236.328597182202
 33
0.0
  0
POINT
  5
20CF
330
1CD7
100
AcDbEntity
  8
DEFPOINTS
 62
     0
100
AcDbPoint
 10
7644.49932567885
 20
-2544.092569107606
 30
0.0
  0
POINT
  5
20D0
330
1CD7
100
AcDbEntity
  8
DEFPOINTS
 62
     0
100
AcDbPoint
 10
8911.16598567885
 20
-2544.092569107606
 30
0.0
  0
POINT
  5
20D1
330
1CD7
100
AcDbEntity
  8
DEFPOINTS
 62
     0
100
AcDbPoint
 10
8911.16598567885
 20
-2236.328597182202
 30
0.0
  0
ENDBLK
  5
1CE2
330
1CD7
100
AcDbEntity
  8
0
100
AcDbBlockEnd
  0
BLOCK
  5
21EA
330
21E0
100
AcDbEntity
  8
0
100
AcDbBlockBegin
  2
*D9
 70
     1
 10
0.0
 20
0.0
 30
0.0
  3
*D9
  1

  0
LINE
  5
22B2
330
21E0
100
AcDbEntity
  8
KOTIERUNG
 62
     0
370
    -2
100
AcDbLine
 10
8042.782031061321
 20
-1031.167059816227
 30
0.0
 11
8042.782031061321
 21
-961.8627200806772
 31
0.0
  0
LINE
  5
22B3
330
21E0
100
AcDbEntity
  8
KOTIERUNG
 62
     0
370
    -2
100
AcDbLine
 10
7712.747772670816
 20
-1047.4822068088
 30
0.0
 11
7712.747772670816
 21
-961.8627200806772
 31
0.0
  0
LINE
  5
22B4
330
21E0
100
AcDbEntity
  8
KOTIERUNG
 62
     0
370
    -2
100
AcDbLine
 10
8012.782031061322
 20
-991.8627200806772
 30
0.0
 11
7742.747772670816
 21
-991.8627200806772
 31
0.0
  0
SOLID
  5
22B5
330
21E0
100
AcDbEntity
  8
KOTIERUNG
 62
     0
100
AcDbTrace
 10
8012.782031061322
 20
-986.8627200806772
 30
0.0
 11
8012.782031061322
 21
-996.8627200806773
 31
0.0
 12
8042.782031061321
 22
-991.8627200806772
 32
0.0
 13
8042.782031061321
 23
-991.8627200806772
 33
0.0
  0
SOLID
  5
22B6
330
21E0
100
AcDbEntity
  8
KOTIERUNG
 62
     0
100
AcDbTrace
 10
7742.747772670816
 20
-986.8627200806772
 30
0.0
 11
7742.747772670816
 21
-996.8627200806773
 31
0.0
 12
7712.747772670816
 22
-991.8627200806772
 32
0.0
 13
7712.747772670816
 23
-991.8627200806772
 33
0.0
  0
MTEXT
  5
22B7
330
21E0
100
AcDbEntity
  8
KOTIERUNG
 62
     0
100
AcDbMText
 10
7877.764901866068
 20
-967.5455304490265
 30
0.0
 40
30.0
 41
0.0
 71
     5
 72
     1
  1
\A1;330
  7
VOEST
 73
     1
 44
1.0
1001
ACAD
1000
MTEXTBEGIN
1070
    73
1070
     1
1070
    44
1040
1.0
1070
    74
1070
     0
1000
MTEXTEND
  0
POINT
  5
22B8
330
21E0
100
AcDbEntity
  8
DEFPOINTS
 62
     0
100
AcDbPoint
 10
8042.782031061321
 20
-1091.167059816227
 30
0.0
  0
POINT
  5
22B9
330
21E0
100
AcDbEntity
  8
DEFPOINTS
 62
     0
100
AcDbPoint
 10
7712.747772670816
 20
-1107.482206808801
 30
0.0
  0
POINT
  5
22BA
330
21E0
100
AcDbEntity
  8
DEFPOINTS
 62
     0
100
AcDbPoint
 10
7712.747772670816
 20
-991.8627200806772
 30
0.0
  0
ENDBLK
  5
21EB
330
21E0
100
AcDbEntity
  8
0
100
AcDbBlockEnd
  0
BLOCK
  5
21F6
330
21EC
100
AcDbEntity
  8
0
100
AcDbBlockBegin
  2
*D10
 70
     1
 10
0.0
 20
0.0
 30
0.0
  3
*D10
  1

  0
LINE
  5
22BB
330
21EC
100
AcDbEntity
  8
KOTIERUNG
 62
     0
370
    -2
100
AcDbLine
 10
7722.747772670814
 20
-1037.482206808801
 30
0.0
 11
7521.902213537599
 21
-1037.4822068088
 31
0.0
  0
LINE
  5
22BC
330
21EC
100
AcDbEntity
  8
KOTIERUNG
 62
     0
370
    -2
100
AcDbLine
 10
7656.762581423951
 20
-1442.020459201963
 30
0.0
 11
7521.902213537599
 21
-1442.020459201963
 31
0.0
  0
LINE
  5
22BD
330
21EC
100
AcDbEntity
  8
KOTIERUNG
 62
     0
370
    -2
100
AcDbLine
 10
7551.902213537601
 20
-1067.482206808801
 30
0.0
 11
7551.902213537601
 21
-1412.020459201963
 31
0.0
  0
SOLID
  5
22BE
330
21EC
100
AcDbEntity
  8
KOTIERUNG
 62
     0
100
AcDbTrace
 10
7546.902213537599
 20
-1067.482206808801
 30
0.0
 11
7556.9022135376
 21
-1067.482206808801
 31
0.0
 12
7551.902213537601
 22
-1037.4822068088
 32
0.0
 13
7551.902213537601
 23
-1037.4822068088
 33
0.0
  0
SOLID
  5
22BF
330
21EC
100
AcDbEntity
  8
KOTIERUNG
 62
     0
100
AcDbTrace
 10
7546.902213537599
 20
-1412.020459201963
 30
0.0
 11
7556.9022135376
 21
-1412.020459201963
 31
0.0
 12
7551.902213537601
 22
-1442.020459201963
 32
0.0
 13
7551.902213537601
 23
-1442.020459201963
 33
0.0
  0
MTEXT
  5
22C0
330
21EC
100
AcDbEntity
  8
KOTIERUNG
 62
     0
100
AcDbMText
 10
7527.585023905949
 20
-1239.751333005381
 30
0.0
 40
30.0
 41
0.0
 71
     5
 72
     1
  1
\A1;405
  7
VOEST
 11
0.0000000000000001
 21
1.0
 31
0.0
 73
     1
 44
1.0
1001
ACAD
1000
MTEXTBEGIN
1070
    73
1070
     1
1070
    44
1040
1.0
1070
    74
1070
     0
1000
MTEXTEND
  0
POINT
  5
22C1
330
21EC
100
AcDbEntity
  8
DEFPOINTS
 62
     0
100
AcDbPoint
 10
7782.747772670814
 20
-1037.482206808801
 30
0.0
  0
POINT
  5
22C2
330
21EC
100
AcDbEntity
  8
DEFPOINTS
 62
     0
100
AcDbPoint
 10
7716.762581423949
 20
-1442.020459201963
 30
0.0
  0
POINT
  5
22C3
330
21EC
100
AcDbEntity
  8
DEFPOINTS
 62
     0
100
AcDbPoint
 10
7551.902213537601
 20
-1442.020459201963
 30
0.0
  0
ENDBLK
  5
21F7
330
21EC
100
AcDbEntity
  8
0
100
AcDbBlockEnd
  0
BLOCK
  5
2202
330
21F8
100
AcDbEntity
  8
0
100
AcDbBlockBegin
  2
*D11
 70
     1
 10
0.0
 20
0.0
 30
0.0
  3
*D11
  1

  0
LINE
  5
2285
330
21F8
100
AcDbEntity
  8
KOTIERUNG
 62
     0
370
    -2
100
AcDbLine
 10
8102.782031061321
 20
-1091.167059816227
 30
0.0
 11
8203.004839089256
 21
-1091.167059816227
 31
0.0
  0
LINE
  5
2286
330
21F8
100
AcDbEntity
  8
KOTIERUNG
 62
     0
370
    -2
100
AcDbLine
 10
8102.782031061318
 20
-1388.335606194538
 30
0.0
 11
8203.004839089256
 21
-1388.335606194538
 31
0.0
  0
LINE
  5
2287
330
21F8
100
AcDbEntity
  8
KOTIERUNG
 62
     0
370
    -2
100
AcDbLine
 10
8173.004839089255
 20
-1121.167059816227
 30
0.0
 11
8173.004839089255
 21
-1358.335606194538
 31
0.0
  0
SOLID
  5
2288
330
21F8
100
AcDbEntity
  8
KOTIERUNG
 62
     0
100
AcDbTrace
 10
8168.004839089254
 20
-1121.167059816227
 30
0.0
 11
8178.004839089256
 21
-1121.167059816227
 31
0.0
 12
8173.004839089255
 22
-1091.167059816227
 32
0.0
 13
8173.004839089255
 23
-1091.167059816227
 33
0.0
  0
SOLID
  5
2289
330
21F8
100
AcDbEntity
  8
KOTIERUNG
 62
     0
100
AcDbTrace
 10
8168.004839089254
 20
-1358.335606194538
 30
0.0
 11
8178.004839089256
 21
-1358.335606194538
 31
0.0
 12
8173.004839089255
 22
-1388.335606194538
 32
0.0
 13
8173.004839089255
 23
-1388.335606194538
 33
0.0
  0
MTEXT
  5
228A
330
21F8
100
AcDbEntity
  8
KOTIERUNG
 62
     0
100
AcDbMText
 10
8148.687649457604
 20
-1240.816786920081
 30
0.0
 40
30.0
 41
0.0
 71
     5
 72
     1
  1
\A1;297
  7
VOEST
 11
0.0000000000000001
 21
1.0
 31
0.0
 73
     1
 44
1.0
1001
ACAD
1000
MTEXTBEGIN
1070
    73
1070
     1
1070
    44
1040
1.0
1070
    74
1070
     0
1000
MTEXTEND
  0
POINT
  5
228B
330
21F8
100
AcDbEntity
  8
DEFPOINTS
 62
     0
100
AcDbPoint
 10
8042.782031061321
 20
-1091.167059816227
 30
0.0
  0
POINT
  5
228C
330
21F8
100
AcDbEntity
  8
DEFPOINTS
 62
     0
100
AcDbPoint
 10
8042.782031061319
 20
-1388.335606194538
 30
0.0
  0
POINT
  5
228D
330
21F8
100
AcDbEntity
  8
DEFPOINTS
 62
     0
100
AcDbPoint
 10
8173.004839089255
 20
-1388.335606194538
 30
0.0
  0
ENDBLK
  5
2203
330
21F8
100
AcDbEntity
  8
0
100
AcDbBlockEnd
  0
BLOCK
  5
220E
330
2204
100
AcDbEntity
  8
0
100
AcDbBlockBegin
  2
*D12
 70
     1
 10
0.0
 20
0.0
 30
0.0
  3
*D12
  1

  0
LINE
  5
228E
330
2204
100
AcDbEntity
  8
KOTIERUNG
 62
     0
370
    -2
100
AcDbLine
 10
8077.396238064068
 20
-1139.751333005382
 30
0.0
 11
8146.915269519661
 21
-1139.751333005382
 31
0.0
  0
LINE
  5
228F
330
2204
100
AcDbEntity
  8
KOTIERUNG
 62
     0
370
    -2
100
AcDbLine
 10
8077.396238064071
 20
-1339.751333005381
 30
0.0
 11
8146.915269519661
 21
-1339.751333005381
 31
0.0
  0
LINE
  5
2290
330
2204
100
AcDbEntity
  8
KOTIERUNG
 62
     0
370
    -2
100
AcDbLine
 10
8116.915269519662
 20
-1169.751333005382
 30
0.0
 11
8116.915269519662
 21
-1309.751333005381
 31
0.0
  0
SOLID
  5
2291
330
2204
100
AcDbEntity
  8
KOTIERUNG
 62
     0
100
AcDbTrace
 10
8111.915269519661
 20
-1169.751333005382
 30
0.0
 11
8121.915269519661
 21
-1169.751333005382
 31
0.0
 12
8116.915269519662
 22
-1139.751333005382
 32
0.0
 13
8116.915269519662
 23
-1139.751333005382
 33
0.0
  0
SOLID
  5
2292
330
2204
100
AcDbEntity
  8
KOTIERUNG
 62
     0
100
AcDbTrace
 10
8111.915269519661
 20
-1309.751333005381
 30
0.0
 11
8121.915269519661
 21
-1309.751333005381
 31
0.0
 12
8116.915269519662
 22
-1339.751333005381
 32
0.0
 13
8116.915269519662
 23
-1339.751333005381
 33
0.0
  0
MTEXT
  5
2293
330
2204
100
AcDbEntity
  8
KOTIERUNG
 62
     0
100
AcDbMText
 10
8092.598079888011
 20
-1239.751333005381
 30
0.0
 40
30.0
 41
0.0
 71
     5
 72
     1
  1
\A1;200
  7
VOEST
 11
0.0000000000000001
 21
1.0
 31
0.0
 73
     1
 44
1.0
1001
ACAD
1000
MTEXTBEGIN
1070
    73
1070
     1
1070
    44
1040
1.0
1070
    74
1070
     0
1000
MTEXTEND
  0
POINT
  5
2294
330
2204
100
AcDbEntity
  8
DEFPOINTS
 62
     0
100
AcDbPoint
 10
8017.396238064069
 20
-1139.751333005382
 30
0.0
  0
POINT
  5
2295
330
2204
100
AcDbEntity
  8
DEFPOINTS
 62
     0
100
AcDbPoint
 10
8017.396238064071
 20
-1339.751333005381
 30
0.0
  0
POINT
  5
2296
330
2204
100
AcDbEntity
  8
DEFPOINTS
 62
     0
100
AcDbPoint
 10
8116.915269519662
 20
-1339.751333005381
 30
0.0
  0
ENDBLK
  5
220F
330
2204
100
AcDbEntity
  8
0
100
AcDbBlockEnd
  0
BLOCK
  5
221A
330
2210
100
AcDbEntity
  8
0
100
AcDbBlockBegin
  2
*D13
 70
     1
 10
0.0
 20
0.0
 30
0.0
  3
*D13
  1

  0
LINE
  5
2297
330
2210
100
AcDbEntity
  8
KOTIERUNG
 62
     0
370
    -2
100
AcDbLine
 10
7688.099307277565
 20
-1107.482206808801
 30
0.0
 11
7618.6992983015
 21
-1107.482206808801
 31
0.0
  0
LINE
  5
2298
330
2210
100
AcDbEntity
  8
KOTIERUNG
 62
     0
370
    -2
100
AcDbLine
 10
7688.099307277565
 20
-1367.4822068088
 30
0.0
 11
7618.6992983015
 21
-1367.4822068088
 31
0.0
  0
LINE
  5
2299
330
2210
100
AcDbEntity
  8
KOTIERUNG
 62
     0
370
    -2
100
AcDbLine
 10
7648.699298301501
 20
-1137.482206808801
 30
0.0
 11
7648.699298301501
 21
-1337.4822068088
 31
0.0
  0
SOLID
  5
229A
330
2210
100
AcDbEntity
  8
KOTIERUNG
 62
     0
100
AcDbTrace
 10
7643.6992983015
 20
-1137.482206808801
 30
0.0
 11
7653.699298301501
 21
-1137.482206808801
 31
0.0
 12
7648.699298301501
 22
-1107.482206808801
 32
0.0
 13
7648.699298301501
 23
-1107.482206808801
 33
0.0
  0
SOLID
  5
229B
330
2210
100
AcDbEntity
  8
KOTIERUNG
 62
     0
100
AcDbTrace
 10
7643.6992983015
 20
-1337.4822068088
 30
0.0
 11
7653.699298301501
 21
-1337.4822068088
 31
0.0
 12
7648.699298301501
 22
-1367.4822068088
 32
0.0
 13
7648.699298301501
 23
-1367.4822068088
 33
0.0
  0
MTEXT
  5
229C
330
2210
100
AcDbEntity
  8
KOTIERUNG
 62
     0
100
AcDbMText
 10
7624.38210866985
 20
-1237.482206808799
 30
0.0
 40
30.0
 41
0.0
 71
     5
 72
     1
  1
\A1;260
  7
VOEST
 11
0.0000000000000001
 21
1.0
 31
0.0
 73
     1
 44
1.0
1001
ACAD
1000
MTEXTBEGIN
1070
    73
1070
     1
1070
    44
1040
1.0
1070
    74
1070
     0
1000
MTEXTEND
  0
POINT
  5
229D
330
2210
100
AcDbEntity
  8
DEFPOINTS
 62
     0
100
AcDbPoint
 10
7748.099307277565
 20
-1107.482206808801
 30
0.0
  0
POINT
  5
229E
330
2210
100
AcDbEntity
  8
DEFPOINTS
 62
     0
100
AcDbPoint
 10
7748.099307277565
 20
-1367.4822068088
 30
0.0
  0
POINT
  5
229F
330
2210
100
AcDbEntity
  8
DEFPOINTS
 62
     0
100
AcDbPoint
 10
7648.699298301501
 20
-1367.4822068088
 30
0.0
  0
ENDBLK
  5
221B
330
2210
100
AcDbEntity
  8
0
100
AcDbBlockEnd
  0
BLOCK
  5
2226
330
221C
100
AcDbEntity
  8
0
100
AcDbBlockBegin
  2
*D14
 70
     1
 10
0.0
 20
0.0
 30
0.0
  3
*D14
  1

  0
LINE
  5
22A0
330
221C
100
AcDbEntity
  8
KOTIERUNG
 62
     0
370
    -2
100
AcDbLine
 10
7977.747772670816
 20
-1434.399798398635
 30
0.0
 11
7977.747772670816
 21
-1533.453109325191
 31
0.0
  0
LINE
  5
22A1
330
221C
100
AcDbEntity
  8
KOTIERUNG
 62
     0
370
    -2
100
AcDbLine
 10
7782.747772670815
 20
-1462.130672202054
 30
0.0
 11
7782.747772670815
 21
-1533.453109325191
 31
0.0
  0
LINE
  5
22A2
330
221C
100
AcDbEntity
  8
KOTIERUNG
 62
     0
370
    -2
100
AcDbLine
 10
7947.747772670815
 20
-1503.453109325191
 30
0.0
 11
7812.747772670816
 21
-1503.453109325191
 31
0.0
  0
SOLID
  5
22A3
330
221C
100
AcDbEntity
  8
KOTIERUNG
 62
     0
100
AcDbTrace
 10
7947.747772670815
 20
-1498.453109325191
 30
0.0
 11
7947.747772670815
 21
-1508.453109325191
 31
0.0
 12
7977.747772670816
 22
-1503.453109325191
 32
0.0
 13
7977.747772670816
 23
-1503.453109325191
 33
0.0
  0
SOLID
  5
22A4
330
221C
100
AcDbEntity
  8
KOTIERUNG
 62
     0
100
AcDbTrace
 10
7812.747772670816
 20
-1498.453109325191
 30
0.0
 11
7812.747772670816
 21
-1508.453109325191
 31
0.0
 12
7782.747772670815
 22
-1503.453109325191
 32
0.0
 13
7782.747772670815
 23
-1503.453109325191
 33
0.0
  0
MTEXT
  5
22A5
330
221C
100
AcDbEntity
  8
KOTIERUNG
 62
     0
100
AcDbMText
 10
7880.247772670816
 20
-1479.13591969354
 30
0.0
 40
30.0
 41
0.0
 71
     5
 72
     1
  1
\A1;195
  7
VOEST
 73
     1
 44
1.0
1001
ACAD
1000
MTEXTBEGIN
1070
    73
1070
     1
1070
    44
1040
1.0
1070
    74
1070
     0
1000
MTEXTEND
  0
POINT
  5
22A6
330
221C
100
AcDbEntity
  8
DEFPOINTS
 62
     0
100
AcDbPoint
 10
7977.747772670816
 20
-1374.399798398635
 30
0.0
  0
POINT
  5
22A7
330
221C
100
AcDbEntity
  8
DEFPOINTS
 62
     0
100
AcDbPoint
 10
7782.747772670815
 20
-1402.130672202054
 30
0.0
  0
POINT
  5
22A8
330
221C
100
AcDbEntity
  8
DEFPOINTS
 62
     0
100
AcDbPoint
 10
7782.747772670815
 20
-1503.453109325191
 30
0.0
  0
ENDBLK
  5
2227
330
221C
100
AcDbEntity
  8
0
100
AcDbBlockEnd
  0
BLOCK
  5
2232
330
2228
100
AcDbEntity
  8
0
100
AcDbBlockBegin
  2
*D15
 70
     1
 10
0.0
 20
0.0
 30
0.0
  3
*D15
  1

  0
LINE
  5
22A9
330
2228
100
AcDbEntity
  8
KOTIERUNG
 62
     0
370
    -2
100
AcDbLine
 10
7424.213966511863
 20
-948.1509664138112
 30
0.0
 11
7424.213966511863
 21
-1533.453109325191
 31
0.0
  0
LINE
  5
22AA
330
2228
100
AcDbEntity
  8
KOTIERUNG
 62
     0
370
    -2
100
AcDbLine
 10
7782.747772670815
 20
-1462.130672202054
 30
0.0
 11
7782.747772670815
 21
-1533.453109325191
 31
0.0
  0
LINE
  5
22AB
330
2228
100
AcDbEntity
  8
KOTIERUNG
 62
     0
370
    -2
100
AcDbLine
 10
7454.213966511862
 20
-1503.453109325191
 30
0.0
 11
7752.747772670815
 21
-1503.453109325191
 31
0.0
  0
SOLID
  5
22AC
330
2228
100
AcDbEntity
  8
KOTIERUNG
 62
     0
100
AcDbTrace
 10
7454.213966511862
 20
-1498.453109325191
 30
0.0
 11
7454.213966511862
 21
-1508.453109325191
 31
0.0
 12
7424.213966511863
 22
-1503.453109325191
 32
0.0
 13
7424.213966511863
 23
-1503.453109325191
 33
0.0
  0
SOLID
  5
22AD
330
2228
100
AcDbEntity
  8
KOTIERUNG
 62
     0
100
AcDbTrace
 10
7752.747772670815
 20
-1498.453109325191
 30
0.0
 11
7752.747772670815
 21
-1508.453109325191
 31
0.0
 12
7782.747772670815
 22
-1503.453109325191
 32
0.0
 13
7782.747772670815
 23
-1503.453109325191
 33
0.0
  0
MTEXT
  5
22AE
330
2228
100
AcDbEntity
  8
KOTIERUNG
 62
     0
100
AcDbMText
 10
7603.480869591338
 20
-1479.13591969354
 30
0.0
 40
30.0
 41
0.0
 71
     5
 72
     1
  1
\A1;360
  7
VOEST
 73
     1
 44
1.0
1001
ACAD
1000
MTEXTBEGIN
1070
    73
1070
     1
1070
    44
1040
1.0
1070
    74
1070
     0
1000
MTEXTEND
  0
POINT
  5
22AF
330
2228
100
AcDbEntity
  8
DEFPOINTS
 62
     0
100
AcDbPoint
 10
7424.213966511863
 20
-888.1509664138111
 30
0.0
  0
POINT
  5
22B0
330
2228
100
AcDbEntity
  8
DEFPOINTS
 62
     0
100
AcDbPoint
 10
7782.747772670815
 20
-1402.130672202054
 30
0.0
  0
POINT
  5
22B1
330
2228
100
AcDbEntity
  8
DEFPOINTS
 62
     0
100
AcDbPoint
 10
7782.747772670815
 20
-1503.453109325191
 30
0.0
  0
ENDBLK
  5
2233
330
2228
100
AcDbEntity
  8
0
100
AcDbBlockEnd
  0
BLOCK
  5
23A1
330
23A0
100
AcDbEntity
  8
0
100
AcDbBlockBegin
  2
*D16
 70
     1
 10
0.0
 20
0.0
 30
0.0
  3
*D16
  1

  0
LINE
  5
28E8
330
23A0
100
AcDbEntity
  8
KOTIERUNG
 62
     0
370
    -2
100
AcDbLine
 10
-131.1406575425953
 20
511.8490335861893
 30
0.0
 11
-549.9110136539874
 21
511.8490335861895
 31
0.0
  0
LINE
  5
28E9
330
23A0
100
AcDbEntity
  8
KOTIERUNG
 62
     0
370
    -2
100
AcDbLine
 10
-505.0124001738185
 20
-888.1509664138102
 30
0.0
 11
-549.9110136539878
 21
-888.1509664138102
 31
0.0
  0
LINE
  5
28EA
330
23A0
100
AcDbEntity
  8
KOTIERUNG
 62
     0
370
    -2
100
AcDbLine
 10
-519.9110136539874
 20
481.8490335861894
 30
0.0
 11
-519.9110136539878
 21
-858.1509664138103
 31
0.0
  0
SOLID
  5
28EB
330
23A0
100
AcDbEntity
  8
KOTIERUNG
 62
     0
100
AcDbTrace
 10
-524.9110136539874
 20
481.8490335861894
 30
0.0
 11
-514.9110136539873
 21
481.8490335861894
 31
0.0
 12
-519.9110136539874
 22
511.8490335861894
 32
0.0
 13
-519.9110136539874
 23
511.8490335861894
 33
0.0
  0
SOLID
  5
28EC
330
23A0
100
AcDbEntity
  8
KOTIERUNG
 62
     0
100
AcDbTrace
 10
-524.9110136539878
 20
-858.1509664138103
 30
0.0
 11
-514.9110136539877
 21
-858.1509664138103
 31
0.0
 12
-519.9110136539878
 22
-888.1509664138102
 32
0.0
 13
-519.9110136539878
 23
-888.1509664138102
 33
0.0
  0
MTEXT
  5
28ED
330
23A0
100
AcDbEntity
  8
KOTIERUNG
 62
     0
100
AcDbMText
 10
-544.2282032856383
 20
-188.1509664138102
 30
0.0
 40
30.0
 41
0.0
 71
     5
 72
     1
  1
\A1;1400
  7
VOEST
 11
0.0000000000000001
 21
1.0
 31
0.0
 73
     1
 44
1.0
1001
ACAD
1000
MTEXTBEGIN
1070
    73
1070
     1
1070
    44
1040
1.0
1070
    74
1070
     0
1000
MTEXTEND
  0
POINT
  5
28EE
330
23A0
100
AcDbEntity
  8
DEFPOINTS
 62
     0
100
AcDbPoint
 10
-71.14065754259536
 20
511.8490335861893
 30
0.0
  0
POINT
  5
28EF
330
23A0
100
AcDbEntity
  8
DEFPOINTS
 62
     0
100
AcDbPoint
 10
-445.0124001738186
 20
-888.1509664138102
 30
0.0
  0
POINT
  5
28F0
330
23A0
100
AcDbEntity
  8
DEFPOINTS
 62
     0
100
AcDbPoint
 10
-519.9110136539878
 20
-888.1509664138102
 30
0.0
  0
ENDBLK
  5
23A2
330
23A0
100
AcDbEntity
  8
0
100
AcDbBlockEnd
  0
BLOCK
  5
23AD
330
23AC
100
AcDbEntity
  8
0
100
AcDbBlockBegin
  2
*D17
 70
     1
 10
0.0
 20
0.0
 30
0.0
  3
*D17
  1

  0
LINE
  5
28F1
330
23AC
100
AcDbEntity
  8
KOTIERUNG
 62
     0
370
    -2
100
AcDbLine
 10
-505.0124001738185
 20
-888.1509664138102
 30
0.0
 11
-485.7771939874494
 21
-888.1509664138102
 31
0.0
  0
LINE
  5
28F2
330
23AC
100
AcDbEntity
  8
KOTIERUNG
 62
     0
370
    -2
100
AcDbLine
 10
-375.6405817707
 20
-18.15096641381068
 30
0.0
 11
-485.7771939874492
 21
-18.15096641381065
 31
0.0
  0
LINE
  5
28F3
330
23AC
100
AcDbEntity
  8
KOTIERUNG
 62
     0
370
    -2
100
AcDbLine
 10
-455.7771939874493
 20
-858.1509664138103
 30
0.0
 11
-455.7771939874491
 21
-48.15096641381066
 31
0.0
  0
SOLID
  5
28F4
330
23AC
100
AcDbEntity
  8
KOTIERUNG
 62
     0
100
AcDbTrace
 10
-460.7771939874494
 20
-858.1509664138103
 30
0.0
 11
-450.7771939874493
 21
-858.1509664138103
 31
0.0
 12
-455.7771939874493
 22
-888.1509664138102
 32
0.0
 13
-455.7771939874493
 23
-888.1509664138102
 33
0.0
  0
SOLID
  5
28F5
330
23AC
100
AcDbEntity
  8
KOTIERUNG
 62
     0
100
AcDbTrace
 10
-460.7771939874492
 20
-48.15096641381066
 30
0.0
 11
-450.7771939874491
 21
-48.15096641381066
 31
0.0
 12
-455.7771939874491
 22
-18.15096641381066
 32
0.0
 13
-455.7771939874491
 23
-18.15096641381066
 33
0.0
  0
MTEXT
  5
28F6
330
23AC
100
AcDbEntity
  8
KOTIERUNG
 62
     0
100
AcDbMText
 10
-480.0943836191
 20
-401.0499237857379
 30
0.0
 40
30.0
 41
0.0
 71
     5
 72
     1
  1
\A1;870
  7
VOEST
 11
0.0000000000000001
 21
1.0
 31
0.0
 73
     1
 44
1.0
1001
ACAD
1000
MTEXTBEGIN
1070
    73
1070
     1
1070
    44
1040
1.0
1070
    74
1070
     0
1000
MTEXTEND
  0
POINT
  5
28F7
330
23AC
100
AcDbEntity
  8
DEFPOINTS
 62
     0
100
AcDbPoint
 10
-445.0124001738186
 20
-888.1509664138102
 30
0.0
  0
POINT
  5
28F8
330
23AC
100
AcDbEntity
  8
DEFPOINTS
 62
     0
100
AcDbPoint
 10
-315.6405817707
 20
-18.15096641381069
 30
0.0
  0
POINT
  5
28F9
330
23AC
100
AcDbEntity
  8
DEFPOINTS
 62
     0
100
AcDbPoint
 10
-455.7771939874491
 20
-18.15096641381066
 30
0.0
  0
ENDBLK
  5
23AE
330
23AC
100
AcDbEntity
  8
0
100
AcDbBlockEnd
  0
BLOCK
  5
23B9
330
23B8
100
AcDbEntity
  8
0
100
AcDbBlockBegin
  2
*D18
 70
     1
 10
0.0
 20
0.0
 30
0.0
  3
*D18
  1

  0
LINE
  5
28FA
330
23B8
100
AcDbEntity
  8
KOTIERUNG
 62
     0
370
    -2
100
AcDbLine
 10
-369.8069000087862
 20
-785.5482527029583
 30
0.0
 11
-369.8069000087862
 21
-529.2859900478925
 31
0.0
  0
LINE
  5
28FB
330
23B8
100
AcDbEntity
  8
KOTIERUNG
 62
     0
370
    -2
100
AcDbLine
 10
-390.0460813014142
 20
-137.0657973729704
 30
0.0
 11
-390.0460813014143
 21
-589.2859900478924
 31
0.0
  0
LINE
  5
28FC
330
23B8
100
AcDbEntity
  8
KOTIERUNG
 62
     0
370
    -2
100
AcDbLine
 10
-420.0460813014142
 20
-559.2859900478925
 30
0.0
 11
-450.0460813014142
 21
-559.2859900478925
 31
0.0
  0
LINE
  5
28FD
330
23B8
100
AcDbEntity
  8
KOTIERUNG
 62
     0
370
    -2
100
AcDbLine
 10
-339.8069000087862
 20
-559.2859900478925
 30
0.0
 11
-242.8601581624114
 21
-559.2859900478925
 31
0.0
  0
SOLID
  5
28FE
330
23B8
100
AcDbEntity
  8
KOTIERUNG
 62
     0
100
AcDbTrace
 10
-420.0460813014142
 20
-554.2859900478925
 30
0.0
 11
-420.0460813014142
 21
-564.2859900478924
 31
0.0
 12
-390.0460813014143
 22
-559.2859900478925
 32
0.0
 13
-390.0460813014143
 23
-559.2859900478925
 33
0.0
  0
SOLID
  5
28FF
330
23B8
100
AcDbEntity
  8
KOTIERUNG
 62
     0
100
AcDbTrace
 10
-339.8069000087862
 20
-554.2859900478925
 30
0.0
 11
-339.8069000087862
 21
-564.2859900478924
 31
0.0
 12
-369.8069000087862
 22
-559.2859900478925
 32
0.0
 13
-369.8069000087862
 23
-559.2859900478925
 33
0.0
  0
MTEXT
  5
2900
330
23B8
100
AcDbEntity
  8
KOTIERUNG
 62
     0
100
AcDbMText
 10
-269.6432413820566
 20
-534.9688004162417
 30
0.0
 40
30.0
 41
0.0
 71
     5
 72
     1
  1
\A1;20
  7
VOEST
 73
     1
 44
1.0
1001
ACAD
1000
MTEXTBEGIN
1070
    73
1070
     1
1070
    44
1040
1.0
1070
    74
1070
     0
1000
MTEXTEND
  0
POINT
  5
2901
330
23B8
100
AcDbEntity
  8
DEFPOINTS
 62
     0
100
AcDbPoint
 10
-369.8069000087862
 20
-845.5482527029584
 30
0.0
  0
POINT
  5
2902
330
23B8
100
AcDbEntity
  8
DEFPOINTS
 62
     0
100
AcDbPoint
 10
-390.0460813014142
 20
-77.06579737297044
 30
0.0
  0
POINT
  5
2903
330
23B8
100
AcDbEntity
  8
DEFPOINTS
 62
     0
100
AcDbPoint
 10
-390.0460813014143
 20
-559.2859900478925
 30
0.0
  0
ENDBLK
  5
23BA
330
23B8
100
AcDbEntity
  8
0
100
AcDbBlockEnd
  0
BLOCK
  5
23C6
330
23C5
100
AcDbEntity
  8
0
100
AcDbBlockBegin
  2
*D19
 70
     1
 10
0.0
 20
0.0
 30
0.0
  3
*D19
  1

  0
LINE
  5
2904
330
23C5
100
AcDbEntity
  8
KOTIERUNG
 62
     0
370
    -2
100
AcDbLine
 10
-381.7564273045291
 20
-888.1509664138102
 30
0.0
 11
-426.1224307136981
 21
-888.1509664138102
 31
0.0
  0
LINE
  5
2905
330
23C5
100
AcDbEntity
  8
KOTIERUNG
 62
     0
370
    -2
100
AcDbLine
 10
-274.8831912692731
 20
-738.6245439634462
 30
0.0
 11
-426.1224307136981
 21
-738.6245439634462
 31
0.0
  0
LINE
  5
2906
330
23C5
100
AcDbEntity
  8
KOTIERUNG
 62
     0
370
    -2
100
AcDbLine
 10
-396.1224307136981
 20
-858.1509664138103
 30
0.0
 11
-396.1224307136981
 21
-768.6245439634462
 31
0.0
  0
SOLID
  5
2907
330
23C5
100
AcDbEntity
  8
KOTIERUNG
 62
     0
100
AcDbTrace
 10
-401.1224307136981
 20
-858.1509664138103
 30
0.0
 11
-391.1224307136981
 21
-858.1509664138103
 31
0.0
 12
-396.1224307136981
 22
-888.1509664138102
 32
0.0
 13
-396.1224307136981
 23
-888.1509664138102
 33
0.0
  0
SOLID
  5
2908
330
23C5
100
AcDbEntity
  8
KOTIERUNG
 62
     0
100
AcDbTrace
 10
-401.1224307136981
 20
-768.6245439634462
 30
0.0
 11
-391.1224307136981
 21
-768.6245439634462
 31
0.0
 12
-396.1224307136981
 22
-738.6245439634462
 32
0.0
 13
-396.1224307136981
 23
-738.6245439634462
 33
0.0
  0
MTEXT
  5
2909
330
23C5
100
AcDbEntity
  8
KOTIERUNG
 62
     0
100
AcDbMText
 10
-420.4396203453487
 20
-813.3877551886284
 30
0.0
 40
30.0
 41
0.0
 71
     5
 72
     1
  1
\A1;150
  7
VOEST
 11
0.0000000000000001
 21
1.0
 31
0.0
 73
     1
 44
1.0
1001
ACAD
1000
MTEXTBEGIN
1070
    73
1070
     1
1070
    44
1040
1.0
1070
    74
1070
     0
1000
MTEXTEND
  0
POINT
  5
290A
330
23C5
100
AcDbEntity
  8
DEFPOINTS
 62
     0
100
AcDbPoint
 10
-369.7564273045291
 20
-888.1509664138102
 30
0.0
  0
POINT
  5
290B
330
23C5
100
AcDbEntity
  8
DEFPOINTS
 62
     0
100
AcDbPoint
 10
-262.8831912692731
 20
-738.6245439634462
 30
0.0
  0
POINT
  5
290C
330
23C5
100
AcDbEntity
  8
DEFPOINTS
 62
     0
100
AcDbPoint
 10
-396.1224307136981
 20
-738.6245439634462
 30
0.0
  0
ENDBLK
  5
23C7
330
23C5
100
AcDbEntity
  8
0
100
AcDbBlockEnd
  0
BLOCK
  5
23D2
330
23D1
100
AcDbEntity
  8
0
100
AcDbBlockBegin
  2
*D20
 70
     1
 10
0.0
 20
0.0
 30
0.0
  3
*D20
  1

  0
LINE
  5
290D
330
23D1
100
AcDbEntity
  8
KOTIERUNG
 62
     0
370
    -2
100
AcDbLine
 10
-12.6695285827318
 20
-598.1509664138107
 30
0.0
 11
-166.5307157051576
 21
-598.1509664138107
 31
0.0
  0
LINE
  5
290E
330
23D1
100
AcDbEntity
  8
KOTIERUNG
 62
     0
370
    -2
100
AcDbLine
 10
-357.6750256969463
 20
-887.5181869423448
 30
0.0
 11
-106.5307157051576
 21
-887.5181869423448
 31
0.0
  0
LINE
  5
290F
330
23D1
100
AcDbEntity
  8
KOTIERUNG
 62
     0
370
    -2
100
AcDbLine
 10
-136.5307157051576
 20
-628.1509664138106
 30
0.0
 11
-136.5307157051576
 21
-714.0273306702907
 31
0.0
  0
LINE
  5
2910
330
23D1
100
AcDbEntity
  8
KOTIERUNG
 62
     0
370
    -2
100
AcDbLine
 10
-136.5307157051576
 20
-857.5181869423449
 30
0.0
 11
-136.5307157051576
 21
-786.8499773278622
 31
0.0
  0
SOLID
  5
2911
330
23D1
100
AcDbEntity
  8
KOTIERUNG
 62
     0
100
AcDbTrace
 10
-141.5307157051576
 20
-628.1509664138106
 30
0.0
 11
-131.5307157051575
 21
-628.1509664138106
 31
0.0
 12
-136.5307157051576
 22
-598.1509664138107
 32
0.0
 13
-136.5307157051576
 23
-598.1509664138107
 33
0.0
  0
SOLID
  5
2912
330
23D1
100
AcDbEntity
  8
KOTIERUNG
 62
     0
100
AcDbTrace
 10
-141.5307157051576
 20
-857.5181869423449
 30
0.0
 11
-131.5307157051576
 21
-857.5181869423449
 31
0.0
 12
-136.5307157051576
 22
-887.5181869423448
 32
0.0
 13
-136.5307157051576
 23
-887.5181869423448
 33
0.0
  0
MTEXT
  5
2913
330
23D1
100
AcDbEntity
  8
KOTIERUNG
 62
     0
100
AcDbMText
 10
-136.5307157051575
 20
-750.4386539990764
 30
0.0
 40
30.0
 41
0.0
 71
     5
 72
     1
  1
\A1;289
  7
VOEST
 11
0.0000000000000001
 21
1.0
 31
0.0
 73
     1
 44
1.0
1001
ACAD
1000
MTEXTBEGIN
1070
    73
1070
     1
1070
    44
1040
1.0
1070
    74
1070
     0
1000
MTEXTEND
  0
POINT
  5
2914
330
23D1
100
AcDbEntity
  8
DEFPOINTS
 62
     0
100
AcDbPoint
 10
-0.6695285827318003
 20
-598.1509664138107
 30
0.0
  0
POINT
  5
2915
330
23D1
100
AcDbEntity
  8
DEFPOINTS
 62
     0
100
AcDbPoint
 10
-369.6750256969462
 20
-887.5181869423448
 30
0.0
  0
POINT
  5
2916
330
23D1
100
AcDbEntity
  8
DEFPOINTS
 62
     0
100
AcDbPoint
 10
-136.5307157051576
 20
-887.5181869423448
 30
0.0
  0
ENDBLK
  5
23D3
330
23D1
100
AcDbEntity
  8
0
100
AcDbBlockEnd
  0
BLOCK
  5
23DF
330
23DE
100
AcDbEntity
  8
0
100
AcDbBlockBegin
  2
*D21
 70
     1
 10
0.0
 20
0.0
 30
0.0
  3
*D21
  1

  0
LINE
  5
2917
330
23DE
100
AcDbEntity
  8
KOTIERUNG
 62
     0
370
    -2
100
AcDbLine
 10
248.8116372449304
 20
-1031.167059816226
 30
0.0
 11
248.8116372449304
 21
-961.8627200806763
 31
0.0
  0
LINE
  5
2918
330
23DE
100
AcDbEntity
  8
KOTIERUNG
 62
     0
370
    -2
100
AcDbLine
 10
-81.22262114557543
 20
-1047.4822068088
 30
0.0
 11
-81.22262114557541
 21
-961.8627200806763
 31
0.0
  0
LINE
  5
2919
330
23DE
100
AcDbEntity
  8
KOTIERUNG
 62
     0
370
    -2
100
AcDbLine
 10
218.8116372449304
 20
-991.8627200806763
 30
0.0
 11
-51.22262114557543
 21
-991.8627200806763
 31
0.0
  0
SOLID
  5
291A
330
23DE
100
AcDbEntity
  8
KOTIERUNG
 62
     0
100
AcDbTrace
 10
218.8116372449304
 20
-986.8627200806763
 30
0.0
 11
218.8116372449304
 21
-996.8627200806762
 31
0.0
 12
248.8116372449304
 22
-991.8627200806763
 32
0.0
 13
248.8116372449304
 23
-991.8627200806763
 33
0.0
  0
SOLID
  5
291B
330
23DE
100
AcDbEntity
  8
KOTIERUNG
 62
     0
100
AcDbTrace
 10
-51.22262114557543
 20
-986.8627200806763
 30
0.0
 11
-51.22262114557543
 21
-996.8627200806762
 31
0.0
 12
-81.22262114557543
 22
-991.8627200806763
 32
0.0
 13
-81.22262114557543
 23
-991.8627200806763
 33
0.0
  0
MTEXT
  5
291C
330
23DE
100
AcDbEntity
  8
KOTIERUNG
 62
     0
100
AcDbMText
 10
83.79450804967746
 20
-967.5455304490256
 30
0.0
 40
30.0
 41
0.0
 71
     5
 72
     1
  1
\A1;330
  7
VOEST
 73
     1
 44
1.0
1001
ACAD
1000
MTEXTBEGIN
1070
    73
1070
     1
1070
    44
1040
1.0
1070
    74
1070
     0
1000
MTEXTEND
  0
POINT
  5
291D
330
23DE
100
AcDbEntity
  8
DEFPOINTS
 62
     0
100
AcDbPoint
 10
248.8116372449304
 20
-1091.167059816226
 30
0.0
  0
POINT
  5
291E
330
23DE
100
AcDbEntity
  8
DEFPOINTS
 62
     0
100
AcDbPoint
 10
-81.22262114557543
 20
-1107.4822068088
 30
0.0
  0
POINT
  5
291F
330
23DE
100
AcDbEntity
  8
DEFPOINTS
 62
     0
100
AcDbPoint
 10
-81.22262114557543
 20
-991.8627200806763
 30
0.0
  0
ENDBLK
  5
23E0
330
23DE
100
AcDbEntity
  8
0
100
AcDbBlockEnd
  0
BLOCK
  5
23EB
330
23EA
100
AcDbEntity
  8
0
100
AcDbBlockBegin
  2
*D22
 70
     1
 10
0.0
 20
0.0
 30
0.0
  3
*D22
  1

  0
LINE
  5
2920
330
23EA
100
AcDbEntity
  8
KOTIERUNG
 62
     0
370
    -2
100
AcDbLine
 10
-71.22262114557725
 20
-1037.4822068088
 30
0.0
 11
-272.0681802787914
 21
-1037.4822068088
 31
0.0
  0
LINE
  5
2921
330
23EA
100
AcDbEntity
  8
KOTIERUNG
 62
     0
370
    -2
100
AcDbLine
 10
-137.2078123924411
 20
-1442.020459201962
 30
0.0
 11
-272.0681802787915
 21
-1442.020459201962
 31
0.0
  0
LINE
  5
2922
330
23EA
100
AcDbEntity
  8
KOTIERUNG
 62
     0
370
    -2
100
AcDbLine
 10
-242.0681802787914
 20
-1067.4822068088
 30
0.0
 11
-242.0681802787915
 21
-1412.020459201962
 31
0.0
  0
SOLID
  5
2923
330
23EA
100
AcDbEntity
  8
KOTIERUNG
 62
     0
100
AcDbTrace
 10
-247.0681802787914
 20
-1067.4822068088
 30
0.0
 11
-237.0681802787914
 21
-1067.4822068088
 31
0.0
 12
-242.0681802787914
 22
-1037.4822068088
 32
0.0
 13
-242.0681802787914
 23
-1037.4822068088
 33
0.0
  0
SOLID
  5
2924
330
23EA
100
AcDbEntity
  8
KOTIERUNG
 62
     0
100
AcDbTrace
 10
-247.0681802787915
 20
-1412.020459201962
 30
0.0
 11
-237.0681802787915
 21
-1412.020459201962
 31
0.0
 12
-242.0681802787915
 22
-1442.020459201962
 32
0.0
 13
-242.0681802787915
 23
-1442.020459201962
 33
0.0
  0
MTEXT
  5
2925
330
23EA
100
AcDbEntity
  8
KOTIERUNG
 62
     0
100
AcDbMText
 10
-266.385369910442
 20
-1239.751333005381
 30
0.0
 40
30.0
 41
0.0
 71
     5
 72
     1
  1
\A1;405
  7
VOEST
 11
0.0000000000000001
 21
1.0
 31
0.0
 73
     1
 44
1.0
1001
ACAD
1000
MTEXTBEGIN
1070
    73
1070
     1
1070
    44
1040
1.0
1070
    74
1070
     0
1000
MTEXTEND
  0
POINT
  5
2926
330
23EA
100
AcDbEntity
  8
DEFPOINTS
 62
     0
100
AcDbPoint
 10
-11.22262114557725
 20
-1037.4822068088
 30
0.0
  0
POINT
  5
2927
330
23EA
100
AcDbEntity
  8
DEFPOINTS
 62
     0
100
AcDbPoint
 10
-77.20781239244115
 20
-1442.020459201962
 30
0.0
  0
POINT
  5
2928
330
23EA
100
AcDbEntity
  8
DEFPOINTS
 62
     0
100
AcDbPoint
 10
-242.0681802787915
 20
-1442.020459201962
 30
0.0
  0
ENDBLK
  5
23EC
330
23EA
100
AcDbEntity
  8
0
100
AcDbBlockEnd
  0
BLOCK
  5
23F7
330
23F6
100
AcDbEntity
  8
0
100
AcDbBlockBegin
  2
*D23
 70
     1
 10
0.0
 20
0.0
 30
0.0
  3
*D23
  1

  0
LINE
  5
2929
330
23F6
100
AcDbEntity
  8
KOTIERUNG
 62
     0
370
    -2
100
AcDbLine
 10
308.8116372449304
 20
-1091.167059816226
 30
0.0
 11
409.0344452728639
 21
-1091.167059816226
 31
0.0
  0
LINE
  5
292A
330
23F6
100
AcDbEntity
  8
KOTIERUNG
 62
     0
370
    -2
100
AcDbLine
 10
308.8116372449268
 20
-1388.335606194537
 30
0.0
 11
409.0344452728638
 21
-1388.335606194537
 31
0.0
  0
LINE
  5
292B
330
23F6
100
AcDbEntity
  8
KOTIERUNG
 62
     0
370
    -2
100
AcDbLine
 10
379.034445272864
 20
-1121.167059816226
 30
0.0
 11
379.0344452728639
 21
-1358.335606194537
 31
0.0
  0
SOLID
  5
292C
330
23F6
100
AcDbEntity
  8
KOTIERUNG
 62
     0
100
AcDbTrace
 10
374.0344452728639
 20
-1121.167059816226
 30
0.0
 11
384.0344452728639
 21
-1121.167059816226
 31
0.0
 12
379.034445272864
 22
-1091.167059816226
 32
0.0
 13
379.034445272864
 23
-1091.167059816226
 33
0.0
  0
SOLID
  5
292D
330
23F6
100
AcDbEntity
  8
KOTIERUNG
 62
     0
100
AcDbTrace
 10
374.0344452728639
 20
-1358.335606194537
 30
0.0
 11
384.0344452728639
 21
-1358.335606194537
 31
0.0
 12
379.0344452728639
 22
-1388.335606194537
 32
0.0
 13
379.0344452728639
 23
-1388.335606194537
 33
0.0
  0
MTEXT
  5
292E
330
23F6
100
AcDbEntity
  8
KOTIERUNG
 62
     0
100
AcDbMText
 10
354.7172556412133
 20
-1240.81678692008
 30
0.0
 40
30.0
 41
0.0
 71
     5
 72
     1
  1
\A1;297
  7
VOEST
 11
0.0000000000000001
 21
1.0
 31
0.0
 73
     1
 44
1.0
1001
ACAD
1000
MTEXTBEGIN
1070
    73
1070
     1
1070
    44
1040
1.0
1070
    74
1070
     0
1000
MTEXTEND
  0
POINT
  5
292F
330
23F6
100
AcDbEntity
  8
DEFPOINTS
 62
     0
100
AcDbPoint
 10
248.8116372449304
 20
-1091.167059816226
 30
0.0
  0
POINT
  5
2930
330
23F6
100
AcDbEntity
  8
DEFPOINTS
 62
     0
100
AcDbPoint
 10
248.8116372449267
 20
-1388.335606194537
 30
0.0
  0
POINT
  5
2931
330
23F6
100
AcDbEntity
  8
DEFPOINTS
 62
     0
100
AcDbPoint
 10
379.0344452728639
 20
-1388.335606194537
 30
0.0
  0
ENDBLK
  5
23F8
330
23F6
100
AcDbEntity
  8
0
100
AcDbBlockEnd
  0
BLOCK
  5
2403
330
2402
100
AcDbEntity
  8
0
100
AcDbBlockBegin
  2
*D24
 70
     1
 10
0.0
 20
0.0
 30
0.0
  3
*D24
  1

  0
LINE
  5
2932
330
2402
100
AcDbEntity
  8
KOTIERUNG
 62
     0
370
    -2
100
AcDbLine
 10
283.4258442476776
 20
-1139.751333005381
 30
0.0
 11
352.9448757032695
 21
-1139.751333005381
 31
0.0
  0
LINE
  5
2933
330
2402
100
AcDbEntity
  8
KOTIERUNG
 62
     0
370
    -2
100
AcDbLine
 10
283.4258442476794
 20
-1339.75133300538
 30
0.0
 11
352.9448757032694
 21
-1339.75133300538
 31
0.0
  0
LINE
  5
2934
330
2402
100
AcDbEntity
  8
KOTIERUNG
 62
     0
370
    -2
100
AcDbLine
 10
322.9448757032694
 20
-1169.751333005381
 30
0.0
 11
322.9448757032694
 21
-1309.75133300538
 31
0.0
  0
SOLID
  5
2935
330
2402
100
AcDbEntity
  8
KOTIERUNG
 62
     0
100
AcDbTrace
 10
317.9448757032694
 20
-1169.751333005381
 30
0.0
 11
327.9448757032694
 21
-1169.751333005381
 31
0.0
 12
322.9448757032695
 22
-1139.751333005381
 32
0.0
 13
322.9448757032695
 23
-1139.751333005381
 33
0.0
  0
SOLID
  5
2936
330
2402
100
AcDbEntity
  8
KOTIERUNG
 62
     0
100
AcDbTrace
 10
317.9448757032694
 20
-1309.75133300538
 30
0.0
 11
327.9448757032694
 21
-1309.75133300538
 31
0.0
 12
322.9448757032694
 22
-1339.75133300538
 32
0.0
 13
322.9448757032694
 23
-1339.75133300538
 33
0.0
  0
MTEXT
  5
2937
330
2402
100
AcDbEntity
  8
KOTIERUNG
 62
     0
100
AcDbMText
 10
298.6276860716189
 20
-1239.75133300538
 30
0.0
 40
30.0
 41
0.0
 71
     5
 72
     1
  1
\A1;200
  7
VOEST
 11
0.0000000000000001
 21
1.0
 31
0.0
 73
     1
 44
1.0
1001
ACAD
1000
MTEXTBEGIN
1070
    73
1070
     1
1070
    44
1040
1.0
1070
    74
1070
     0
1000
MTEXTEND
  0
POINT
  5
2938
330
2402
100
AcDbEntity
  8
DEFPOINTS
 62
     0
100
AcDbPoint
 10
223.4258442476776
 20
-1139.751333005381
 30
0.0
  0
POINT
  5
2939
330
2402
100
AcDbEntity
  8
DEFPOINTS
 62
     0
100
AcDbPoint
 10
223.4258442476794
 20
-1339.75133300538
 30
0.0
  0
POINT
  5
293A
330
2402
100
AcDbEntity
  8
DEFPOINTS
 62
     0
100
AcDbPoint
 10
322.9448757032694
 20
-1339.75133300538
 30
0.0
  0
ENDBLK
  5
2404
330
2402
100
AcDbEntity
  8
0
100
AcDbBlockEnd
  0
BLOCK
  5
240F
330
240E
100
AcDbEntity
  8
0
100
AcDbBlockBegin
  2
*D25
 70
     1
 10
0.0
 20
0.0
 30
0.0
  3
*D25
  1

  0
LINE
  5
293B
330
240E
100
AcDbEntity
  8
KOTIERUNG
 62
     0
370
    -2
100
AcDbLine
 10
-105.8710865388266
 20
-1107.4822068088
 30
0.0
 11
-175.2710955148906
 21
-1107.4822068088
 31
0.0
  0
LINE
  5
293C
330
240E
100
AcDbEntity
  8
KOTIERUNG
 62
     0
370
    -2
100
AcDbLine
 10
-105.8710865388266
 20
-1367.482206808799
 30
0.0
 11
-175.2710955148907
 21
-1367.482206808799
 31
0.0
  0
LINE
  5
293D
330
240E
100
AcDbEntity
  8
KOTIERUNG
 62
     0
370
    -2
100
AcDbLine
 10
-145.2710955148906
 20
-1137.4822068088
 30
0.0
 11
-145.2710955148907
 21
-1337.482206808799
 31
0.0
  0
SOLID
  5
293E
330
240E
100
AcDbEntity
  8
KOTIERUNG
 62
     0
100
AcDbTrace
 10
-150.2710955148906
 20
-1137.4822068088
 30
0.0
 11
-140.2710955148906
 21
-1137.4822068088
 31
0.0
 12
-145.2710955148906
 22
-1107.4822068088
 32
0.0
 13
-145.2710955148906
 23
-1107.4822068088
 33
0.0
  0
SOLID
  5
293F
330
240E
100
AcDbEntity
  8
KOTIERUNG
 62
     0
100
AcDbTrace
 10
-150.2710955148907
 20
-1337.482206808799
 30
0.0
 11
-140.2710955148906
 21
-1337.482206808799
 31
0.0
 12
-145.2710955148907
 22
-1367.482206808799
 32
0.0
 13
-145.2710955148907
 23
-1367.482206808799
 33
0.0
  0
MTEXT
  5
2940
330
240E
100
AcDbEntity
  8
KOTIERUNG
 62
     0
100
AcDbMText
 10
-169.5882851465412
 20
-1237.482206808798
 30
0.0
 40
30.0
 41
0.0
 71
     5
 72
     1
  1
\A1;260
  7
VOEST
 11
0.0000000000000001
 21
1.0
 31
0.0
 73
     1
 44
1.0
1001
ACAD
1000
MTEXTBEGIN
1070
    73
1070
     1
1070
    44
1040
1.0
1070
    74
1070
     0
1000
MTEXTEND
  0
POINT
  5
2941
330
240E
100
AcDbEntity
  8
DEFPOINTS
 62
     0
100
AcDbPoint
 10
-45.8710865388266
 20
-1107.4822068088
 30
0.0
  0
POINT
  5
2942
330
240E
100
AcDbEntity
  8
DEFPOINTS
 62
     0
100
AcDbPoint
 10
-45.8710865388266
 20
-1367.482206808799
 30
0.0
  0
POINT
  5
2943
330
240E
100
AcDbEntity
  8
DEFPOINTS
 62
     0
100
AcDbPoint
 10
-145.2710955148907
 20
-1367.482206808799
 30
0.0
  0
ENDBLK
  5
2410
330
240E
100
AcDbEntity
  8
0
100
AcDbBlockEnd
  0
BLOCK
  5
241B
330
241A
100
AcDbEntity
  8
0
100
AcDbBlockBegin
  2
*D26
 70
     1
 10
0.0
 20
0.0
 30
0.0
  3
*D26
  1

  0
LINE
  5
2944
330
241A
100
AcDbEntity
  8
KOTIERUNG
 62
     0
370
    -2
100
AcDbLine
 10
183.7773788544246
 20
-1434.399798398634
 30
0.0
 11
183.7773788544246
 21
-1533.45310932519
 31
0.0
  0
LINE
  5
2945
330
241A
100
AcDbEntity
  8
KOTIERUNG
 62
     0
370
    -2
100
AcDbLine
 10
-11.22262114557543
 20
-1462.130672202053
 30
0.0
 11
-11.22262114557544
 21
-1533.45310932519
 31
0.0
  0
LINE
  5
2946
330
241A
100
AcDbEntity
  8
KOTIERUNG
 62
     0
370
    -2
100
AcDbLine
 10
153.7773788544245
 20
-1503.45310932519
 30
0.0
 11
18.77737885442456
 21
-1503.45310932519
 31
0.0
  0
SOLID
  5
2947
330
241A
100
AcDbEntity
  8
KOTIERUNG
 62
     0
100
AcDbTrace
 10
153.7773788544245
 20
-1498.45310932519
 30
0.0
 11
153.7773788544245
 21
-1508.45310932519
 31
0.0
 12
183.7773788544246
 22
-1503.45310932519
 32
0.0
 13
183.7773788544246
 23
-1503.45310932519
 33
0.0
  0
SOLID
  5
2948
330
241A
100
AcDbEntity
  8
KOTIERUNG
 62
     0
100
AcDbTrace
 10
18.77737885442456
 20
-1498.45310932519
 30
0.0
 11
18.77737885442456
 21
-1508.45310932519
 31
0.0
 12
-11.22262114557543
 22
-1503.45310932519
 32
0.0
 13
-11.22262114557543
 23
-1503.45310932519
 33
0.0
  0
MTEXT
  5
2949
330
241A
100
AcDbEntity
  8
KOTIERUNG
 62
     0
100
AcDbMText
 10
86.27737885442456
 20
-1479.135919693539
 30
0.0
 40
30.0
 41
0.0
 71
     5
 72
     1
  1
\A1;195
  7
VOEST
 73
     1
 44
1.0
1001
ACAD
1000
MTEXTBEGIN
1070
    73
1070
     1
1070
    44
1040
1.0
1070
    74
1070
     0
1000
MTEXTEND
  0
POINT
  5
294A
330
241A
100
AcDbEntity
  8
DEFPOINTS
 62
     0
100
AcDbPoint
 10
183.7773788544246
 20
-1374.399798398634
 30
0.0
  0
POINT
  5
294B
330
241A
100
AcDbEntity
  8
DEFPOINTS
 62
     0
100
AcDbPoint
 10
-11.22262114557543
 20
-1402.130672202053
 30
0.0
  0
POINT
  5
294C
330
241A
100
AcDbEntity
  8
DEFPOINTS
 62
     0
100
AcDbPoint
 10
-11.22262114557543
 20
-1503.45310932519
 30
0.0
  0
ENDBLK
  5
241C
330
241A
100
AcDbEntity
  8
0
100
AcDbBlockEnd
  0
BLOCK
  5
2427
330
2426
100
AcDbEntity
  8
0
100
AcDbBlockBegin
  2
*D27
 70
     1
 10
0.0
 20
0.0
 30
0.0
  3
*D27
  1

  0
LINE
  5
294D
330
2426
100
AcDbEntity
  8
KOTIERUNG
 62
     0
370
    -2
100
AcDbLine
 10
-369.7564273045291
 20
-948.1509664138101
 30
0.0
 11
-369.7564273045292
 21
-1533.45310932519
 31
0.0
  0
LINE
  5
294E
330
2426
100
AcDbEntity
  8
KOTIERUNG
 62
     0
370
    -2
100
AcDbLine
 10
-11.22262114557543
 20
-1462.130672202053
 30
0.0
 11
-11.22262114557544
 21
-1533.45310932519
 31
0.0
  0
LINE
  5
294F
330
2426
100
AcDbEntity
  8
KOTIERUNG
 62
     0
370
    -2
100
AcDbLine
 10
-339.7564273045292
 20
-1503.45310932519
 30
0.0
 11
-41.22262114557543
 21
-1503.45310932519
 31
0.0
  0
SOLID
  5
2950
330
2426
100
AcDbEntity
  8
KOTIERUNG
 62
     0
100
AcDbTrace
 10
-339.7564273045292
 20
-1498.45310932519
 30
0.0
 11
-339.7564273045292
 21
-1508.45310932519
 31
0.0
 12
-369.7564273045292
 22
-1503.45310932519
 32
0.0
 13
-369.7564273045292
 23
-1503.45310932519
 33
0.0
  0
SOLID
  5
2951
330
2426
100
AcDbEntity
  8
KOTIERUNG
 62
     0
100
AcDbTrace
 10
-41.22262114557543
 20
-1498.45310932519
 30
0.0
 11
-41.22262114557543
 21
-1508.45310932519
 31
0.0
 12
-11.22262114557543
 22
-1503.45310932519
 32
0.0
 13
-11.22262114557543
 23
-1503.45310932519
 33
0.0
  0
MTEXT
  5
2952
330
2426
100
AcDbEntity
  8
KOTIERUNG
 62
     0
100
AcDbMText
 10
-190.4895242250523
 20
-1479.135919693539
 30
0.0
 40
30.0
 41
0.0
 71
     5
 72
     1
  1
\A1;360
  7
VOEST
 73
     1
 44
1.0
1001
ACAD
1000
MTEXTBEGIN
1070
    73
1070
     1
1070
    44
1040
1.0
1070
    74
1070
     0
1000
MTEXTEND
  0
POINT
  5
2953
330
2426
100
AcDbEntity
  8
DEFPOINTS
 62
     0
100
AcDbPoint
 10
-369.7564273045291
 20
-888.1509664138102
 30
0.0
  0
POINT
  5
2954
330
2426
100
AcDbEntity
  8
DEFPOINTS
 62
     0
100
AcDbPoint
 10
-11.22262114557543
 20
-1402.130672202053
 30
0.0
  0
POINT
  5
2955
330
2426
100
AcDbEntity
  8
DEFPOINTS
 62
     0
100
AcDbPoint
 10
-11.22262114557543
 20
-1503.45310932519
 30
0.0
  0
ENDBLK
  5
2428
330
2426
100
AcDbEntity
  8
0
100
AcDbBlockEnd
  0
BLOCK
  5
2500
330
24FF
100
AcDbEntity
  8
0
100
AcDbBlockBegin
  2
*D28
 70
     1
 10
0.0
 20
0.0
 30
0.0
  3
*D28
  1

  0
LINE
  5
2501
330
24FF
100
AcDbEntity
  8
HILFSLINIEN
 62
     0
370
    -2
100
AcDbLine
 10
-2572.460386249705
 20
-1407.358592311447
 30
0.0
 11
-4213.331726181408
 21
-1407.358592311447
 31
0.0
  0
LINE
  5
2502
330
24FF
100
AcDbEntity
  8
HILFSLINIEN
 62
     0
370
    -2
100
AcDbLine
 10
-2946.332128880928
 20
-2807.358592311447
 30
0.0
 11
-4213.331726181409
 21
-2807.358592311446
 31
0.0
  0
LINE
  5
2503
330
24FF
100
AcDbEntity
  8
HILFSLINIEN
 62
     0
370
    -2
100
AcDbLine
 10
-4201.331726181408
 20
-1437.358592311446
 30
0.0
 11
-4201.331726181409
 21
-2777.358592311446
 31
0.0
  0
SOLID
  5
2504
330
24FF
100
AcDbEntity
  8
HILFSLINIEN
 62
     0
100
AcDbTrace
 10
-4206.331726181408
 20
-1437.358592311446
 30
0.0
 11
-4196.331726181408
 21
-1437.358592311446
 31
0.0
 12
-4201.331726181408
 22
-1407.358592311447
 32
0.0
 13
-4201.331726181408
 23
-1407.358592311447
 33
0.0
  0
SOLID
  5
2505
330
24FF
100
AcDbEntity
  8
HILFSLINIEN
 62
     0
100
AcDbTrace
 10
-4206.331726181409
 20
-2777.358592311446
 30
0.0
 11
-4196.331726181409
 21
-2777.358592311446
 31
0.0
 12
-4201.331726181409
 22
-2807.358592311446
 32
0.0
 13
-4201.331726181409
 23
-2807.358592311446
 33
0.0
  0
MTEXT
  5
2506
102
{ACAD_XDICTIONARY
360
2E52
102
}
330
24FF
100
AcDbEntity
  8
HILFSLINIEN
 62
     0
100
AcDbMText
 10
-4225.648915813059
 20
-1946.183198442609
 30
0.0
 40
30.0
 41
0.0
 71
     5
 72
     1
  1
\A1;1400\U+00B140
  7
VOEST
 11
0.0000000000000001
 21
1.0
 31
0.0
 73
     1
 44
1.0
1001
ACAD
1000
MTEXTBEGIN
1070
    73
1070
     1
1070
    44
1040
1.0
1070
    74
1070
     0
1000
MTEXTEND
  0
POINT
  5
2507
330
24FF
100
AcDbEntity
  8
DEFPOINTS
 62
     0
100
AcDbPoint
 10
-2560.460386249706
 20
-1407.358592311447
 30
0.0
  0
POINT
  5
2508
330
24FF
100
AcDbEntity
  8
DEFPOINTS
 62
     0
100
AcDbPoint
 10
-2934.332128880928
 20
-2807.358592311447
 30
0.0
  0
POINT
  5
2509
330
24FF
100
AcDbEntity
  8
DEFPOINTS
 62
     0
100
AcDbPoint
 10
-4201.331726181409
 20
-2807.358592311446
 30
0.0
  0
ENDBLK
  5
250A
330
24FF
100
AcDbEntity
  8
0
100
AcDbBlockEnd
  0
BLOCK
  5
250C
330
250B
100
AcDbEntity
  8
0
100
AcDbBlockBegin
  2
*D29
 70
     1
 10
0.0
 20
0.0
 30
0.0
  3
*D29
  1

  0
LINE
  5
250D
330
250B
100
AcDbEntity
  8
HILFSLINIEN
 62
     0
370
    -2
100
AcDbLine
 10
-2946.332128880928
 20
-2807.358592311447
 30
0.0
 11
-4085.771243469469
 21
-2807.358592311446
 31
0.0
  0
LINE
  5
250E
330
250B
100
AcDbEntity
  8
HILFSLINIEN
 62
     0
370
    -2
100
AcDbLine
 10
-2816.96031047781
 20
-1937.358592311447
 30
0.0
 11
-4085.771243469469
 21
-1937.358592311447
 31
0.0
  0
LINE
  5
250F
330
250B
100
AcDbEntity
  8
HILFSLINIEN
 62
     0
370
    -2
100
AcDbLine
 10
-4073.771243469469
 20
-2777.358592311446
 30
0.0
 11
-4073.771243469469
 21
-1967.358592311447
 31
0.0
  0
SOLID
  5
2510
330
250B
100
AcDbEntity
  8
HILFSLINIEN
 62
     0
100
AcDbTrace
 10
-4078.77124346947
 20
-2777.358592311446
 30
0.0
 11
-4068.771243469469
 21
-2777.358592311446
 31
0.0
 12
-4073.771243469469
 22
-2807.358592311446
 32
0.0
 13
-4073.771243469469
 23
-2807.358592311446
 33
0.0
  0
SOLID
  5
2511
330
250B
100
AcDbEntity
  8
HILFSLINIEN
 62
     0
100
AcDbTrace
 10
-4078.77124346947
 20
-1967.358592311447
 30
0.0
 11
-4068.771243469469
 21
-1967.358592311447
 31
0.0
 12
-4073.771243469469
 22
-1937.358592311447
 32
0.0
 13
-4073.771243469469
 23
-1937.358592311447
 33
0.0
  0
MTEXT
  5
2512
102
{ACAD_XDICTIONARY
360
2E54
102
}
330
250B
100
AcDbEntity
  8
HILFSLINIEN
 62
     0
100
AcDbMText
 10
-4098.08843310112
 20
-2305.474078177837
 30
0.0
 40
30.0
 41
0.0
 71
     5
 72
     1
  1
\A1;870\U+00B140
  7
VOEST
 11
0.0000000000000001
 21
1.0
 31
0.0
 73
     1
 44
1.0
1001
ACAD
1000
MTEXTBEGIN
1070
    73
1070
     1
1070
    44
1040
1.0
1070
    74
1070
     0
1000
MTEXTEND
  0
POINT
  5
2513
330
250B
100
AcDbEntity
  8
DEFPOINTS
 62
     0
100
AcDbPoint
 10
-2934.332128880928
 20
-2807.358592311447
 30
0.0
  0
POINT
  5
2514
330
250B
100
AcDbEntity
  8
DEFPOINTS
 62
     0
100
AcDbPoint
 10
-2804.96031047781
 20
-1937.358592311447
 30
0.0
  0
POINT
  5
2515
330
250B
100
AcDbEntity
  8
DEFPOINTS
 62
     0
100
AcDbPoint
 10
-4073.771243469469
 20
-1937.358592311447
 30
0.0
  0
ENDBLK
  5
2516
330
250B
100
AcDbEntity
  8
0
100
AcDbBlockEnd
  0
BLOCK
  5
2518
330
2517
100
AcDbEntity
  8
0
100
AcDbBlockBegin
  2
*D30
 70
     1
 10
0.0
 20
0.0
 30
0.0
  3
*D30
  1

  0
LINE
  5
2519
330
2517
100
AcDbEntity
  8
KOTIERUNG
 62
     0
370
    -2
100
AcDbLine
 10
-2854.075811506014
 20
-2725.358592311446
 30
0.0
 11
-2854.075811506014
 21
-2490.81080557718
 31
0.0
  0
LINE
  5
251A
330
2517
100
AcDbEntity
  8
KOTIERUNG
 62
     0
370
    -2
100
AcDbLine
 10
-2874.242503473372
 20
-2006.810024784865
 30
0.0
 11
-2874.242503473372
 21
-2514.81080557718
 31
0.0
  0
LINE
  5
251B
330
2517
100
AcDbEntity
  8
KOTIERUNG
 62
     0
370
    -2
100
AcDbLine
 10
-2904.242503473372
 20
-2502.81080557718
 30
0.0
 11
-2934.242503473372
 21
-2502.81080557718
 31
0.0
  0
LINE
  5
251C
330
2517
100
AcDbEntity
  8
KOTIERUNG
 62
     0
370
    -2
100
AcDbLine
 10
-2824.075811506014
 20
-2502.81080557718
 30
0.0
 11
-2740.509645066723
 21
-2502.81080557718
 31
0.0
  0
SOLID
  5
251D
330
2517
100
AcDbEntity
  8
KOTIERUNG
 62
     0
100
AcDbTrace
 10
-2904.242503473372
 20
-2497.810805577179
 30
0.0
 11
-2904.242503473372
 21
-2507.81080557718
 31
0.0
 12
-2874.242503473372
 22
-2502.81080557718
 32
0.0
 13
-2874.242503473372
 23
-2502.81080557718
 33
0.0
  0
SOLID
  5
251E
330
2517
100
AcDbEntity
  8
KOTIERUNG
 62
     0
100
AcDbTrace
 10
-2824.075811506014
 20
-2497.810805577179
 30
0.0
 11
-2824.075811506014
 21
-2507.81080557718
 31
0.0
 12
-2854.075811506014
 22
-2502.81080557718
 32
0.0
 13
-2854.075811506014
 23
-2502.81080557718
 33
0.0
  0
MTEXT
  5
251F
330
2517
100
AcDbEntity
  8
KOTIERUNG
 62
     0
100
AcDbMText
 10
-2767.292728286368
 20
-2478.493615945529
 30
0.0
 40
30.0
 41
0.0
 71
     5
 72
     1
  1
\A1;20
  7
VOEST
 73
     1
 44
1.0
1001
ACAD
1000
MTEXTBEGIN
1070
    73
1070
     1
1070
    44
1040
1.0
1070
    74
1070
     0
1000
MTEXTEND
  0
POINT
  5
2520
330
2517
100
AcDbEntity
  8
DEFPOINTS
 62
     0
100
AcDbPoint
 10
-2854.075811506014
 20
-2737.358592311446
 30
0.0
  0
POINT
  5
2521
330
2517
100
AcDbEntity
  8
DEFPOINTS
 62
     0
100
AcDbPoint
 10
-2874.242503473372
 20
-1994.810024784864
 30
0.0
  0
POINT
  5
2522
330
2517
100
AcDbEntity
  8
DEFPOINTS
 62
     0
100
AcDbPoint
 10
-2874.242503473372
 20
-2502.81080557718
 30
0.0
  0
ENDBLK
  5
2523
330
2517
100
AcDbEntity
  8
0
100
AcDbBlockEnd
  0
BLOCK
  5
2525
330
2524
100
AcDbEntity
  8
0
100
AcDbBlockBegin
  2
*D31
 70
     1
 10
0.0
 20
0.0
 30
0.0
  3
*D31
  1

  0
LINE
  5
2526
330
2524
100
AcDbEntity
  8
KOTIERUNG
 62
     0
370
    -2
100
AcDbLine
 10
-2235.507746956554
 20
-2998.374685713863
 30
0.0
 11
-2235.507746956554
 21
-2899.070345978313
 31
0.0
  0
LINE
  5
2527
330
2524
100
AcDbEntity
  8
KOTIERUNG
 62
     0
370
    -2
100
AcDbLine
 10
-2565.54200534706
 20
-2948.130089342376
 30
0.0
 11
-2565.54200534706
 21
-2899.070345978313
 31
0.0
  0
LINE
  5
2528
330
2524
100
AcDbEntity
  8
KOTIERUNG
 62
     0
370
    -2
100
AcDbLine
 10
-2265.507746956554
 20
-2911.070345978313
 30
0.0
 11
-2535.54200534706
 21
-2911.070345978313
 31
0.0
  0
SOLID
  5
2529
330
2524
100
AcDbEntity
  8
KOTIERUNG
 62
     0
100
AcDbTrace
 10
-2265.507746956554
 20
-2906.070345978313
 30
0.0
 11
-2265.507746956554
 21
-2916.070345978313
 31
0.0
 12
-2235.507746956554
 22
-2911.070345978313
 32
0.0
 13
-2235.507746956554
 23
-2911.070345978313
 33
0.0
  0
SOLID
  5
252A
330
2524
100
AcDbEntity
  8
KOTIERUNG
 62
     0
100
AcDbTrace
 10
-2535.54200534706
 20
-2906.070345978313
 30
0.0
 11
-2535.54200534706
 21
-2916.070345978313
 31
0.0
 12
-2565.54200534706
 22
-2911.070345978313
 32
0.0
 13
-2565.54200534706
 23
-2911.070345978313
 33
0.0
  0
MTEXT
  5
252B
330
2524
100
AcDbEntity
  8
KOTIERUNG
 62
     0
100
AcDbMText
 10
-2400.524876151807
 20
-2886.753156346662
 30
0.0
 40
30.0
 41
0.0
 71
     5
 72
     1
  1
\A1;330
  7
VOEST
 73
     1
 44
1.0
1001
ACAD
1000
MTEXTBEGIN
1070
    73
1070
     1
1070
    44
1040
1.0
1070
    74
1070
     0
1000
MTEXTEND
  0
POINT
  5
252C
330
2524
100
AcDbEntity
  8
DEFPOINTS
 62
     0
100
AcDbPoint
 10
-2235.507746956554
 20
-3010.374685713863
 30
0.0
  0
POINT
  5
252D
330
2524
100
AcDbEntity
  8
DEFPOINTS
 62
     0
100
AcDbPoint
 10
-2565.54200534706
 20
-2960.130089342376
 30
0.0
  0
POINT
  5
252E
330
2524
100
AcDbEntity
  8
DEFPOINTS
 62
     0
100
AcDbPoint
 10
-2565.54200534706
 20
-2911.070345978313
 30
0.0
  0
ENDBLK
  5
252F
330
2524
100
AcDbEntity
  8
0
100
AcDbBlockEnd
  0
BLOCK
  5
2531
330
2530
100
AcDbEntity
  8
0
100
AcDbBlockBegin
  2
*D32
 70
     1
 10
0.0
 20
0.0
 30
0.0
  3
*D32
  1

  0
LINE
  5
2532
330
2530
100
AcDbEntity
  8
KOTIERUNG
 62
     0
370
    -2
100
AcDbLine
 10
-2573.527196593927
 20
-2956.689832706437
 30
0.0
 11
-2738.387564480276
 21
-2956.689832706437
 31
0.0
  0
LINE
  5
2533
330
2530
100
AcDbEntity
  8
KOTIERUNG
 62
     0
370
    -2
100
AcDbLine
 10
-2573.527196593925
 20
-3361.228085099599
 30
0.0
 11
-2738.387564480277
 21
-3361.228085099599
 31
0.0
  0
LINE
  5
2534
330
2530
100
AcDbEntity
  8
KOTIERUNG
 62
     0
370
    -2
100
AcDbLine
 10
-2726.387564480277
 20
-2986.689832706437
 30
0.0
 11
-2726.387564480277
 21
-3331.228085099599
 31
0.0
  0
SOLID
  5
2535
330
2530
100
AcDbEntity
  8
KOTIERUNG
 62
     0
100
AcDbTrace
 10
-2731.387564480276
 20
-2986.689832706437
 30
0.0
 11
-2721.387564480276
 21
-2986.689832706437
 31
0.0
 12
-2726.387564480277
 22
-2956.689832706437
 32
0.0
 13
-2726.387564480277
 23
-2956.689832706437
 33
0.0
  0
SOLID
  5
2536
330
2530
100
AcDbEntity
  8
KOTIERUNG
 62
     0
100
AcDbTrace
 10
-2731.387564480277
 20
-3331.228085099599
 30
0.0
 11
-2721.387564480277
 21
-3331.228085099599
 31
0.0
 12
-2726.387564480277
 22
-3361.228085099599
 32
0.0
 13
-2726.387564480277
 23
-3361.228085099599
 33
0.0
  0
MTEXT
  5
2537
330
2530
100
AcDbEntity
  8
KOTIERUNG
 62
     0
100
AcDbMText
 10
-2750.704754111926
 20
-3158.958958903018
 30
0.0
 40
30.0
 41
0.0
 71
     5
 72
     1
  1
\A1;405
  7
VOEST
 11
0.0000000000000001
 21
1.0
 31
0.0
 73
     1
 44
1.0
1001
ACAD
1000
MTEXTBEGIN
1070
    73
1070
     1
1070
    44
1040
1.0
1070
    74
1070
     0
1000
MTEXTEND
  0
POINT
  5
2538
330
2530
100
AcDbEntity
  8
DEFPOINTS
 62
     0
100
AcDbPoint
 10
-2561.527196593928
 20
-2956.689832706437
 30
0.0
  0
POINT
  5
2539
330
2530
100
AcDbEntity
  8
DEFPOINTS
 62
     0
100
AcDbPoint
 10
-2561.527196593926
 20
-3361.228085099599
 30
0.0
  0
POINT
  5
253A
330
2530
100
AcDbEntity
  8
DEFPOINTS
 62
     0
100
AcDbPoint
 10
-2726.387564480277
 20
-3361.228085099599
 30
0.0
  0
ENDBLK
  5
253B
330
2530
100
AcDbEntity
  8
0
100
AcDbBlockEnd
  0
BLOCK
  5
253D
330
253C
100
AcDbEntity
  8
0
100
AcDbBlockBegin
  2
*D33
 70
     1
 10
0.0
 20
0.0
 30
0.0
  3
*D33
  1

  0
LINE
  5
253E
330
253C
100
AcDbEntity
  8
KOTIERUNG
 62
     0
370
    -2
100
AcDbLine
 10
-2223.507746956554
 20
-3010.374685713863
 30
0.0
 11
-2093.284938928621
 21
-3010.374685713863
 31
0.0
  0
LINE
  5
253F
330
253C
100
AcDbEntity
  8
KOTIERUNG
 62
     0
370
    -2
100
AcDbLine
 10
-2223.507746956558
 20
-3307.543232092174
 30
0.0
 11
-2093.284938928621
 21
-3307.543232092174
 31
0.0
  0
LINE
  5
2540
330
253C
100
AcDbEntity
  8
KOTIERUNG
 62
     0
370
    -2
100
AcDbLine
 10
-2105.284938928621
 20
-3040.374685713863
 30
0.0
 11
-2105.284938928621
 21
-3277.543232092174
 31
0.0
  0
SOLID
  5
2541
330
253C
100
AcDbEntity
  8
KOTIERUNG
 62
     0
100
AcDbTrace
 10
-2110.284938928621
 20
-3040.374685713863
 30
0.0
 11
-2100.284938928621
 21
-3040.374685713863
 31
0.0
 12
-2105.284938928621
 22
-3010.374685713863
 32
0.0
 13
-2105.284938928621
 23
-3010.374685713863
 33
0.0
  0
SOLID
  5
2542
330
253C
100
AcDbEntity
  8
KOTIERUNG
 62
     0
100
AcDbTrace
 10
-2110.284938928622
 20
-3277.543232092174
 30
0.0
 11
-2100.284938928621
 21
-3277.543232092174
 31
0.0
 12
-2105.284938928621
 22
-3307.543232092174
 32
0.0
 13
-2105.284938928621
 23
-3307.543232092174
 33
0.0
  0
MTEXT
  5
2543
330
253C
100
AcDbEntity
  8
KOTIERUNG
 62
     0
100
AcDbMText
 10
-2129.602128560271
 20
-3160.024412817717
 30
0.0
 40
30.0
 41
0.0
 71
     5
 72
     1
  1
\A1;297
  7
VOEST
 11
0.0000000000000001
 21
1.0
 31
0.0
 73
     1
 44
1.0
1001
ACAD
1000
MTEXTBEGIN
1070
    73
1070
     1
1070
    44
1040
1.0
1070
    74
1070
     0
1000
MTEXTEND
  0
POINT
  5
2544
330
253C
100
AcDbEntity
  8
DEFPOINTS
 62
     0
100
AcDbPoint
 10
-2235.507746956554
 20
-3010.374685713863
 30
0.0
  0
POINT
  5
2545
330
253C
100
AcDbEntity
  8
DEFPOINTS
 62
     0
100
AcDbPoint
 10
-2235.507746956558
 20
-3307.543232092174
 30
0.0
  0
POINT
  5
2546
330
253C
100
AcDbEntity
  8
DEFPOINTS
 62
     0
100
AcDbPoint
 10
-2105.284938928621
 20
-3307.543232092174
 30
0.0
  0
ENDBLK
  5
2547
330
253C
100
AcDbEntity
  8
0
100
AcDbBlockEnd
  0
BLOCK
  5
2549
330
2548
100
AcDbEntity
  8
0
100
AcDbBlockBegin
  2
*D34
 70
     1
 10
0.0
 20
0.0
 30
0.0
  3
*D34
  1

  0
LINE
  5
254A
330
2548
100
AcDbEntity
  8
KOTIERUNG
 62
     0
370
    -2
100
AcDbLine
 10
-2248.893539953807
 20
-3058.958958903018
 30
0.0
 11
-2149.374508498215
 21
-3058.958958903018
 31
0.0
  0
LINE
  5
254B
330
2548
100
AcDbEntity
  8
KOTIERUNG
 62
     0
370
    -2
100
AcDbLine
 10
-2248.893539953805
 20
-3258.958958903017
 30
0.0
 11
-2149.374508498215
 21
-3258.958958903017
 31
0.0
  0
LINE
  5
254C
330
2548
100
AcDbEntity
  8
KOTIERUNG
 62
     0
370
    -2
100
AcDbLine
 10
-2161.374508498216
 20
-3088.958958903018
 30
0.0
 11
-2161.374508498216
 21
-3228.958958903017
 31
0.0
  0
SOLID
  5
254D
330
2548
100
AcDbEntity
  8
KOTIERUNG
 62
     0
100
AcDbTrace
 10
-2166.374508498216
 20
-3088.958958903018
 30
0.0
 11
-2156.374508498215
 21
-3088.958958903018
 31
0.0
 12
-2161.374508498215
 22
-3058.958958903018
 32
0.0
 13
-2161.374508498215
 23
-3058.958958903018
 33
0.0
  0
SOLID
  5
254E
330
2548
100
AcDbEntity
  8
KOTIERUNG
 62
     0
100
AcDbTrace
 10
-2166.374508498216
 20
-3228.958958903017
 30
0.0
 11
-2156.374508498215
 21
-3228.958958903017
 31
0.0
 12
-2161.374508498216
 22
-3258.958958903017
 32
0.0
 13
-2161.374508498216
 23
-3258.958958903017
 33
0.0
  0
MTEXT
  5
254F
330
2548
100
AcDbEntity
  8
KOTIERUNG
 62
     0
100
AcDbMText
 10
-2185.691698129866
 20
-3158.958958903018
 30
0.0
 40
30.0
 41
0.0
 71
     5
 72
     1
  1
\A1;200
  7
VOEST
 11
0.0000000000000001
 21
1.0
 31
0.0
 73
     1
 44
1.0
1001
ACAD
1000
MTEXTBEGIN
1070
    73
1070
     1
1070
    44
1040
1.0
1070
    74
1070
     0
1000
MTEXTEND
  0
POINT
  5
2550
330
2548
100
AcDbEntity
  8
DEFPOINTS
 62
     0
100
AcDbPoint
 10
-2260.893539953807
 20
-3058.958958903018
 30
0.0
  0
POINT
  5
2551
330
2548
100
AcDbEntity
  8
DEFPOINTS
 62
     0
100
AcDbPoint
 10
-2260.893539953805
 20
-3258.958958903017
 30
0.0
  0
POINT
  5
2552
330
2548
100
AcDbEntity
  8
DEFPOINTS
 62
     0
100
AcDbPoint
 10
-2161.374508498216
 20
-3258.958958903017
 30
0.0
  0
ENDBLK
  5
2553
330
2548
100
AcDbEntity
  8
0
100
AcDbBlockEnd
  0
BLOCK
  5
2555
330
2554
100
AcDbEntity
  8
0
100
AcDbBlockBegin
  2
*D35
 70
     1
 10
0.0
 20
0.0
 30
0.0
  3
*D35
  1

  0
LINE
  5
2556
330
2554
100
AcDbEntity
  8
KOTIERUNG
 62
     0
370
    -2
100
AcDbLine
 10
-2542.190470740311
 20
-3026.689832706437
 30
0.0
 11
-2641.590479716375
 21
-3026.689832706437
 31
0.0
  0
LINE
  5
2557
330
2554
100
AcDbEntity
  8
KOTIERUNG
 62
     0
370
    -2
100
AcDbLine
 10
-2542.190470740311
 20
-3286.689832706436
 30
0.0
 11
-2641.590479716376
 21
-3286.689832706436
 31
0.0
  0
LINE
  5
2558
330
2554
100
AcDbEntity
  8
KOTIERUNG
 62
     0
370
    -2
100
AcDbLine
 10
-2629.590479716375
 20
-3056.689832706437
 30
0.0
 11
-2629.590479716375
 21
-3256.689832706436
 31
0.0
  0
SOLID
  5
2559
330
2554
100
AcDbEntity
  8
KOTIERUNG
 62
     0
100
AcDbTrace
 10
-2634.590479716375
 20
-3056.689832706437
 30
0.0
 11
-2624.590479716375
 21
-3056.689832706437
 31
0.0
 12
-2629.590479716375
 22
-3026.689832706437
 32
0.0
 13
-2629.590479716375
 23
-3026.689832706437
 33
0.0
  0
SOLID
  5
255A
330
2554
100
AcDbEntity
  8
KOTIERUNG
 62
     0
100
AcDbTrace
 10
-2634.590479716376
 20
-3256.689832706436
 30
0.0
 11
-2624.590479716375
 21
-3256.689832706436
 31
0.0
 12
-2629.590479716375
 22
-3286.689832706436
 32
0.0
 13
-2629.590479716375
 23
-3286.689832706436
 33
0.0
  0
MTEXT
  5
255B
330
2554
100
AcDbEntity
  8
KOTIERUNG
 62
     0
100
AcDbMText
 10
-2653.907669348025
 20
-3156.689832706435
 30
0.0
 40
30.0
 41
0.0
 71
     5
 72
     1
  1
\A1;260
  7
VOEST
 11
0.0000000000000001
 21
1.0
 31
0.0
 73
     1
 44
1.0
1001
ACAD
1000
MTEXTBEGIN
1070
    73
1070
     1
1070
    44
1040
1.0
1070
    74
1070
     0
1000
MTEXTEND
  0
POINT
  5
255C
330
2554
100
AcDbEntity
  8
DEFPOINTS
 62
     0
100
AcDbPoint
 10
-2530.190470740311
 20
-3026.689832706437
 30
0.0
  0
POINT
  5
255D
330
2554
100
AcDbEntity
  8
DEFPOINTS
 62
     0
100
AcDbPoint
 10
-2530.190470740311
 20
-3286.689832706436
 30
0.0
  0
POINT
  5
255E
330
2554
100
AcDbEntity
  8
DEFPOINTS
 62
     0
100
AcDbPoint
 10
-2629.590479716375
 20
-3286.689832706436
 30
0.0
  0
ENDBLK
  5
255F
330
2554
100
AcDbEntity
  8
0
100
AcDbBlockEnd
  0
BLOCK
  5
2561
330
2560
100
AcDbEntity
  8
0
100
AcDbBlockBegin
  2
*D36
 70
     1
 10
0.0
 20
0.0
 30
0.0
  3
*D36
  1

  0
LINE
  5
2562
330
2560
100
AcDbEntity
  8
KOTIERUNG
 62
     0
370
    -2
100
AcDbLine
 10
-2300.54200534706
 20
-3305.607424296271
 30
0.0
 11
-2300.54200534706
 21
-3434.660735222827
 31
0.0
  0
LINE
  5
2563
330
2560
100
AcDbEntity
  8
KOTIERUNG
 62
     0
370
    -2
100
AcDbLine
 10
-2495.54200534706
 20
-3333.33829809969
 30
0.0
 11
-2495.54200534706
 21
-3434.660735222827
 31
0.0
  0
LINE
  5
2564
330
2560
100
AcDbEntity
  8
KOTIERUNG
 62
     0
370
    -2
100
AcDbLine
 10
-2330.54200534706
 20
-3422.660735222827
 30
0.0
 11
-2465.54200534706
 21
-3422.660735222827
 31
0.0
  0
SOLID
  5
2565
330
2560
100
AcDbEntity
  8
KOTIERUNG
 62
     0
100
AcDbTrace
 10
-2330.54200534706
 20
-3417.660735222828
 30
0.0
 11
-2330.54200534706
 21
-3427.660735222827
 31
0.0
 12
-2300.54200534706
 22
-3422.660735222827
 32
0.0
 13
-2300.54200534706
 23
-3422.660735222827
 33
0.0
  0
SOLID
  5
2566
330
2560
100
AcDbEntity
  8
KOTIERUNG
 62
     0
100
AcDbTrace
 10
-2465.54200534706
 20
-3417.660735222828
 30
0.0
 11
-2465.54200534706
 21
-3427.660735222827
 31
0.0
 12
-2495.54200534706
 22
-3422.660735222827
 32
0.0
 13
-2495.54200534706
 23
-3422.660735222827
 33
0.0
  0
MTEXT
  5
2567
330
2560
100
AcDbEntity
  8
KOTIERUNG
 62
     0
100
AcDbMText
 10
-2398.04200534706
 20
-3398.343545591176
 30
0.0
 40
30.0
 41
0.0
 71
     5
 72
     1
  1
\A1;195
  7
VOEST
 73
     1
 44
1.0
1001
ACAD
1000
MTEXTBEGIN
1070
    73
1070
     1
1070
    44
1040
1.0
1070
    74
1070
     0
1000
MTEXTEND
  0
POINT
  5
2568
330
2560
100
AcDbEntity
  8
DEFPOINTS
 62
     0
100
AcDbPoint
 10
-2300.54200534706
 20
-3293.607424296271
 30
0.0
  0
POINT
  5
2569
330
2560
100
AcDbEntity
  8
DEFPOINTS
 62
     0
100
AcDbPoint
 10
-2495.54200534706
 20
-3321.33829809969
 30
0.0
  0
POINT
  5
256A
330
2560
100
AcDbEntity
  8
DEFPOINTS
 62
     0
100
AcDbPoint
 10
-2495.54200534706
 20
-3422.660735222827
 30
0.0
  0
ENDBLK
  5
256B
330
2560
100
AcDbEntity
  8
0
100
AcDbBlockEnd
  0
BLOCK
  5
256D
330
256C
100
AcDbEntity
  8
0
100
AcDbBlockBegin
  2
*D37
 70
     1
 10
0.0
 20
0.0
 30
0.0
  3
*D37
  1

  0
LINE
  5
256E
330
256C
100
AcDbEntity
  8
HILFSLINIEN
 62
     0
370
    -2
100
AcDbLine
 10
-2501.989257289843
 20
-2517.358592311447
 30
0.0
 11
-4011.160401951725
 21
-2517.358592311447
 31
0.0
  0
LINE
  5
256F
330
256C
100
AcDbEntity
  8
HILFSLINIEN
 62
     0
370
    -2
100
AcDbLine
 10
-2866.075811506013
 20
-2807.358592311447
 30
0.0
 11
-4011.160401951725
 21
-2807.358592311447
 31
0.0
  0
LINE
  5
2570
330
256C
100
AcDbEntity
  8
HILFSLINIEN
 62
     0
370
    -2
100
AcDbLine
 10
-3999.160401951725
 20
-2547.358592311447
 30
0.0
 11
-3999.160401951725
 21
-2777.358592311447
 31
0.0
  0
SOLID
  5
2571
330
256C
100
AcDbEntity
  8
HILFSLINIEN
 62
     0
100
AcDbTrace
 10
-4004.160401951724
 20
-2547.358592311447
 30
0.0
 11
-3994.160401951726
 21
-2547.358592311447
 31
0.0
 12
-3999.160401951725
 22
-2517.358592311447
 32
0.0
 13
-3999.160401951725
 23
-2517.358592311447
 33
0.0
  0
SOLID
  5
2572
330
256C
100
AcDbEntity
  8
HILFSLINIEN
 62
     0
100
AcDbTrace
 10
-4004.160401951724
 20
-2777.358592311447
 30
0.0
 11
-3994.160401951726
 21
-2777.358592311447
 31
0.0
 12
-3999.160401951725
 22
-2807.358592311447
 32
0.0
 13
-3999.160401951725
 23
-2807.358592311447
 33
0.0
  0
MTEXT
  5
2573
102
{ACAD_XDICTIONARY
360
2E56
102
}
330
256C
100
AcDbEntity
  8
HILFSLINIEN
 62
     0
100
AcDbMText
 10
-4023.477591583375
 20
-2703.334922106572
 30
0.0
 40
30.0
 41
0.0
 71
     5
 72
     1
  1
\A1;290\U+00B140
  7
VOEST
 11
0.0000000000000001
 21
1.0
 31
0.0
 73
     1
 44
1.0
1001
ACAD
1000
MTEXTBEGIN
1070
    73
1070
     1
1070
    44
1040
1.0
1070
    74
1070
     0
1000
MTEXTEND
  0
POINT
  5
2574
330
256C
100
AcDbEntity
  8
DEFPOINTS
 62
     0
100
AcDbPoint
 10
-2489.989257289843
 20
-2517.358592311447
 30
0.0
  0
POINT
  5
2575
330
256C
100
AcDbEntity
  8
DEFPOINTS
 62
     0
100
AcDbPoint
 10
-2854.075811506014
 20
-2807.358592311447
 30
0.0
  0
POINT
  5
2576
330
256C
100
AcDbEntity
  8
DEFPOINTS
 62
     0
100
AcDbPoint
 10
-3999.160401951725
 20
-2807.358592311447
 30
0.0
  0
ENDBLK
  5
2577
330
256C
100
AcDbEntity
  8
0
100
AcDbBlockEnd
  0
BLOCK
  5
2579
330
2578
100
AcDbEntity
  8
0
100
AcDbBlockBegin
  2
*D38
 70
     1
 10
0.0
 20
0.0
 30
0.0
  3
*D38
  1

  0
LINE
  5
257A
330
2578
100
AcDbEntity
  8
KOTIERUNG
 62
     0
370
    -2
100
AcDbLine
 10
-2585.468828875285
 20
-1474.911996341216
 30
0.0
 11
-2585.468828875285
 21
-1833.199909853887
 31
0.0
  0
LINE
  5
257B
330
2578
100
AcDbEntity
  8
KOTIERUNG
 62
     0
370
    -2
100
AcDbLine
 10
-2874.242503473372
 20
-1982.810024784864
 30
0.0
 11
-2874.242503473372
 21
-1809.199909853887
 31
0.0
  0
LINE
  5
257C
330
2578
100
AcDbEntity
  8
KOTIERUNG
 62
     0
370
    -2
100
AcDbLine
 10
-2615.468828875285
 20
-1821.199909853887
 30
0.0
 11
-2844.242503473372
 21
-1821.199909853887
 31
0.0
  0
SOLID
  5
257D
330
2578
100
AcDbEntity
  8
KOTIERUNG
 62
     0
100
AcDbTrace
 10
-2615.468828875285
 20
-1816.199909853887
 30
0.0
 11
-2615.468828875285
 21
-1826.199909853887
 31
0.0
 12
-2585.468828875285
 22
-1821.199909853887
 32
0.0
 13
-2585.468828875285
 23
-1821.199909853887
 33
0.0
  0
SOLID
  5
257E
330
2578
100
AcDbEntity
  8
KOTIERUNG
 62
     0
100
AcDbTrace
 10
-2844.242503473372
 20
-1816.199909853887
 30
0.0
 11
-2844.242503473372
 21
-1826.199909853887
 31
0.0
 12
-2874.242503473372
 22
-1821.199909853887
 32
0.0
 13
-2874.242503473372
 23
-1821.199909853887
 33
0.0
  0
MTEXT
  5
257F
330
2578
100
AcDbEntity
  8
KOTIERUNG
 62
     0
100
AcDbMText
 10
-2729.855666174329
 20
-1796.882720222236
 30
0.0
 40
30.0
 41
0.0
 71
     5
 72
     1
  1
\A1;289
  7
VOEST
 73
     1
 44
1.0
1001
ACAD
1000
MTEXTBEGIN
1070
    73
1070
     1
1070
    44
1040
1.0
1070
    74
1070
     0
1000
MTEXTEND
  0
POINT
  5
2580
330
2578
100
AcDbEntity
  8
DEFPOINTS
 62
     0
100
AcDbPoint
 10
-2585.468828875285
 20
-1462.911996341216
 30
0.0
  0
POINT
  5
2581
330
2578
100
AcDbEntity
  8
DEFPOINTS
 62
     0
100
AcDbPoint
 10
-2874.242503473372
 20
-1994.810024784864
 30
0.0
  0
POINT
  5
2582
330
2578
100
AcDbEntity
  8
DEFPOINTS
 62
     0
100
AcDbPoint
 10
-2874.242503473372
 20
-1821.199909853887
 30
0.0
  0
ENDBLK
  5
2583
330
2578
100
AcDbEntity
  8
0
100
AcDbBlockEnd
  0
BLOCK
  5
2585
330
2584
100
AcDbEntity
  8
0
100
AcDbBlockBegin
  2
*D39
 70
     1
 10
0.0
 20
0.0
 30
0.0
  3
*D39
  1

  0
LINE
  5
2586
330
2584
100
AcDbEntity
  8
KOTIERUNG
 62
     0
370
    -2
100
AcDbLine
 10
-2854.075811506014
 20
-2819.358592311447
 30
0.0
 11
-2854.075811506014
 21
-3434.660735222827
 31
0.0
  0
LINE
  5
2587
330
2584
100
AcDbEntity
  8
KOTIERUNG
 62
     0
370
    -2
100
AcDbLine
 10
-2495.54200534706
 20
-3333.33829809969
 30
0.0
 11
-2495.54200534706
 21
-3434.660735222827
 31
0.0
  0
LINE
  5
2588
330
2584
100
AcDbEntity
  8
KOTIERUNG
 62
     0
370
    -2
100
AcDbLine
 10
-2824.075811506014
 20
-3422.660735222827
 30
0.0
 11
-2525.54200534706
 21
-3422.660735222827
 31
0.0
  0
SOLID
  5
2589
330
2584
100
AcDbEntity
  8
KOTIERUNG
 62
     0
100
AcDbTrace
 10
-2824.075811506014
 20
-3417.660735222828
 30
0.0
 11
-2824.075811506014
 21
-3427.660735222827
 31
0.0
 12
-2854.075811506014
 22
-3422.660735222827
 32
0.0
 13
-2854.075811506014
 23
-3422.660735222827
 33
0.0
  0
SOLID
  5
258A
330
2584
100
AcDbEntity
  8
KOTIERUNG
 62
     0
100
AcDbTrace
 10
-2525.54200534706
 20
-3417.660735222828
 30
0.0
 11
-2525.54200534706
 21
-3427.660735222827
 31
0.0
 12
-2495.54200534706
 22
-3422.660735222827
 32
0.0
 13
-2495.54200534706
 23
-3422.660735222827
 33
0.0
  0
MTEXT
  5
258B
330
2584
100
AcDbEntity
  8
KOTIERUNG
 62
     0
100
AcDbMText
 10
-2674.808908426537
 20
-3398.343545591176
 30
0.0
 40
30.0
 41
0.0
 71
     5
 72
     1
  1
\A1;360
  7
VOEST
 73
     1
 44
1.0
1001
ACAD
1000
MTEXTBEGIN
1070
    73
1070
     1
1070
    44
1040
1.0
1070
    74
1070
     0
1000
MTEXTEND
  0
POINT
  5
258C
330
2584
100
AcDbEntity
  8
DEFPOINTS
 62
     0
100
AcDbPoint
 10
-2854.075811506014
 20
-2807.358592311447
 30
0.0
  0
POINT
  5
258D
330
2584
100
AcDbEntity
  8
DEFPOINTS
 62
     0
100
AcDbPoint
 10
-2495.54200534706
 20
-3321.33829809969
 30
0.0
  0
POINT
  5
258E
330
2584
100
AcDbEntity
  8
DEFPOINTS
 62
     0
100
AcDbPoint
 10
-2495.54200534706
 20
-3422.660735222827
 30
0.0
  0
ENDBLK
  5
258F
330
2584
100
AcDbEntity
  8
0
100
AcDbBlockEnd
  0
BLOCK
  5
2591
330
2590
100
AcDbEntity
  8
0
100
AcDbBlockBegin
  2
*D40
 70
     1
 10
0.0
 20
0.0
 30
0.0
  3
*D40
  1

  0
LINE
  5
2592
330
2590
100
AcDbEntity
  8
HILFSLINIEN
 62
     0
 48
0.2
370
    -2
100
AcDbLine
 10
-2649.178502466963
 20
-2162.276706164518
 30
0.0
 11
-2675.981160170981
 21
-2162.276706164518
 31
0.0
  0
LINE
  5
2593
330
2590
100
AcDbEntity
  8
HILFSLINIEN
 62
     0
 48
0.2
370
    -2
100
AcDbLine
 10
-2649.178502466963
 20
-2232.276706164518
 30
0.0
 11
-2675.981160170981
 21
-2232.276706164518
 31
0.0
  0
LINE
  5
2594
330
2590
100
AcDbEntity
  8
HILFSLINIEN
 62
     0
 48
0.2
370
    -2
100
AcDbLine
 10
-2659.981160170981
 20
-2122.276706164518
 30
0.0
 11
-2659.981160170981
 21
-2082.276706164518
 31
0.0
  0
LINE
  5
2595
330
2590
100
AcDbEntity
  8
HILFSLINIEN
 62
     0
 48
0.2
370
    -2
100
AcDbLine
 10
-2659.981160170981
 20
-2272.276706164518
 30
0.0
 11
-2659.981160170981
 21
-2382.879707528775
 31
0.0
  0
SOLID
  5
2596
330
2590
100
AcDbEntity
  8
HILFSLINIEN
 62
     0
 48
0.2
100
AcDbTrace
 10
-2666.647826837647
 20
-2122.276706164518
 30
0.0
 11
-2653.314493504315
 21
-2122.276706164518
 31
0.0
 12
-2659.981160170981
 22
-2162.276706164518
 32
0.0
 13
-2659.981160170981
 23
-2162.276706164518
 33
0.0
  0
SOLID
  5
2597
330
2590
100
AcDbEntity
  8
HILFSLINIEN
 62
     0
 48
0.2
100
AcDbTrace
 10
-2666.647826837647
 20
-2272.276706164518
 30
0.0
 11
-2653.314493504315
 21
-2272.276706164518
 31
0.0
 12
-2659.981160170981
 22
-2232.276706164518
 32
0.0
 13
-2659.981160170981
 23
-2232.276706164518
 33
0.0
  0
MTEXT
  5
2598
330
2590
100
AcDbEntity
  8
HILFSLINIEN
 62
     0
 48
0.2
100
AcDbMText
 10
-2692.404079679848
 20
-2347.578206846647
 30
0.0
 40
40.0
 41
0.0
 71
     5
 72
     1
  1
\A1;70
  7
VOEST
 11
0.0000000000000001
 21
1.0
 31
0.0
 73
     1
 44
1.0
1001
ACAD
1000
MTEXTBEGIN
1070
    73
1070
     1
1070
    44
1040
1.0
1070
    74
1070
     0
1000
MTEXTEND
  0
POINT
  5
2599
330
2590
100
AcDbEntity
  8
DEFPOINTS
 62
     0
 48
0.2
100
AcDbPoint
 10
-2633.178502466963
 20
-2162.276706164518
 30
0.0
  0
POINT
  5
259A
330
2590
100
AcDbEntity
  8
DEFPOINTS
 62
     0
 48
0.2
100
AcDbPoint
 10
-2633.178502466963
 20
-2232.276706164518
 30
0.0
  0
POINT
  5
259B
330
2590
100
AcDbEntity
  8
DEFPOINTS
 62
     0
 48
0.2
100
AcDbPoint
 10
-2659.981160170981
 20
-2232.276706164518
 30
0.0
  0
ENDBLK
  5
259C
330
2590
100
AcDbEntity
  8
0
100
AcDbBlockEnd
  0
BLOCK
  5
259E
330
259D
100
AcDbEntity
  8
0
100
AcDbBlockBegin
  2
*D41
 70
     1
 10
0.0
 20
0.0
 30
0.0
  3
*D41
  1

  0
LINE
  5
259F
330
259D
100
AcDbEntity
  8
HILFSLINIEN
 62
     0
 48
0.2
370
    -2
100
AcDbLine
 10
-2649.178502466963
 20
-2137.776706164518
 30
0.0
 11
-2675.981160170981
 21
-2137.776706164518
 31
0.0
  0
LINE
  5
25A0
330
259D
100
AcDbEntity
  8
HILFSLINIEN
 62
     0
 48
0.2
370
    -2
100
AcDbLine
 10
-2649.178502466963
 20
-1987.776706164518
 30
0.0
 11
-2675.981160170981
 21
-1987.776706164518
 31
0.0
  0
LINE
  5
25A1
330
259D
100
AcDbEntity
  8
HILFSLINIEN
 62
     0
 48
0.2
370
    -2
100
AcDbLine
 10
-2659.981160170981
 20
-2097.776706164518
 30
0.0
 11
-2659.981160170981
 21
-2027.776706164518
 31
0.0
  0
SOLID
  5
25A2
330
259D
100
AcDbEntity
  8
HILFSLINIEN
 62
     0
 48
0.2
100
AcDbTrace
 10
-2666.647826837647
 20
-2097.776706164518
 30
0.0
 11
-2653.314493504315
 21
-2097.776706164518
 31
0.0
 12
-2659.981160170981
 22
-2137.776706164518
 32
0.0
 13
-2659.981160170981
 23
-2137.776706164518
 33
0.0
  0
SOLID
  5
25A3
330
259D
100
AcDbEntity
  8
HILFSLINIEN
 62
     0
 48
0.2
100
AcDbTrace
 10
-2666.647826837647
 20
-2027.776706164518
 30
0.0
 11
-2653.314493504315
 21
-2027.776706164518
 31
0.0
 12
-2659.981160170981
 22
-1987.776706164518
 32
0.0
 13
-2659.981160170981
 23
-1987.776706164518
 33
0.0
  0
MTEXT
  5
25A4
330
259D
100
AcDbEntity
  8
HILFSLINIEN
 62
     0
 48
0.2
100
AcDbMText
 10
-2692.404079679848
 20
-2062.776706164518
 30
0.0
 40
40.0
 41
0.0
 71
     5
 72
     1
  1
\A1;150
  7
VOEST
 11
0.0000000000000001
 21
1.0
 31
0.0
 73
     1
 44
1.0
1001
ACAD
1000
MTEXTBEGIN
1070
    73
1070
     1
1070
    44
1040
1.0
1070
    74
1070
     0
1000
MTEXTEND
  0
POINT
  5
25A5
330
259D
100
AcDbEntity
  8
DEFPOINTS
 62
     0
 48
0.2
100
AcDbPoint
 10
-2633.178502466963
 20
-2137.776706164518
 30
0.0
  0
POINT
  5
25A6
330
259D
100
AcDbEntity
  8
DEFPOINTS
 62
     0
 48
0.2
100
AcDbPoint
 10
-2633.178502466963
 20
-1987.776706164518
 30
0.0
  0
POINT
  5
25A7
330
259D
100
AcDbEntity
  8
DEFPOINTS
 62
     0
 48
0.2
100
AcDbPoint
 10
-2659.981160170981
 20
-1987.776706164518
 30
0.0
  0
ENDBLK
  5
25A8
330
259D
100
AcDbEntity
  8
0
100
AcDbBlockEnd
  0
BLOCK
  5
2735
330
2734
100
AcDbEntity
  8
0
100
AcDbBlockBegin
  2
*D43
 70
     1
 10
0.0
 20
0.0
 30
0.0
  3
*D43
  1

  0
LINE
  5
29DF
330
2734
100
AcDbEntity
  8
HILFSLINIEN
 62
     0
370
    -2
100
AcDbLine
 10
6228.516715423502
 20
587.5855298359389
 30
0.0
 11
4617.645375491799
 21
587.5855298359393
 31
0.0
  0
LINE
  5
29E0
330
2734
100
AcDbEntity
  8
HILFSLINIEN
 62
     0
370
    -2
100
AcDbLine
 10
5854.64497279228
 20
-812.4144701640604
 30
0.0
 11
4617.645375491799
 21
-812.41447016406
 31
0.0
  0
LINE
  5
29E1
330
2734
100
AcDbEntity
  8
HILFSLINIEN
 62
     0
370
    -2
100
AcDbLine
 10
4647.645375491801
 20
557.5855298359393
 30
0.0
 11
4647.645375491801
 21
-782.4144701640602
 31
0.0
  0
SOLID
  5
29E2
330
2734
100
AcDbEntity
  8
HILFSLINIEN
 62
     0
100
AcDbTrace
 10
4642.6453754918
 20
557.5855298359393
 30
0.0
 11
4652.6453754918
 21
557.5855298359393
 31
0.0
 12
4647.645375491801
 22
587.5855298359393
 32
0.0
 13
4647.645375491801
 23
587.5855298359393
 33
0.0
  0
SOLID
  5
29E3
330
2734
100
AcDbEntity
  8
HILFSLINIEN
 62
     0
100
AcDbTrace
 10
4642.6453754918
 20
-782.4144701640602
 30
0.0
 11
4652.6453754918
 21
-782.4144701640602
 31
0.0
 12
4647.645375491801
 22
-812.41447016406
 32
0.0
 13
4647.645375491801
 23
-812.41447016406
 33
0.0
  0
MTEXT
  5
29E4
102
{ACAD_XDICTIONARY
360
2E58
102
}
330
2734
100
AcDbEntity
  8
HILFSLINIEN
 62
     0
100
AcDbMText
 10
4623.328185860149
 20
48.7609237047767
 30
0.0
 40
30.0
 41
0.0
 71
     5
 72
     1
  1
\A1;1400\U+00B140.0000
  7
VOEST
 11
0.0000000000000001
 21
1.0
 31
0.0
 73
     1
 44
1.0
1001
ACAD
1000
MTEXTBEGIN
1070
    73
1070
     1
1070
    44
1040
1.0
1070
    74
1070
     0
1000
MTEXTEND
  0
POINT
  5
29E5
330
2734
100
AcDbEntity
  8
DEFPOINTS
 62
     0
100
AcDbPoint
 10
6288.516715423503
 20
587.5855298359389
 30
0.0
  0
POINT
  5
29E6
330
2734
100
AcDbEntity
  8
DEFPOINTS
 62
     0
100
AcDbPoint
 10
5914.64497279228
 20
-812.4144701640606
 30
0.0
  0
POINT
  5
29E7
330
2734
100
AcDbEntity
  8
DEFPOINTS
 62
     0
100
AcDbPoint
 10
4647.645375491801
 20
-812.41447016406
 30
0.0
  0
ENDBLK
  5
2736
330
2734
100
AcDbEntity
  8
0
100
AcDbBlockEnd
  0
BLOCK
  5
2741
330
2740
100
AcDbEntity
  8
0
100
AcDbBlockBegin
  2
*D44
 70
     1
 10
0.0
 20
0.0
 30
0.0
  3
*D44
  1

  0
LINE
  5
29E8
330
2740
100
AcDbEntity
  8
HILFSLINIEN
 62
     0
370
    -2
100
AcDbLine
 10
5854.64497279228
 20
-812.4144701640604
 30
0.0
 11
4745.205858203738
 21
-812.41447016406
 31
0.0
  0
LINE
  5
29E9
330
2740
100
AcDbEntity
  8
HILFSLINIEN
 62
     0
370
    -2
100
AcDbLine
 10
5984.016791195397
 20
57.58552983593895
 30
0.0
 11
4745.205858203738
 21
57.58552983593929
 31
0.0
  0
LINE
  5
29EA
330
2740
100
AcDbEntity
  8
HILFSLINIEN
 62
     0
370
    -2
100
AcDbLine
 10
4775.205858203739
 20
-782.4144701640602
 30
0.0
 11
4775.205858203739
 21
27.58552983593929
 31
0.0
  0
SOLID
  5
29EB
330
2740
100
AcDbEntity
  8
HILFSLINIEN
 62
     0
100
AcDbTrace
 10
4770.205858203738
 20
-782.4144701640602
 30
0.0
 11
4780.205858203738
 21
-782.4144701640602
 31
0.0
 12
4775.205858203739
 22
-812.41447016406
 32
0.0
 13
4775.205858203739
 23
-812.41447016406
 33
0.0
  0
SOLID
  5
29EC
330
2740
100
AcDbEntity
  8
HILFSLINIEN
 62
     0
100
AcDbTrace
 10
4770.205858203738
 20
27.58552983593929
 30
0.0
 11
4780.205858203738
 21
27.58552983593929
 31
0.0
 12
4775.205858203739
 22
57.58552983593929
 32
0.0
 13
4775.205858203739
 23
57.58552983593929
 33
0.0
  0
MTEXT
  5
29ED
102
{ACAD_XDICTIONARY
360
2E5A
102
}
330
2740
100
AcDbEntity
  8
HILFSLINIEN
 62
     0
100
AcDbMText
 10
4750.888668572088
 20
-310.5299560304514
 30
0.0
 40
30.0
 41
0.0
 71
     5
 72
     1
  1
\A1;870\U+00B140.0000
  7
VOEST
 11
0.0000000000000001
 21
1.0
 31
0.0
 73
     1
 44
1.0
1001
ACAD
1000
MTEXTBEGIN
1070
    73
1070
     1
1070
    44
1040
1.0
1070
    74
1070
     0
1000
MTEXTEND
  0
POINT
  5
29EE
330
2740
100
AcDbEntity
  8
DEFPOINTS
 62
     0
100
AcDbPoint
 10
5914.64497279228
 20
-812.4144701640606
 30
0.0
  0
POINT
  5
29EF
330
2740
100
AcDbEntity
  8
DEFPOINTS
 62
     0
100
AcDbPoint
 10
6044.016791195398
 20
57.58552983593893
 30
0.0
  0
POINT
  5
29F0
330
2740
100
AcDbEntity
  8
DEFPOINTS
 62
     0
100
AcDbPoint
 10
4775.205858203739
 20
57.58552983593929
 30
0.0
  0
ENDBLK
  5
2742
330
2740
100
AcDbEntity
  8
0
100
AcDbBlockEnd
  0
BLOCK
  5
274D
330
274C
100
AcDbEntity
  8
0
100
AcDbBlockBegin
  2
*D45
 70
     1
 10
0.0
 20
0.0
 30
0.0
  3
*D45
  1

  0
LINE
  5
2AE3
330
274C
100
AcDbEntity
  8
KOTIERUNG
 62
     0
370
    -2
100
AcDbLine
 10
7152.409439693466
 20
-682.4144701640606
 30
0.0
 11
7152.409439693466
 21
-477.8666834297935
 31
0.0
  0
LINE
  5
2AE4
330
274C
100
AcDbEntity
  8
KOTIERUNG
 62
     0
370
    -2
100
AcDbLine
 10
7132.242747726109
 20
-59.86590263747837
 30
0.0
 11
7132.242747726109
 21
-537.8666834297936
 31
0.0
  0
LINE
  5
2AE5
330
274C
100
AcDbEntity
  8
KOTIERUNG
 62
     0
370
    -2
100
AcDbLine
 10
7102.242747726108
 20
-507.8666834297936
 30
0.0
 11
7072.242747726107
 21
-507.8666834297936
 31
0.0
  0
LINE
  5
2AE6
330
274C
100
AcDbEntity
  8
KOTIERUNG
 62
     0
370
    -2
100
AcDbLine
 10
7182.409439693467
 20
-507.8666834297936
 30
0.0
 11
7265.975606132759
 21
-507.8666834297936
 31
0.0
  0
SOLID
  5
2AE7
330
274C
100
AcDbEntity
  8
KOTIERUNG
 62
     0
100
AcDbTrace
 10
7102.242747726108
 20
-502.8666834297935
 30
0.0
 11
7102.242747726108
 21
-512.8666834297936
 31
0.0
 12
7132.242747726109
 22
-507.8666834297936
 32
0.0
 13
7132.242747726109
 23
-507.8666834297936
 33
0.0
  0
SOLID
  5
2AE8
330
274C
100
AcDbEntity
  8
KOTIERUNG
 62
     0
100
AcDbTrace
 10
7182.409439693467
 20
-502.8666834297935
 30
0.0
 11
7182.409439693467
 21
-512.8666834297936
 31
0.0
 12
7152.409439693466
 22
-507.8666834297936
 32
0.0
 13
7152.409439693466
 23
-507.8666834297936
 33
0.0
  0
MTEXT
  5
2AE9
330
274C
100
AcDbEntity
  8
KOTIERUNG
 62
     0
100
AcDbMText
 10
7239.192522913111
 20
-483.5494937981429
 30
0.0
 40
30.0
 41
0.0
 71
     5
 72
     1
  1
\A1;20
  7
VOEST
 73
     1
 44
1.0
1001
ACAD
1000
MTEXTBEGIN
1070
    73
1070
     1
1070
    44
1040
1.0
1070
    74
1070
     0
1000
MTEXTEND
  0
POINT
  5
2AEA
330
274C
100
AcDbEntity
  8
DEFPOINTS
 62
     0
100
AcDbPoint
 10
7152.409439693466
 20
-742.4144701640606
 30
0.0
  0
POINT
  5
2AEB
330
274C
100
AcDbEntity
  8
DEFPOINTS
 62
     0
100
AcDbPoint
 10
7132.242747726109
 20
0.1340973625216293
 30
0.0
  0
POINT
  5
2AEC
330
274C
100
AcDbEntity
  8
DEFPOINTS
 62
     0
100
AcDbPoint
 10
7132.242747726109
 20
-507.8666834297936
 30
0.0
  0
ENDBLK
  5
274E
330
274C
100
AcDbEntity
  8
0
100
AcDbBlockEnd
  0
BLOCK
  5
275A
330
2759
100
AcDbEntity
  8
0
100
AcDbBlockBegin
  2
*D46
 70
     1
 10
0.0
 20
0.0
 30
0.0
  3
*D46
  1

  0
LINE
  5
2D14
330
2759
100
AcDbEntity
  8
KOTIERUNG
 62
     0
370
    -2
100
AcDbLine
 10
7176.459861846147
 20
-981.7032580550472
 30
0.0
 11
7176.459861846147
 21
-912.398918319497
 31
0.0
  0
LINE
  5
2D15
330
2759
100
AcDbEntity
  8
KOTIERUNG
 62
     0
370
    -2
100
AcDbLine
 10
6846.425603455641
 20
-931.4586616835594
 30
0.0
 11
6846.425603455641
 21
-912.398918319497
 31
0.0
  0
LINE
  5
2D16
330
2759
100
AcDbEntity
  8
KOTIERUNG
 62
     0
370
    -2
100
AcDbLine
 10
7146.459861846146
 20
-942.3989183194969
 30
0.0
 11
6876.425603455641
 21
-942.3989183194969
 31
0.0
  0
SOLID
  5
2D17
330
2759
100
AcDbEntity
  8
KOTIERUNG
 62
     0
100
AcDbTrace
 10
7146.459861846146
 20
-937.398918319497
 30
0.0
 11
7146.459861846146
 21
-947.3989183194969
 31
0.0
 12
7176.459861846147
 22
-942.3989183194969
 32
0.0
 13
7176.459861846147
 23
-942.3989183194969
 33
0.0
  0
SOLID
  5
2D18
330
2759
100
AcDbEntity
  8
KOTIERUNG
 62
     0
100
AcDbTrace
 10
6876.425603455641
 20
-937.398918319497
 30
0.0
 11
6876.425603455641
 21
-947.3989183194969
 31
0.0
 12
6846.425603455641
 22
-942.3989183194969
 32
0.0
 13
6846.425603455641
 23
-942.3989183194969
 33
0.0
  0
MTEXT
  5
2D19
330
2759
100
AcDbEntity
  8
KOTIERUNG
 62
     0
100
AcDbMText
 10
7011.442732650895
 20
-918.0817286878461
 30
0.0
 40
30.0
 41
0.0
 71
     5
 72
     1
  1
\A1;330
  7
VOEST
 73
     1
 44
1.0
1001
ACAD
1000
MTEXTBEGIN
1070
    73
1070
     1
1070
    44
1040
1.0
1070
    74
1070
     0
1000
MTEXTEND
  0
POINT
  5
2D1A
330
2759
100
AcDbEntity
  8
DEFPOINTS
 62
     0
100
AcDbPoint
 10
7176.459861846147
 20
-1041.703258055047
 30
0.0
  0
POINT
  5
2D1B
330
2759
100
AcDbEntity
  8
DEFPOINTS
 62
     0
100
AcDbPoint
 10
6846.425603455641
 20
-991.4586616835594
 30
0.0
  0
POINT
  5
2D1C
330
2759
100
AcDbEntity
  8
DEFPOINTS
 62
     0
100
AcDbPoint
 10
6846.425603455641
 20
-942.3989183194969
 30
0.0
  0
ENDBLK
  5
275B
330
2759
100
AcDbEntity
  8
0
100
AcDbBlockEnd
  0
BLOCK
  5
2766
330
2765
100
AcDbEntity
  8
0
100
AcDbBlockBegin
  2
*D47
 70
     1
 10
0.0
 20
0.0
 30
0.0
  3
*D47
  1

  0
LINE
  5
2D1D
330
2765
100
AcDbEntity
  8
KOTIERUNG
 62
     0
370
    -2
100
AcDbLine
 10
6790.440412208774
 20
-988.0184050476207
 30
0.0
 11
6655.580044322426
 21
-988.0184050476207
 31
0.0
  0
LINE
  5
2D1E
330
2765
100
AcDbEntity
  8
KOTIERUNG
 62
     0
370
    -2
100
AcDbLine
 10
6790.440412208775
 20
-1392.556657440783
 30
0.0
 11
6655.580044322426
 21
-1392.556657440783
 31
0.0
  0
LINE
  5
2D1F
330
2765
100
AcDbEntity
  8
KOTIERUNG
 62
     0
370
    -2
100
AcDbLine
 10
6685.580044322425
 20
-1018.018405047621
 30
0.0
 11
6685.580044322425
 21
-1362.556657440783
 31
0.0
  0
SOLID
  5
2D20
330
2765
100
AcDbEntity
  8
KOTIERUNG
 62
     0
100
AcDbTrace
 10
6680.580044322425
 20
-1018.018405047621
 30
0.0
 11
6690.580044322425
 21
-1018.018405047621
 31
0.0
 12
6685.580044322425
 22
-988.0184050476207
 32
0.0
 13
6685.580044322425
 23
-988.0184050476207
 33
0.0
  0
SOLID
  5
2D21
330
2765
100
AcDbEntity
  8
KOTIERUNG
 62
     0
100
AcDbTrace
 10
6680.580044322425
 20
-1362.556657440783
 30
0.0
 11
6690.580044322425
 21
-1362.556657440783
 31
0.0
 12
6685.580044322425
 22
-1392.556657440783
 32
0.0
 13
6685.580044322425
 23
-1392.556657440783
 33
0.0
  0
MTEXT
  5
2D22
330
2765
100
AcDbEntity
  8
KOTIERUNG
 62
     0
100
AcDbMText
 10
6661.262854690774
 20
-1190.287531244201
 30
0.0
 40
30.0
 41
0.0
 71
     5
 72
     1
  1
\A1;405
  7
VOEST
 11
0.0000000000000001
 21
1.0
 31
0.0
 73
     1
 44
1.0
1001
ACAD
1000
MTEXTBEGIN
1070
    73
1070
     1
1070
    44
1040
1.0
1070
    74
1070
     0
1000
MTEXTEND
  0
POINT
  5
2D23
330
2765
100
AcDbEntity
  8
DEFPOINTS
 62
     0
100
AcDbPoint
 10
6850.440412208773
 20
-988.0184050476207
 30
0.0
  0
POINT
  5
2D24
330
2765
100
AcDbEntity
  8
DEFPOINTS
 62
     0
100
AcDbPoint
 10
6850.440412208775
 20
-1392.556657440783
 30
0.0
  0
POINT
  5
2D25
330
2765
100
AcDbEntity
  8
DEFPOINTS
 62
     0
100
AcDbPoint
 10
6685.580044322425
 20
-1392.556657440783
 30
0.0
  0
ENDBLK
  5
2767
330
2765
100
AcDbEntity
  8
0
100
AcDbBlockEnd
  0
BLOCK
  5
2772
330
2771
100
AcDbEntity
  8
0
100
AcDbBlockBegin
  2
*D48
 70
     1
 10
0.0
 20
0.0
 30
0.0
  3
*D48
  1

  0
LINE
  5
2D26
330
2771
100
AcDbEntity
  8
KOTIERUNG
 62
     0
370
    -2
100
AcDbLine
 10
7236.459861846147
 20
-1041.703258055046
 30
0.0
 11
7336.682669874081
 21
-1041.703258055046
 31
0.0
  0
LINE
  5
2D27
330
2771
100
AcDbEntity
  8
KOTIERUNG
 62
     0
370
    -2
100
AcDbLine
 10
7236.459861846142
 20
-1338.871804433358
 30
0.0
 11
7336.682669874081
 21
-1338.871804433358
 31
0.0
  0
LINE
  5
2D28
330
2771
100
AcDbEntity
  8
KOTIERUNG
 62
     0
370
    -2
100
AcDbLine
 10
7306.682669874081
 20
-1071.703258055046
 30
0.0
 11
7306.682669874081
 21
-1308.871804433358
 31
0.0
  0
SOLID
  5
2D29
330
2771
100
AcDbEntity
  8
KOTIERUNG
 62
     0
100
AcDbTrace
 10
7301.682669874081
 20
-1071.703258055046
 30
0.0
 11
7311.68266987408
 21
-1071.703258055046
 31
0.0
 12
7306.682669874081
 22
-1041.703258055046
 32
0.0
 13
7306.682669874081
 23
-1041.703258055046
 33
0.0
  0
SOLID
  5
2D2A
330
2771
100
AcDbEntity
  8
KOTIERUNG
 62
     0
100
AcDbTrace
 10
7301.682669874081
 20
-1308.871804433358
 30
0.0
 11
7311.68266987408
 21
-1308.871804433358
 31
0.0
 12
7306.682669874081
 22
-1338.871804433358
 32
0.0
 13
7306.682669874081
 23
-1338.871804433358
 33
0.0
  0
MTEXT
  5
2D2B
330
2771
100
AcDbEntity
  8
KOTIERUNG
 62
     0
100
AcDbMText
 10
7282.36548024243
 20
-1191.352985158901
 30
0.0
 40
30.0
 41
0.0
 71
     5
 72
     1
  1
\A1;297
  7
VOEST
 11
0.0000000000000001
 21
1.0
 31
0.0
 73
     1
 44
1.0
1001
ACAD
1000
MTEXTBEGIN
1070
    73
1070
     1
1070
    44
1040
1.0
1070
    74
1070
     0
1000
MTEXTEND
  0
POINT
  5
2D2C
330
2771
100
AcDbEntity
  8
DEFPOINTS
 62
     0
100
AcDbPoint
 10
7176.459861846147
 20
-1041.703258055046
 30
0.0
  0
POINT
  5
2D2D
330
2771
100
AcDbEntity
  8
DEFPOINTS
 62
     0
100
AcDbPoint
 10
7176.459861846144
 20
-1338.871804433358
 30
0.0
  0
POINT
  5
2D2E
330
2771
100
AcDbEntity
  8
DEFPOINTS
 62
     0
100
AcDbPoint
 10
7306.682669874081
 20
-1338.871804433358
 30
0.0
  0
ENDBLK
  5
2773
330
2771
100
AcDbEntity
  8
0
100
AcDbBlockEnd
  0
BLOCK
  5
277E
330
277D
100
AcDbEntity
  8
0
100
AcDbBlockBegin
  2
*D49
 70
     1
 10
0.0
 20
0.0
 30
0.0
  3
*D49
  1

  0
LINE
  5
2D2F
330
277D
100
AcDbEntity
  8
KOTIERUNG
 62
     0
370
    -2
100
AcDbLine
 10
7211.074068848894
 20
-1090.287531244202
 30
0.0
 11
7280.593100304486
 21
-1090.287531244202
 31
0.0
  0
LINE
  5
2D30
330
277D
100
AcDbEntity
  8
KOTIERUNG
 62
     0
370
    -2
100
AcDbLine
 10
7211.074068848896
 20
-1290.287531244201
 30
0.0
 11
7280.593100304486
 21
-1290.287531244201
 31
0.0
  0
LINE
  5
2D31
330
277D
100
AcDbEntity
  8
KOTIERUNG
 62
     0
370
    -2
100
AcDbLine
 10
7250.593100304486
 20
-1120.287531244202
 30
0.0
 11
7250.593100304486
 21
-1260.287531244201
 31
0.0
  0
SOLID
  5
2D32
330
277D
100
AcDbEntity
  8
KOTIERUNG
 62
     0
100
AcDbTrace
 10
7245.593100304486
 20
-1120.287531244202
 30
0.0
 11
7255.593100304486
 21
-1120.287531244202
 31
0.0
 12
7250.593100304486
 22
-1090.287531244202
 32
0.0
 13
7250.593100304486
 23
-1090.287531244202
 33
0.0
  0
SOLID
  5
2D33
330
277D
100
AcDbEntity
  8
KOTIERUNG
 62
     0
100
AcDbTrace
 10
7245.593100304486
 20
-1260.287531244201
 30
0.0
 11
7255.593100304486
 21
-1260.287531244201
 31
0.0
 12
7250.593100304486
 22
-1290.287531244201
 32
0.0
 13
7250.593100304486
 23
-1290.287531244201
 33
0.0
  0
MTEXT
  5
2D34
330
277D
100
AcDbEntity
  8
KOTIERUNG
 62
     0
100
AcDbMText
 10
7226.275910672836
 20
-1190.287531244201
 30
0.0
 40
30.0
 41
0.0
 71
     5
 72
     1
  1
\A1;200
  7
VOEST
 11
0.0000000000000001
 21
1.0
 31
0.0
 73
     1
 44
1.0
1001
ACAD
1000
MTEXTBEGIN
1070
    73
1070
     1
1070
    44
1040
1.0
1070
    74
1070
     0
1000
MTEXTEND
  0
POINT
  5
2D35
330
277D
100
AcDbEntity
  8
DEFPOINTS
 62
     0
100
AcDbPoint
 10
7151.074068848894
 20
-1090.287531244202
 30
0.0
  0
POINT
  5
2D36
330
277D
100
AcDbEntity
  8
DEFPOINTS
 62
     0
100
AcDbPoint
 10
7151.074068848896
 20
-1290.287531244201
 30
0.0
  0
POINT
  5
2D37
330
277D
100
AcDbEntity
  8
DEFPOINTS
 62
     0
100
AcDbPoint
 10
7250.593100304486
 20
-1290.287531244201
 30
0.0
  0
ENDBLK
  5
277F
330
277D
100
AcDbEntity
  8
0
100
AcDbBlockEnd
  0
BLOCK
  5
278A
330
2789
100
AcDbEntity
  8
0
100
AcDbBlockBegin
  2
*D50
 70
     1
 10
0.0
 20
0.0
 30
0.0
  3
*D50
  1

  0
LINE
  5
2D38
330
2789
100
AcDbEntity
  8
KOTIERUNG
 62
     0
370
    -2
100
AcDbLine
 10
6821.77713806239
 20
-1058.018405047621
 30
0.0
 11
6752.377129086326
 21
-1058.018405047621
 31
0.0
  0
LINE
  5
2D39
330
2789
100
AcDbEntity
  8
KOTIERUNG
 62
     0
370
    -2
100
AcDbLine
 10
6821.77713806239
 20
-1318.01840504762
 30
0.0
 11
6752.377129086326
 21
-1318.01840504762
 31
0.0
  0
LINE
  5
2D3A
330
2789
100
AcDbEntity
  8
KOTIERUNG
 62
     0
370
    -2
100
AcDbLine
 10
6782.377129086326
 20
-1088.018405047621
 30
0.0
 11
6782.377129086326
 21
-1288.01840504762
 31
0.0
  0
SOLID
  5
2D3B
330
2789
100
AcDbEntity
  8
KOTIERUNG
 62
     0
100
AcDbTrace
 10
6777.377129086326
 20
-1088.018405047621
 30
0.0
 11
6787.377129086326
 21
-1088.018405047621
 31
0.0
 12
6782.377129086326
 22
-1058.018405047621
 32
0.0
 13
6782.377129086326
 23
-1058.018405047621
 33
0.0
  0
SOLID
  5
2D3C
330
2789
100
AcDbEntity
  8
KOTIERUNG
 62
     0
100
AcDbTrace
 10
6777.377129086326
 20
-1288.01840504762
 30
0.0
 11
6787.377129086326
 21
-1288.01840504762
 31
0.0
 12
6782.377129086326
 22
-1318.01840504762
 32
0.0
 13
6782.377129086326
 23
-1318.01840504762
 33
0.0
  0
MTEXT
  5
2D3D
330
2789
100
AcDbEntity
  8
KOTIERUNG
 62
     0
100
AcDbMText
 10
6758.059939454675
 20
-1188.018405047619
 30
0.0
 40
30.0
 41
0.0
 71
     5
 72
     1
  1
\A1;260
  7
VOEST
 11
0.0000000000000001
 21
1.0
 31
0.0
 73
     1
 44
1.0
1001
ACAD
1000
MTEXTBEGIN
1070
    73
1070
     1
1070
    44
1040
1.0
1070
    74
1070
     0
1000
MTEXTEND
  0
POINT
  5
2D3E
330
2789
100
AcDbEntity
  8
DEFPOINTS
 62
     0
100
AcDbPoint
 10
6881.777138062389
 20
-1058.018405047621
 30
0.0
  0
POINT
  5
2D3F
330
2789
100
AcDbEntity
  8
DEFPOINTS
 62
     0
100
AcDbPoint
 10
6881.777138062389
 20
-1318.01840504762
 30
0.0
  0
POINT
  5
2D40
330
2789
100
AcDbEntity
  8
DEFPOINTS
 62
     0
100
AcDbPoint
 10
6782.377129086326
 20
-1318.01840504762
 30
0.0
  0
ENDBLK
  5
278B
330
2789
100
AcDbEntity
  8
0
100
AcDbBlockEnd
  0
BLOCK
  5
2796
330
2795
100
AcDbEntity
  8
0
100
AcDbBlockBegin
  2
*D51
 70
     1
 10
0.0
 20
0.0
 30
0.0
  3
*D51
  1

  0
LINE
  5
2D41
330
2795
100
AcDbEntity
  8
KOTIERUNG
 62
     0
370
    -2
100
AcDbLine
 10
7111.425603455642
 20
-1384.935996637455
 30
0.0
 11
7111.425603455642
 21
-1483.989307564011
 31
0.0
  0
LINE
  5
2D42
330
2795
100
AcDbEntity
  8
KOTIERUNG
 62
     0
370
    -2
100
AcDbLine
 10
6916.425603455642
 20
-1412.666870440874
 30
0.0
 11
6916.425603455642
 21
-1483.989307564011
 31
0.0
  0
LINE
  5
2D43
330
2795
100
AcDbEntity
  8
KOTIERUNG
 62
     0
370
    -2
100
AcDbLine
 10
7081.425603455641
 20
-1453.989307564011
 30
0.0
 11
6946.425603455641
 21
-1453.989307564011
 31
0.0
  0
SOLID
  5
2D44
330
2795
100
AcDbEntity
  8
KOTIERUNG
 62
     0
100
AcDbTrace
 10
7081.425603455641
 20
-1448.989307564011
 30
0.0
 11
7081.425603455641
 21
-1458.989307564011
 31
0.0
 12
7111.425603455642
 22
-1453.989307564011
 32
0.0
 13
7111.425603455642
 23
-1453.989307564011
 33
0.0
  0
SOLID
  5
2D45
330
2795
100
AcDbEntity
  8
KOTIERUNG
 62
     0
100
AcDbTrace
 10
6946.425603455641
 20
-1448.989307564011
 30
0.0
 11
6946.425603455641
 21
-1458.989307564011
 31
0.0
 12
6916.425603455642
 22
-1453.989307564011
 32
0.0
 13
6916.425603455642
 23
-1453.989307564011
 33
0.0
  0
MTEXT
  5
2D46
330
2795
100
AcDbEntity
  8
KOTIERUNG
 62
     0
100
AcDbMText
 10
7013.925603455641
 20
-1429.67211793236
 30
0.0
 40
30.0
 41
0.0
 71
     5
 72
     1
  1
\A1;195
  7
VOEST
 73
     1
 44
1.0
1001
ACAD
1000
MTEXTBEGIN
1070
    73
1070
     1
1070
    44
1040
1.0
1070
    74
1070
     0
1000
MTEXTEND
  0
POINT
  5
2D47
330
2795
100
AcDbEntity
  8
DEFPOINTS
 62
     0
100
AcDbPoint
 10
7111.425603455642
 20
-1324.935996637455
 30
0.0
  0
POINT
  5
2D48
330
2795
100
AcDbEntity
  8
DEFPOINTS
 62
     0
100
AcDbPoint
 10
6916.425603455642
 20
-1352.666870440874
 30
0.0
  0
POINT
  5
2D49
330
2795
100
AcDbEntity
  8
DEFPOINTS
 62
     0
100
AcDbPoint
 10
6916.425603455642
 20
-1453.989307564011
 30
0.0
  0
ENDBLK
  5
2797
330
2795
100
AcDbEntity
  8
0
100
AcDbBlockEnd
  0
BLOCK
  5
27A2
330
27A1
100
AcDbEntity
  8
0
100
AcDbBlockBegin
  2
*D52
 70
     1
 10
0.0
 20
0.0
 30
0.0
  3
*D52
  1

  0
LINE
  5
2A31
330
27A1
100
AcDbEntity
  8
HILFSLINIEN
 62
     0
370
    -2
100
AcDbLine
 10
6298.987844383366
 20
-522.414470164061
 30
0.0
 11
4819.816699721483
 21
-522.4144701640605
 31
0.0
  0
LINE
  5
2A32
330
27A1
100
AcDbEntity
  8
HILFSLINIEN
 62
     0
370
    -2
100
AcDbLine
 10
5934.901290167195
 20
-812.4144701640611
 30
0.0
 11
4819.816699721483
 21
-812.4144701640606
 31
0.0
  0
LINE
  5
2A33
330
27A1
100
AcDbEntity
  8
HILFSLINIEN
 62
     0
370
    -2
100
AcDbLine
 10
4849.816699721483
 20
-552.4144701640606
 30
0.0
 11
4849.816699721483
 21
-782.4144701640606
 31
0.0
  0
SOLID
  5
2A34
330
27A1
100
AcDbEntity
  8
HILFSLINIEN
 62
     0
100
AcDbTrace
 10
4844.816699721484
 20
-552.4144701640606
 30
0.0
 11
4854.816699721482
 21
-552.4144701640606
 31
0.0
 12
4849.816699721483
 22
-522.4144701640605
 32
0.0
 13
4849.816699721483
 23
-522.4144701640605
 33
0.0
  0
SOLID
  5
2A35
330
27A1
100
AcDbEntity
  8
HILFSLINIEN
 62
     0
100
AcDbTrace
 10
4844.816699721484
 20
-782.4144701640606
 30
0.0
 11
4854.816699721482
 21
-782.4144701640606
 31
0.0
 12
4849.816699721483
 22
-812.4144701640606
 32
0.0
 13
4849.816699721483
 23
-812.4144701640606
 33
0.0
  0
MTEXT
  5
2A36
102
{ACAD_XDICTIONARY
360
2E5C
102
}
330
27A1
100
AcDbEntity
  8
HILFSLINIEN
 62
     0
100
AcDbMText
 10
4825.499510089833
 20
-708.3907999591864
 30
0.0
 40
30.0
 41
0.0
 71
     5
 72
     1
  1
\A1;290\U+00B140.0000
  7
VOEST
 11
0.0000000000000001
 21
1.0
 31
0.0
 73
     1
 44
1.0
1001
ACAD
1000
MTEXTBEGIN
1070
    73
1070
     1
1070
    44
1040
1.0
1070
    74
1070
     0
1000
MTEXTEND
  0
POINT
  5
2A37
330
27A1
100
AcDbEntity
  8
DEFPOINTS
 62
     0
100
AcDbPoint
 10
6358.987844383366
 20
-522.414470164061
 30
0.0
  0
POINT
  5
2A38
330
27A1
100
AcDbEntity
  8
DEFPOINTS
 62
     0
100
AcDbPoint
 10
5994.901290167195
 20
-812.4144701640611
 30
0.0
  0
POINT
  5
2A39
330
27A1
100
AcDbEntity
  8
DEFPOINTS
 62
     0
100
AcDbPoint
 10
4849.816699721483
 20
-812.4144701640606
 30
0.0
  0
ENDBLK
  5
27A3
330
27A1
100
AcDbEntity
  8
0
100
AcDbBlockEnd
  0
BLOCK
  5
27AE
330
27AD
100
AcDbEntity
  8
0
100
AcDbBlockBegin
  2
*D53
 70
     1
 10
0.0
 20
0.0
 30
0.0
  3
*D53
  1

  0
LINE
  5
2B23
330
27AD
100
AcDbEntity
  8
KOTIERUNG
 62
     0
370
    -2
100
AcDbLine
 10
7421.016422324195
 20
472.0321258061698
 30
0.0
 11
7421.016422324195
 21
143.7442122934991
 31
0.0
  0
LINE
  5
2B24
330
27AD
100
AcDbEntity
  8
KOTIERUNG
 62
     0
370
    -2
100
AcDbLine
 10
7132.242747726109
 20
60.13409736252163
 30
0.0
 11
7132.242747726109
 21
203.7442122934991
 31
0.0
  0
LINE
  5
2B25
330
27AD
100
AcDbEntity
  8
KOTIERUNG
 62
     0
370
    -2
100
AcDbLine
 10
7391.016422324195
 20
173.7442122934991
 30
0.0
 11
7162.242747726108
 21
173.7442122934991
 31
0.0
  0
SOLID
  5
2B26
330
27AD
100
AcDbEntity
  8
KOTIERUNG
 62
     0
100
AcDbTrace
 10
7391.016422324195
 20
178.7442122934991
 30
0.0
 11
7391.016422324195
 21
168.7442122934991
 31
0.0
 12
7421.016422324195
 22
173.7442122934991
 32
0.0
 13
7421.016422324195
 23
173.7442122934991
 33
0.0
  0
SOLID
  5
2B27
330
27AD
100
AcDbEntity
  8
KOTIERUNG
 62
     0
100
AcDbTrace
 10
7162.242747726108
 20
178.7442122934991
 30
0.0
 11
7162.242747726108
 21
168.7442122934991
 31
0.0
 12
7132.242747726109
 22
173.7442122934991
 32
0.0
 13
7132.242747726109
 23
173.7442122934991
 33
0.0
  0
MTEXT
  5
2B28
330
27AD
100
AcDbEntity
  8
KOTIERUNG
 62
     0
100
AcDbMText
 10
7276.629585025151
 20
198.0614019251499
 30
0.0
 40
30.0
 41
0.0
 71
     5
 72
     1
  1
\A1;289
  7
VOEST
 73
     1
 44
1.0
1001
ACAD
1000
MTEXTBEGIN
1070
    73
1070
     1
1070
    44
1040
1.0
1070
    74
1070
     0
1000
MTEXTEND
  0
POINT
  5
2B29
330
27AD
100
AcDbEntity
  8
DEFPOINTS
 62
     0
100
AcDbPoint
 10
7421.016422324195
 20
532.0321258061698
 30
0.0
  0
POINT
  5
2B2A
330
27AD
100
AcDbEntity
  8
DEFPOINTS
 62
     0
100
AcDbPoint
 10
7132.242747726109
 20
0.1340973625216293
 30
0.0
  0
POINT
  5
2B2B
330
27AD
100
AcDbEntity
  8
DEFPOINTS
 62
     0
100
AcDbPoint
 10
7132.242747726109
 20
173.7442122934991
 30
0.0
  0
ENDBLK
  5
27AF
330
27AD
100
AcDbEntity
  8
0
100
AcDbBlockEnd
  0
BLOCK
  5
27BA
330
27B9
100
AcDbEntity
  8
0
100
AcDbBlockBegin
  2
*D54
 70
     1
 10
0.0
 20
0.0
 30
0.0
  3
*D54
  1

  0
LINE
  5
2D4A
330
27B9
100
AcDbEntity
  8
KOTIERUNG
 62
     0
370
    -2
100
AcDbLine
 10
6557.891797296687
 20
-898.6871646526308
 30
0.0
 11
6557.891797296687
 21
-1483.989307564011
 31
0.0
  0
LINE
  5
2D4B
330
27B9
100
AcDbEntity
  8
KOTIERUNG
 62
     0
370
    -2
100
AcDbLine
 10
6916.425603455642
 20
-1412.666870440874
 30
0.0
 11
6916.425603455642
 21
-1483.989307564011
 31
0.0
  0
LINE
  5
2D4C
330
27B9
100
AcDbEntity
  8
KOTIERUNG
 62
     0
370
    -2
100
AcDbLine
 10
6587.891797296688
 20
-1453.989307564011
 30
0.0
 11
6886.425603455641
 21
-1453.989307564011
 31
0.0
  0
SOLID
  5
2D4D
330
27B9
100
AcDbEntity
  8
KOTIERUNG
 62
     0
100
AcDbTrace
 10
6587.891797296688
 20
-1448.989307564011
 30
0.0
 11
6587.891797296688
 21
-1458.989307564011
 31
0.0
 12
6557.891797296687
 22
-1453.989307564011
 32
0.0
 13
6557.891797296687
 23
-1453.989307564011
 33
0.0
  0
SOLID
  5
2D4E
330
27B9
100
AcDbEntity
  8
KOTIERUNG
 62
     0
100
AcDbTrace
 10
6886.425603455641
 20
-1448.989307564011
 30
0.0
 11
6886.425603455641
 21
-1458.989307564011
 31
0.0
 12
6916.425603455642
 22
-1453.989307564011
 32
0.0
 13
6916.425603455642
 23
-1453.989307564011
 33
0.0
  0
MTEXT
  5
2D4F
330
27B9
100
AcDbEntity
  8
KOTIERUNG
 62
     0
100
AcDbMText
 10
6737.158700376165
 20
-1429.67211793236
 30
0.0
 40
30.0
 41
0.0
 71
     5
 72
     1
  1
\A1;360
  7
VOEST
 73
     1
 44
1.0
1001
ACAD
1000
MTEXTBEGIN
1070
    73
1070
     1
1070
    44
1040
1.0
1070
    74
1070
     0
1000
MTEXTEND
  0
POINT
  5
2D50
330
27B9
100
AcDbEntity
  8
DEFPOINTS
 62
     0
100
AcDbPoint
 10
6557.891797296687
 20
-838.6871646526309
 30
0.0
  0
POINT
  5
2D51
330
27B9
100
AcDbEntity
  8
DEFPOINTS
 62
     0
100
AcDbPoint
 10
6916.425603455642
 20
-1352.666870440874
 30
0.0
  0
POINT
  5
2D52
330
27B9
100
AcDbEntity
  8
DEFPOINTS
 62
     0
100
AcDbPoint
 10
6916.425603455642
 20
-1453.989307564011
 30
0.0
  0
ENDBLK
  5
27BB
330
27B9
100
AcDbEntity
  8
0
100
AcDbBlockEnd
  0
BLOCK
  5
27C6
330
27C5
100
AcDbEntity
  8
0
100
AcDbBlockBegin
  2
*D55
 70
     1
 10
0.0
 20
0.0
 30
0.0
  3
*D55
  1

  0
LINE
  5
2AC5
330
27C5
100
AcDbEntity
  8
HILFSLINIEN
 62
     0
 48
0.2
370
    -2
100
AcDbLine
 10
6165.798599206246
 20
-167.3325840171322
 30
0.0
 11
6163.995941502228
 21
-167.3325840171322
 31
0.0
  0
LINE
  5
2AC6
330
27C5
100
AcDbEntity
  8
HILFSLINIEN
 62
     0
 48
0.2
370
    -2
100
AcDbLine
 10
6165.798599206246
 20
-237.3325840171322
 30
0.0
 11
6163.995941502228
 21
-237.3325840171322
 31
0.0
  0
LINE
  5
2AC7
330
27C5
100
AcDbEntity
  8
HILFSLINIEN
 62
     0
 48
0.2
370
    -2
100
AcDbLine
 10
6188.995941502227
 20
-192.3325840171322
 30
0.0
 11
6188.995941502227
 21
-212.3325840171322
 31
0.0
  0
SOLID
  5
2AC8
330
27C5
100
AcDbEntity
  8
HILFSLINIEN
 62
     0
 48
0.2
100
AcDbTrace
 10
6184.829274835561
 20
-192.3325840171322
 30
0.0
 11
6193.162608168894
 21
-192.3325840171322
 31
0.0
 12
6188.995941502227
 22
-167.3325840171322
 32
0.0
 13
6188.995941502227
 23
-167.3325840171322
 33
0.0
  0
SOLID
  5
2AC9
330
27C5
100
AcDbEntity
  8
HILFSLINIEN
 62
     0
 48
0.2
100
AcDbTrace
 10
6184.829274835561
 20
-212.3325840171322
 30
0.0
 11
6193.162608168894
 21
-212.3325840171322
 31
0.0
 12
6188.995941502227
 22
-237.3325840171322
 32
0.0
 13
6188.995941502227
 23
-237.3325840171322
 33
0.0
  0
MTEXT
  5
2ACA
330
27C5
100
AcDbEntity
  8
HILFSLINIEN
 62
     0
 48
0.2
100
AcDbMText
 10
6168.731616809186
 20
-202.3325840171312
 30
0.0
 40
25.0
 41
0.0
 71
     5
 72
     1
  1
\A1;70
  7
VOEST
 11
0.0000000000000001
 21
1.0
 31
0.0
 73
     1
 44
1.0
1001
ACAD
1000
MTEXTBEGIN
1070
    73
1070
     1
1070
    44
1040
1.0
1070
    74
1070
     0
1000
MTEXTEND
  0
POINT
  5
2ACB
330
27C5
100
AcDbEntity
  8
DEFPOINTS
 62
     0
 48
0.2
100
AcDbPoint
 10
6215.798599206245
 20
-167.3325840171322
 30
0.0
  0
POINT
  5
2ACC
330
27C5
100
AcDbEntity
  8
DEFPOINTS
 62
     0
 48
0.2
100
AcDbPoint
 10
6215.798599206245
 20
-237.3325840171323
 30
0.0
  0
POINT
  5
2ACD
330
27C5
100
AcDbEntity
  8
DEFPOINTS
 62
     0
 48
0.2
100
AcDbPoint
 10
6188.995941502227
 20
-237.3325840171322
 30
0.0
  0
ENDBLK
  5
27C7
330
27C5
100
AcDbEntity
  8
0
100
AcDbBlockEnd
  0
BLOCK
  5
27D2
330
27D1
100
AcDbEntity
  8
0
100
AcDbBlockBegin
  2
*D56
 70
     1
 10
0.0
 20
0.0
 30
0.0
  3
*D56
  1

  0
LINE
  5
2ACE
330
27D1
100
AcDbEntity
  8
HILFSLINIEN
 62
     0
 48
0.2
370
    -2
100
AcDbLine
 10
6165.798599206246
 20
-142.8325840171322
 30
0.0
 11
6163.995941502228
 21
-142.8325840171322
 31
0.0
  0
LINE
  5
2ACF
330
27D1
100
AcDbEntity
  8
HILFSLINIEN
 62
     0
 48
0.2
370
    -2
100
AcDbLine
 10
6165.798599206246
 20
7.167415982868433
 30
0.0
 11
6163.995941502228
 21
7.167415982868434
 31
0.0
  0
LINE
  5
2AD0
330
27D1
100
AcDbEntity
  8
HILFSLINIEN
 62
     0
 48
0.2
370
    -2
100
AcDbLine
 10
6188.995941502227
 20
-117.8325840171322
 30
0.0
 11
6188.995941502227
 21
-17.83258401713157
 31
0.0
  0
SOLID
  5
2AD1
330
27D1
100
AcDbEntity
  8
HILFSLINIEN
 62
     0
 48
0.2
100
AcDbTrace
 10
6184.829274835561
 20
-117.8325840171322
 30
0.0
 11
6193.162608168894
 21
-117.8325840171322
 31
0.0
 12
6188.995941502227
 22
-142.8325840171322
 32
0.0
 13
6188.995941502227
 23
-142.8325840171322
 33
0.0
  0
SOLID
  5
2AD2
330
27D1
100
AcDbEntity
  8
HILFSLINIEN
 62
     0
 48
0.2
100
AcDbTrace
 10
6184.829274835561
 20
-17.83258401713157
 30
0.0
 11
6193.162608168894
 21
-17.83258401713157
 31
0.0
 12
6188.995941502227
 22
7.167415982868427
 32
0.0
 13
6188.995941502227
 23
7.167415982868427
 33
0.0
  0
MTEXT
  5
2AD3
330
27D1
100
AcDbEntity
  8
HILFSLINIEN
 62
     0
 48
0.2
100
AcDbMText
 10
6168.731616809186
 20
-67.83258401713091
 30
0.0
 40
25.0
 41
0.0
 71
     5
 72
     1
  1
\A1;150
  7
VOEST
 11
0.0000000000000001
 21
1.0
 31
0.0
 73
     1
 44
1.0
1001
ACAD
1000
MTEXTBEGIN
1070
    73
1070
     1
1070
    44
1040
1.0
1070
    74
1070
     0
1000
MTEXTEND
  0
POINT
  5
2AD4
330
27D1
100
AcDbEntity
  8
DEFPOINTS
 62
     0
 48
0.2
100
AcDbPoint
 10
6215.798599206245
 20
-142.8325840171322
 30
0.0
  0
POINT
  5
2AD5
330
27D1
100
AcDbEntity
  8
DEFPOINTS
 62
     0
 48
0.2
100
AcDbPoint
 10
6215.798599206245
 20
7.167415982868419
 30
0.0
  0
POINT
  5
2AD6
330
27D1
100
AcDbEntity
  8
DEFPOINTS
 62
     0
 48
0.2
100
AcDbPoint
 10
6188.995941502227
 20
7.167415982868427
 30
0.0
  0
ENDBLK
  5
27D3
330
27D1
100
AcDbEntity
  8
0
100
AcDbBlockEnd
  0
BLOCK
  5
2A6D
330
2A6C
100
AcDbEntity
  8
0
100
AcDbBlockBegin
  2
*D57
 70
     1
 10
0.0
 20
0.0
 30
0.0
  3
*D57
  1

  0
LINE
  5
2AA4
330
2A6C
100
AcDbEntity
  8
KOTIERUNG
 62
     0
370
    -2
100
AcDbLine
 10
7349.220539815765
 20
-811.6500787589243
 30
0.0
 11
7308.193199828941
 21
-811.6500787589243
 31
0.0
  0
LINE
  5
2AA5
330
2A6C
100
AcDbEntity
  8
KOTIERUNG
 62
     0
370
    -2
100
AcDbLine
 10
7372.103981304332
 20
-741.0825750839989
 30
0.0
 11
7308.193199828941
 21
-741.0825750839989
 31
0.0
  0
LINE
  5
2AA6
330
2A6C
100
AcDbEntity
  8
KOTIERUNG
 62
     0
370
    -2
100
AcDbLine
 10
7338.193199828942
 20
-841.6500787589242
 30
0.0
 11
7338.193199828942
 21
-871.6500787589243
 31
0.0
  0
LINE
  5
2AA7
330
2A6C
100
AcDbEntity
  8
KOTIERUNG
 62
     0
370
    -2
100
AcDbLine
 10
7338.193199828942
 20
-711.0825750839989
 30
0.0
 11
7338.193199828942
 21
-681.0825750839988
 31
0.0
  0
SOLID
  5
2AA8
330
2A6C
100
AcDbEntity
  8
KOTIERUNG
 62
     0
100
AcDbTrace
 10
7333.193199828942
 20
-841.6500787589242
 30
0.0
 11
7343.193199828942
 21
-841.6500787589242
 31
0.0
 12
7338.193199828942
 22
-811.6500787589243
 32
0.0
 13
7338.193199828942
 23
-811.6500787589243
 33
0.0
  0
SOLID
  5
2AA9
330
2A6C
100
AcDbEntity
  8
KOTIERUNG
 62
     0
100
AcDbTrace
 10
7333.193199828942
 20
-711.0825750839989
 30
0.0
 11
7343.193199828942
 21
-711.0825750839989
 31
0.0
 12
7338.193199828942
 22
-741.0825750839989
 32
0.0
 13
7338.193199828942
 23
-741.0825750839989
 33
0.0
  0
MTEXT
  5
2AAA
330
2A6C
100
AcDbEntity
  8
KOTIERUNG
 62
     0
100
AcDbMText
 10
7314.131808287332
 20
-776.3663269214605
 30
0.0
 40
30.0
 41
0.0
 71
     5
 72
     1
  1
\A1;71
  7
VOEST
 11
0.0000000000000001
 21
1.0
 31
0.0
 73
     1
 44
1.0
1001
ACAD
1000
MTEXTBEGIN
1070
    73
1070
     1
1070
    44
1040
1.0
1070
    74
1070
     0
1000
MTEXTEND
  0
POINT
  5
2AAB
330
2A6C
100
AcDbEntity
  8
DEFPOINTS
 62
     0
100
AcDbPoint
 10
7409.220539815764
 20
-811.6500787589243
 30
0.0
  0
POINT
  5
2AAC
330
2A6C
100
AcDbEntity
  8
DEFPOINTS
 62
     0
100
AcDbPoint
 10
7432.103981304331
 20
-741.082575083999
 30
0.0
  0
POINT
  5
2AAD
330
2A6C
100
AcDbEntity
  8
DEFPOINTS
 62
     0
100
AcDbPoint
 10
7338.193199828942
 20
-741.0825750839989
 30
0.0
  0
ENDBLK
  5
2A6E
330
2A6C
100
AcDbEntity
  8
0
100
AcDbBlockEnd
  0
BLOCK
  5
2B4D
330
2B4C
100
AcDbEntity
  8
0
100
AcDbBlockBegin
  2
*D58
 70
     1
 10
0.0
 20
0.0
 30
0.0
  3
*D58
  1

  0
LINE
  5
2D53
330
2B4C
100
AcDbEntity
  8
KOTIERUNG
 62
     0
370
    -2
100
AcDbLine
 10
6497.891797296687
 20
-838.6871646526309
 30
0.0
 11
6411.350535383404
 21
-838.6871646526309
 31
0.0
  0
LINE
  5
2D54
330
2B4C
100
AcDbEntity
  8
KOTIERUNG
 62
     0
370
    -2
100
AcDbLine
 10
6517.693597141553
 20
-768.6871646526308
 30
0.0
 11
6411.350535383404
 21
-768.6871646526308
 31
0.0
  0
LINE
  5
2D55
330
2B4C
100
AcDbEntity
  8
KOTIERUNG
 62
     0
370
    -2
100
AcDbLine
 10
6441.350535383404
 20
-868.6871646526308
 30
0.0
 11
6441.350535383404
 21
-898.6871646526308
 31
0.0
  0
LINE
  5
2D56
330
2B4C
100
AcDbEntity
  8
KOTIERUNG
 62
     0
370
    -2
100
AcDbLine
 10
6441.350535383404
 20
-738.6871646526308
 30
0.0
 11
6441.350535383404
 21
-708.6871646526308
 31
0.0
  0
SOLID
  5
2D57
330
2B4C
100
AcDbEntity
  8
KOTIERUNG
 62
     0
100
AcDbTrace
 10
6436.350535383404
 20
-868.6871646526308
 30
0.0
 11
6446.350535383405
 21
-868.6871646526308
 31
0.0
 12
6441.350535383404
 22
-838.6871646526309
 32
0.0
 13
6441.350535383404
 23
-838.6871646526309
 33
0.0
  0
SOLID
  5
2D58
330
2B4C
100
AcDbEntity
  8
KOTIERUNG
 62
     0
100
AcDbTrace
 10
6436.350535383404
 20
-738.6871646526308
 30
0.0
 11
6446.350535383405
 21
-738.6871646526308
 31
0.0
 12
6441.350535383404
 22
-768.6871646526308
 32
0.0
 13
6441.350535383404
 23
-768.6871646526308
 33
0.0
  0
MTEXT
  5
2D59
330
2B4C
100
AcDbEntity
  8
KOTIERUNG
 62
     0
100
AcDbMText
 10
6417.033345751754
 20
-803.6871646526297
 30
0.0
 40
30.0
 41
0.0
 71
     5
 72
     1
  1
\A1;70
  7
VOEST
 11
0.0000000000000001
 21
1.0
 31
0.0
 73
     1
 44
1.0
1001
ACAD
1000
MTEXTBEGIN
1070
    73
1070
     1
1070
    44
1040
1.0
1070
    74
1070
     0
1000
MTEXTEND
  0
POINT
  5
2D5A
330
2B4C
100
AcDbEntity
  8
DEFPOINTS
 62
     0
100
AcDbPoint
 10
6557.891797296687
 20
-838.6871646526309
 30
0.0
  0
POINT
  5
2D5B
330
2B4C
100
AcDbEntity
  8
DEFPOINTS
 62
     0
100
AcDbPoint
 10
6577.693597141553
 20
-768.6871646526308
 30
0.0
  0
POINT
  5
2D5C
330
2B4C
100
AcDbEntity
  8
DEFPOINTS
 62
     0
100
AcDbPoint
 10
6441.350535383404
 20
-768.6871646526308
 30
0.0
  0
ENDBLK
  5
2B4E
330
2B4C
100
AcDbEntity
  8
0
100
AcDbBlockEnd
  0
BLOCK
  5
2B79
330
2B78
100
AcDbEntity
  8
0
100
AcDbBlockBegin
  2
*D59
 70
     1
 10
0.0
 20
0.0
 30
0.0
  3
*D59
  1

  0
LINE
  5
2D5D
330
2B78
100
AcDbEntity
  8
KOTIERUNG
 62
     0
370
    -2
100
AcDbLine
 10
6637.693597141552
 20
-768.6871646526308
 30
0.0
 11
6789.137188105204
 21
-768.6871646526308
 31
0.0
  0
LINE
  5
2D5E
330
2B78
100
AcDbEntity
  8
KOTIERUNG
 62
     0
370
    -2
100
AcDbLine
 10
6862.067743618709
 20
-548.8336315213621
 30
0.0
 11
6729.137188105204
 21
-548.8336315213621
 31
0.0
  0
LINE
  5
2D5F
330
2B78
100
AcDbEntity
  8
KOTIERUNG
 62
     0
370
    -2
100
AcDbLine
 10
6759.137188105204
 20
-738.6871646526308
 30
0.0
 11
6759.137188105204
 21
-578.8336315213621
 31
0.0
  0
SOLID
  5
2D60
330
2B78
100
AcDbEntity
  8
KOTIERUNG
 62
     0
100
AcDbTrace
 10
6754.137188105204
 20
-738.6871646526308
 30
0.0
 11
6764.137188105204
 21
-738.6871646526308
 31
0.0
 12
6759.137188105204
 22
-768.6871646526308
 32
0.0
 13
6759.137188105204
 23
-768.6871646526308
 33
0.0
  0
SOLID
  5
2D61
330
2B78
100
AcDbEntity
  8
KOTIERUNG
 62
     0
100
AcDbTrace
 10
6754.137188105204
 20
-578.8336315213621
 30
0.0
 11
6764.137188105204
 21
-578.8336315213621
 31
0.0
 12
6759.137188105204
 22
-548.8336315213621
 32
0.0
 13
6759.137188105204
 23
-548.8336315213621
 33
0.0
  0
MTEXT
  5
2D62
330
2B78
100
AcDbEntity
  8
KOTIERUNG
 62
     0
100
AcDbMText
 10
6734.819998473553
 20
-658.7603980869954
 30
0.0
 40
30.0
 41
0.0
 71
     5
 72
     1
  1
\A1;220
  7
VOEST
 11
0.0000000000000001
 21
1.0
 31
0.0
 73
     1
 44
1.0
1001
ACAD
1000
MTEXTBEGIN
1070
    73
1070
     1
1070
    44
1040
1.0
1070
    74
1070
     0
1000
MTEXTEND
  0
POINT
  5
2D63
330
2B78
100
AcDbEntity
  8
DEFPOINTS
 62
     0
100
AcDbPoint
 10
6577.693597141553
 20
-768.6871646526308
 30
0.0
  0
POINT
  5
2D64
330
2B78
100
AcDbEntity
  8
DEFPOINTS
 62
     0
100
AcDbPoint
 10
6922.067743618709
 20
-548.8336315213622
 30
0.0
  0
POINT
  5
2D65
330
2B78
100
AcDbEntity
  8
DEFPOINTS
 62
     0
100
AcDbPoint
 10
6759.137188105204
 20
-548.8336315213621
 30
0.0
  0
ENDBLK
  5
2B7A
330
2B78
100
AcDbEntity
  8
0
100
AcDbBlockEnd
  0
BLOCK
  5
2B90
330
2B8F
100
AcDbEntity
  8
0
100
AcDbBlockBegin
  2
*D60
 70
     1
 10
0.0
 20
0.0
 30
0.0
  3
*D60
  1

  0
LINE
  5
2B9C
330
2B8F
100
AcDbEntity
  8
70
 62
     0
370
    -2
100
AcDbLine
 10
7127.263642736707
 20
-3.850495447010599
 30
0.0
 11
7127.263642736707
 21
-463.0853548043087
 31
0.0
  0
LINE
  5
2B9D
330
2B8F
100
AcDbEntity
  8
70
 62
     0
370
    -2
100
AcDbLine
 10
7152.409439693466
 20
-811.414470164061
 30
0.0
 11
7152.409439693466
 21
-458.0853548043087
 31
0.0
  0
LINE
  5
2B9E
330
2B8F
100
AcDbEntity
  8
70
 62
     0
370
    -2
100
AcDbLine
 10
7129.763642736708
 20
-460.5853548043087
 30
0.0
 11
7137.593533029548
 21
-460.5853548043087
 31
0.0
  0
LINE
  5
2B9F
330
2B8F
100
AcDbEntity
  8
70
 62
     0
370
    -2
100
AcDbLine
 10
7149.909439693465
 20
-460.5853548043087
 30
0.0
 11
7142.079549400626
 21
-460.5853548043087
 31
0.0
  0
SOLID
  5
2BA0
330
2B8F
100
AcDbEntity
  8
70
 62
     0
100
AcDbTrace
 10
7129.763642736708
 20
-460.168688137642
 30
0.0
 11
7129.763642736708
 21
-461.0020214709754
 31
0.0
 12
7127.263642736707
 22
-460.5853548043087
 32
0.0
 13
7127.263642736707
 23
-460.5853548043087
 33
0.0
  0
SOLID
  5
2BA1
330
2B8F
100
AcDbEntity
  8
70
 62
     0
100
AcDbTrace
 10
7149.909439693465
 20
-460.168688137642
 30
0.0
 11
7149.909439693465
 21
-461.0020214709754
 31
0.0
 12
7152.409439693466
 22
-460.5853548043087
 32
0.0
 13
7152.409439693466
 23
-460.5853548043087
 33
0.0
  0
MTEXT
  5
2BA2
330
2B8F
100
AcDbEntity
  8
70
 62
     0
100
AcDbMText
 10
7139.836541215086
 20
-460.5853548043087
 30
0.0
 40
2.5
 41
0.0
 71
     5
 72
     1
  1
\A1;25
  7
VOEST
 73
     1
 44
1.0
1001
ACAD
1000
MTEXTBEGIN
1070
    73
1070
     1
1070
    44
1040
1.0
1070
    74
1070
     0
1000
MTEXTEND
  0
POINT
  5
2BA3
330
2B8F
100
AcDbEntity
  8
DEFPOINTS
 62
     0
100
AcDbPoint
 10
7127.263642736707
 20
-2.850495447010599
 30
0.0
  0
POINT
  5
2BA4
330
2B8F
100
AcDbEntity
  8
DEFPOINTS
 62
     0
100
AcDbPoint
 10
7152.409439693466
 20
-812.4144701640611
 30
0.0
  0
POINT
  5
2BA5
330
2B8F
100
AcDbEntity
  8
DEFPOINTS
 62
     0
100
AcDbPoint
 10
7152.409439693466
 20
-460.5853548043087
 30
0.0
  0
ENDBLK
  5
2B91
330
2B8F
100
AcDbEntity
  8
0
100
AcDbBlockEnd
  0
BLOCK
  5
2BA8
330
2BA7
100
AcDbEntity
  8
0
100
AcDbBlockBegin
  2
*D61
 70
     1
 10
0.0
 20
0.0
 30
0.0
  3
*D61
  1

  0
LINE
  5
2D66
330
2BA7
100
AcDbEntity
  8
KOTIERUNG
 62
     0
370
    -2
100
AcDbLine
 10
6517.693597141553
 20
-768.6871646526308
 30
0.0
 11
6471.805322581655
 21
-768.6871646526308
 31
0.0
  0
LINE
  5
2D67
330
2BA7
100
AcDbEntity
  8
KOTIERUNG
 62
     0
370
    -2
100
AcDbLine
 10
6540.487915795129
 20
31.02564018187959
 30
0.0
 11
6471.805322581655
 21
31.02564018187961
 31
0.0
  0
LINE
  5
2D68
330
2BA7
100
AcDbEntity
  8
KOTIERUNG
 62
     0
370
    -2
100
AcDbLine
 10
6501.805322581654
 20
-738.6871646526308
 30
0.0
 11
6501.805322581654
 21
1.025640181879604
 31
0.0
  0
SOLID
  5
2D69
330
2BA7
100
AcDbEntity
  8
KOTIERUNG
 62
     0
100
AcDbTrace
 10
6496.805322581654
 20
-738.6871646526308
 30
0.0
 11
6506.805322581655
 21
-738.6871646526308
 31
0.0
 12
6501.805322581654
 22
-768.6871646526308
 32
0.0
 13
6501.805322581654
 23
-768.6871646526308
 33
0.0
  0
SOLID
  5
2D6A
330
2BA7
100
AcDbEntity
  8
KOTIERUNG
 62
     0
100
AcDbTrace
 10
6496.805322581654
 20
1.025640181879605
 30
0.0
 11
6506.805322581655
 21
1.025640181879603
 31
0.0
 12
6501.805322581654
 22
31.02564018187961
 32
0.0
 13
6501.805322581654
 23
31.02564018187961
 33
0.0
  0
MTEXT
  5
2D6B
330
2BA7
100
AcDbEntity
  8
KOTIERUNG
 62
     0
100
AcDbMText
 10
6477.488132950004
 20
-368.8307622353745
 30
0.0
 40
30.0
 41
0.0
 71
     5
 72
     1
  1
\A1;800
  7
VOEST
 11
0.0000000000000001
 21
1.0
 31
0.0
 73
     1
 44
1.0
1001
ACAD
1000
MTEXTBEGIN
1070
    73
1070
     1
1070
    44
1040
1.0
1070
    74
1070
     0
1000
MTEXTEND
  0
POINT
  5
2D6C
330
2BA7
100
AcDbEntity
  8
DEFPOINTS
 62
     0
100
AcDbPoint
 10
6577.693597141553
 20
-768.6871646526308
 30
0.0
  0
POINT
  5
2D6D
330
2BA7
100
AcDbEntity
  8
DEFPOINTS
 62
     0
100
AcDbPoint
 10
6600.487915795129
 20
31.02564018187957
 30
0.0
  0
POINT
  5
2D6E
330
2BA7
100
AcDbEntity
  8
DEFPOINTS
 62
     0
100
AcDbPoint
 10
6501.805322581654
 20
31.02564018187961
 30
0.0
  0
ENDBLK
  5
2BA9
330
2BA7
100
AcDbEntity
  8
0
100
AcDbBlockEnd
  0
BLOCK
  5
2BDA
330
2BD9
100
AcDbEntity
  8
0
100
AcDbBlockBegin
  2
*D62
 70
     1
 10
0.0
 20
0.0
 30
0.0
  3
*D62
  1

  0
LINE
  5
2D6F
330
2BD9
100
AcDbEntity
  8
KOTIERUNG
 62
     0
370
    -2
100
AcDbLine
 10
6517.693597141553
 20
-768.6871646526308
 30
0.0
 11
6411.350535383404
 21
-768.6871646526308
 31
0.0
  0
LINE
  5
2D70
330
2BD9
100
AcDbEntity
  8
KOTIERUNG
 62
     0
370
    -2
100
AcDbLine
 10
6838.55036274608
 20
561.1398530785918
 30
0.0
 11
6411.350535383404
 21
561.1398530785918
 31
0.0
  0
LINE
  5
2D71
330
2BD9
100
AcDbEntity
  8
KOTIERUNG
 62
     0
370
    -2
100
AcDbLine
 10
6441.350535383404
 20
-738.6871646526308
 30
0.0
 11
6441.350535383404
 21
531.1398530785918
 31
0.0
  0
SOLID
  5
2D72
330
2BD9
100
AcDbEntity
  8
KOTIERUNG
 62
     0
100
AcDbTrace
 10
6436.350535383404
 20
-738.6871646526308
 30
0.0
 11
6446.350535383405
 21
-738.6871646526308
 31
0.0
 12
6441.350535383404
 22
-768.6871646526308
 32
0.0
 13
6441.350535383404
 23
-768.6871646526308
 33
0.0
  0
SOLID
  5
2D73
330
2BD9
100
AcDbEntity
  8
KOTIERUNG
 62
     0
100
AcDbTrace
 10
6436.350535383404
 20
531.1398530785918
 30
0.0
 11
6446.350535383405
 21
531.1398530785918
 31
0.0
 12
6441.350535383404
 22
561.1398530785918
 32
0.0
 13
6441.350535383404
 23
561.1398530785918
 33
0.0
  0
MTEXT
  5
2D74
330
2BD9
100
AcDbEntity
  8
KOTIERUNG
 62
     0
100
AcDbMText
 10
6417.033345751754
 20
-103.7736557870184
 30
0.0
 40
30.0
 41
0.0
 71
     5
 72
     1
  1
\A1;1330
  7
VOEST
 11
0.0000000000000001
 21
1.0
 31
0.0
 73
     1
 44
1.0
1001
ACAD
1000
MTEXTBEGIN
1070
    73
1070
     1
1070
    44
1040
1.0
1070
    74
1070
     0
1000
MTEXTEND
  0
POINT
  5
2D75
330
2BD9
100
AcDbEntity
  8
DEFPOINTS
 62
     0
100
AcDbPoint
 10
6577.693597141553
 20
-768.6871646526308
 30
0.0
  0
POINT
  5
2D76
330
2BD9
100
AcDbEntity
  8
DEFPOINTS
 62
     0
100
AcDbPoint
 10
6898.55036274608
 20
561.1398530785918
 30
0.0
  0
POINT
  5
2D77
330
2BD9
100
AcDbEntity
  8
DEFPOINTS
 62
     0
100
AcDbPoint
 10
6441.350535383404
 20
561.1398530785918
 30
0.0
  0
ENDBLK
  5
2BDB
330
2BD9
100
AcDbEntity
  8
0
100
AcDbBlockEnd
  0
BLOCK
  5
2BFA
330
2BF9
100
AcDbEntity
  8
0
100
AcDbBlockBegin
  2
*D63
 70
     1
 10
0.0
 20
0.0
 30
0.0
  3
*D63
  1

  0
LINE
  5
2DFB
330
2BF9
100
AcDbEntity
  8
KOTIERUNG
 62
     0
370
    -2
100
AcDbLine
 10
6497.891797296687
 20
-838.6871646526309
 30
0.0
 11
6337.690110021533
 21
-838.6871646526307
 31
0.0
  0
LINE
  5
2DFC
330
2BF9
100
AcDbEntity
  8
KOTIERUNG
 62
     0
370
    -2
100
AcDbLine
 10
6838.55036274608
 20
561.1398530785918
 30
0.0
 11
6337.690110021533
 21
561.1398530785919
 31
0.0
  0
LINE
  5
2DFD
330
2BF9
100
AcDbEntity
  8
KOTIERUNG
 62
     0
370
    -2
100
AcDbLine
 10
6367.690110021533
 20
-808.6871646526306
 30
0.0
 11
6367.690110021533
 21
531.1398530785919
 31
0.0
  0
SOLID
  5
2DFE
330
2BF9
100
AcDbEntity
  8
KOTIERUNG
 62
     0
100
AcDbTrace
 10
6362.690110021532
 20
-808.6871646526306
 30
0.0
 11
6372.690110021533
 21
-808.6871646526306
 31
0.0
 12
6367.690110021533
 22
-838.6871646526307
 32
0.0
 13
6367.690110021533
 23
-838.6871646526307
 33
0.0
  0
SOLID
  5
2DFF
330
2BF9
100
AcDbEntity
  8
KOTIERUNG
 62
     0
100
AcDbTrace
 10
6362.690110021532
 20
531.1398530785919
 30
0.0
 11
6372.690110021533
 21
531.1398530785919
 31
0.0
 12
6367.690110021533
 22
561.1398530785919
 32
0.0
 13
6367.690110021533
 23
561.1398530785919
 33
0.0
  0
MTEXT
  5
2E00
102
{ACAD_XDICTIONARY
360
2E5E
102
}
330
2BF9
100
AcDbEntity
  8
KOTIERUNG
 62
     0
100
AcDbMText
 10
6343.372920389882
 20
-138.7736557870184
 30
0.0
 40
30.0
 41
0.0
 71
     5
 72
     1
  1
\A1;{\H0.875x;\U+2265}1400\U+00B140
  7
VOEST
 11
0.0000000000000001
 21
1.0
 31
0.0
 73
     1
 44
1.0
1001
ACAD
1000
MTEXTBEGIN
1070
    73
1070
     1
1070
    44
1040
1.0
1070
    74
1070
     0
1000
MTEXTEND
  0
POINT
  5
2E01
330
2BF9
100
AcDbEntity
  8
DEFPOINTS
 62
     0
100
AcDbPoint
 10
6557.891797296687
 20
-838.6871646526309
 30
0.0
  0
POINT
  5
2E02
330
2BF9
100
AcDbEntity
  8
DEFPOINTS
 62
     0
100
AcDbPoint
 10
6898.55036274608
 20
561.1398530785918
 30
0.0
  0
POINT
  5
2E03
330
2BF9
100
AcDbEntity
  8
DEFPOINTS
 62
     0
100
AcDbPoint
 10
6367.690110021533
 20
561.1398530785919
 30
0.0
  0
ENDBLK
  5
2BFB
330
2BF9
100
AcDbEntity
  8
0
100
AcDbBlockEnd
  0
BLOCK
  5
2CFE
330
2CFD
100
AcDbEntity
  8
0
100
AcDbBlockBegin
  2
*D65
 70
     1
 10
0.0
 20
0.0
 30
0.0
  3
*D65
  1

  0
LINE
  5
2D0A
330
2CFD
100
AcDbEntity
  8
KOTIERUNG
 62
     0
370
    -2
100
AcDbLine
 10
7126.912556489253
 20
62.13716316669268
 30
0.0
 11
7126.912556489253
 21
220.7550480452155
 31
0.0
  0
LINE
  5
2D0B
330
2CFD
100
AcDbEntity
  8
KOTIERUNG
 62
     0
370
    -2
100
AcDbLine
 10
7423.052149730725
 20
473.2051080749484
 30
0.0
 11
7423.052149730725
 21
160.7550480452155
 31
0.0
  0
LINE
  5
2D0C
330
2CFD
100
AcDbEntity
  8
KOTIERUNG
 62
     0
370
    -2
100
AcDbLine
 10
7156.912556489254
 20
190.7550480452155
 30
0.0
 11
7393.052149730725
 21
190.7550480452155
 31
0.0
  0
SOLID
  5
2D0D
330
2CFD
100
AcDbEntity
  8
KOTIERUNG
 62
     0
100
AcDbTrace
 10
7156.912556489254
 20
195.7550480452155
 30
0.0
 11
7156.912556489254
 21
185.7550480452155
 31
0.0
 12
7126.912556489253
 22
190.7550480452155
 32
0.0
 13
7126.912556489253
 23
190.7550480452155
 33
0.0
  0
SOLID
  5
2D0E
330
2CFD
100
AcDbEntity
  8
KOTIERUNG
 62
     0
100
AcDbTrace
 10
7393.052149730725
 20
195.7550480452155
 30
0.0
 11
7393.052149730725
 21
185.7550480452155
 31
0.0
 12
7423.052149730725
 22
190.7550480452155
 32
0.0
 13
7423.052149730725
 23
190.7550480452155
 33
0.0
  0
MTEXT
  5
2D0F
330
2CFD
100
AcDbEntity
  8
KOTIERUNG
 62
     0
100
AcDbMText
 10
7274.98235310999
 20
215.0722376768663
 30
0.0
 40
30.0
 41
0.0
 71
     5
 72
     1
  1
\A1;296
  7
VOEST
 73
     1
 44
1.0
1001
ACAD
1000
MTEXTBEGIN
1070
    73
1070
     1
1070
    44
1040
1.0
1070
    74
1070
     0
1000
MTEXTEND
  0
POINT
  5
2D10
330
2CFD
100
AcDbEntity
  8
DEFPOINTS
 62
     0
100
AcDbPoint
 10
7126.912556489253
 20
2.137163166692682
 30
0.0
  0
POINT
  5
2D11
330
2CFD
100
AcDbEntity
  8
DEFPOINTS
 62
     0
100
AcDbPoint
 10
7423.052149730725
 20
533.2051080749485
 30
0.0
  0
POINT
  5
2D12
330
2CFD
100
AcDbEntity
  8
DEFPOINTS
 62
     0
100
AcDbPoint
 10
7423.052149730725
 20
190.7550480452155
 30
0.0
  0
ENDBLK
  5
2CFF
330
2CFD
100
AcDbEntity
  8
0
100
AcDbBlockEnd
  0
ENDSEC
  0
SECTION
  2
ENTITIES
  0
MTEXT
  5
10E0
330
18
100
AcDbEntity
  8
KOTIERUNG
100
AcDbMText
 10
7495.698312492914
 20
470.9395909145314
 30
0.0
 40
25.0
 41
0.0
 71
     4
 72
     1
  1
\A1;
  7
VOEST
 73
     1
 44
1.0
1001
ACAD
1000
MTEXTBEGIN
1070
    73
1070
     1
1070
    44
1040
1.0
1070
    74
1070
     0
1000
MTEXTEND
  0
TEXT
  5
1609
330
18
100
AcDbEntity
  8
TEXT
100
AcDbText
 10
6396.052609175184
 20
836.0598672033601
 30
0.0
 40
100.0
  1
KREMSBARRIER 1 RH3
  7
VOESTB
100
AcDbText
  0
LINE
  5
1BB0
330
18
100
AcDbEntity
  8
25
100
AcDbLine
 10
8952.165985678851
 20
-2810.207693068147
 30
0.0
 11
9539.898149361389
 21
-2810.207693068146
 31
0.0
  0
LINE
  5
1BB1
330
18
100
AcDbEntity
  8
25
100
AcDbLine
 10
8952.165985678851
 20
-2742.375114174089
 30
0.0
 11
9539.898149361389
 21
-2742.375114174089
 31
0.0
  0
LINE
  5
1BB2
330
18
100
AcDbEntity
  8
25
100
AcDbLine
 10
4482.433841996309
 20
-2810.207693068147
 30
0.0
 11
5070.166005678849
 21
-2810.207693068147
 31
0.0
  0
LINE
  5
1BB3
330
18
100
AcDbEntity
  8
25
100
AcDbLine
 10
4482.433841996309
 20
-2742.375114174089
 30
0.0
 11
5070.166005678849
 21
-2742.375114174089
 31
0.0
  0
DIMENSION
  5
1BCA
330
18
100
AcDbEntity
  8
KOTIERUNG
100
AcDbDimension
  2
*D5
 10
8911.16598567885
 20
-2028.678411047165
 30
0.0
 11
7011.16599567885
 21
-1943.568247336387
 31
0.0
 70
    32
 71
     5
 42
-1.0
  3
TYPENBLATT_M50
100
AcDbAlignedDimension
 13
5111.16600567885
 23
-2369.210583144905
 33
0.0
 14
8911.16598567885
 24
-2369.210583144905
 34
0.0
100
AcDbRotatedDimension
1001
ACAD
1000
DSTYLE
1002
{
1070
    40
1040
420.0
1002
}
  0
DIMENSION
  5
1BCB
330
18
100
AcDbEntity
  8
KOTIERUNG
100
AcDbDimension
  2
*D6
 10
7644.49932567885
 20
-2236.328597182202
 30
0.0
 11
7011.16599567885
 21
-2151.218433471425
 31
0.0
 70
    32
  1
1266
 71
     5
 42
-1.0
  3
TYPENBLATT_M50
100
AcDbAlignedDimension
 13
6377.832665678848
 23
-2544.092569107606
 33
0.0
 14
7644.49932567885
 24
-2544.092569107606
 34
0.0
100
AcDbRotatedDimension
1001
ACAD
1000
DSTYLE
1002
{
1070
    40
1040
420.0
1002
}
  0
LINE
  5
1BCC
330
18
100
AcDbEntity
  8
25
100
AcDbLine
 10
6418.832665678849
 20
-2742.375114174089
 30
0.0
 11
7603.49932567885
 21
-2742.375114174089
 31
0.0
  0
LINE
  5
1BCD
330
18
100
AcDbEntity
  8
25
100
AcDbLine
 10
6418.832665678849
 20
-2810.207693068147
 30
0.0
 11
7603.49932567885
 21
-2810.207693068148
 31
0.0
  0
DIMENSION
  5
1BCE
330
18
100
AcDbEntity
  8
KOTIERUNG
100
AcDbDimension
  2
*D7
 10
5111.16600567885
 20
-2236.328597182202
 30
0.0
 11
5744.499335678849
 21
-2151.218433471425
 31
0.0
 70
    32
 71
     5
 42
-1.0
  3
TYPENBLATT_M50
100
AcDbAlignedDimension
 13
6377.832665678848
 23
-2544.092569107606
 33
0.0
 14
5111.16600567885
 24
-2544.092569107606
 34
0.0
100
AcDbRotatedDimension
1001
ACAD
1000
DSTYLE
1002
{
1070
   287
1070
     4
1070
    40
1040
420.0
1070
   279
1070
     1
1002
}
  0
LINE
  5
1BCF
330
18
100
AcDbEntity
  8
25
100
AcDbLine
 10
5152.166005678847
 20
-2742.375114174089
 30
0.0
 11
6336.832665678849
 21
-2742.375114174089
 31
0.0
  0
LINE
  5
1BD0
330
18
100
AcDbEntity
  8
25
100
AcDbLine
 10
5152.166005678849
 20
-2810.207693068147
 30
0.0
 11
6336.832665678849
 21
-2810.207693068147
 31
0.0
  0
LINE
  5
1BD1
330
18
100
AcDbEntity
  8
25
100
AcDbLine
 10
5070.166005678849
 20
-2564.092569107604
 30
0.0
 11
5070.166005678849
 21
-2817.729358686677
 31
0.0
  0
LINE
  5
1BD2
330
18
100
AcDbEntity
  8
25
100
AcDbLine
 10
5152.166005678849
 20
-2564.092569107604
 30
0.0
 11
5152.16600567885
 21
-2817.729358686677
 31
0.0
  0
LWPOLYLINE
  5
1BD3
330
18
100
AcDbEntity
  8
35
100
AcDbPolyline
 90
        4
 70
     0
 43
0.0
 10
5301.877720422805
 20
-2742.375114174089
 10
5259.750278868004
 20
-2544.092569107609
 10
4962.581732489694
 20
-2544.092569107604
 10
4920.454290934892
 20
-2742.375114174089
  0
LINE
  5
1BD4
330
18
100
AcDbEntity
  8
25
100
AcDbLine
 10
5066.35950503441
 20
-3101.168826425585
 30
0.0
 11
5155.972506323286
 21
-3101.168826425585
 31
0.0
  0
ARC
  5
1BD6
330
18
100
AcDbEntity
  8
25
100
AcDbCircle
 10
5111.166005678849
 20
-2992.168826425585
 30
0.0
 40
117.85
100
AcDbArc
 50
130.4915143792999
 51
247.6539647909126
  0
LINE
  5
1BD7
330
18
100
AcDbEntity
  8
25
100
AcDbLine
 10
4951.165985678848
 20
-3122.035130613653
 30
0.0
 11
4951.165985678848
 21
-3191.317323609215
 31
0.0
  0
LINE
  5
1BD8
330
18
100
AcDbEntity
  8
25
100
AcDbLine
 10
4977.165985678848
 20
-2831.256338785935
 30
0.0
 11
4977.165985678848
 21
-2902.543649011127
 31
0.0
  0
LWPOLYLINE
  5
1BD9
330
18
100
AcDbEntity
  8
35
100
AcDbPolyline
 90
        2
 70
     0
 43
0.0
 10
4909.161500556509
 20
-2810.207693068148
 42
0.0779092946149983
 10
4914.367896712632
 20
-2831.256338785935
  0
LINE
  5
1BDA
330
18
100
AcDbEntity
  8
25
100
AcDbLine
 10
4907.165985678848
 20
-2742.375114174089
 30
0.0
 11
4907.165985678848
 21
-2810.207693068147
 31
0.0
  0
LINE
  5
1BDB
330
18
100
AcDbEntity
  8
18
  6
STRICHLINIE
100
AcDbLine
 10
5007.165985678849
 20
-2742.375114174089
 30
0.0
 11
5007.165985678849
 21
-2810.207693068147
 31
0.0
  0
ARC
  5
1BDC
330
18
100
AcDbEntity
  8
18
100
AcDbCircle
 10
4978.896879482268
 20
-2804.126827498111
 30
0.0
 40
15.0
100
AcDbArc
 50
203.9156339127711
 51
336.0843660872289
  0
ARC
  5
1BDE
330
18
100
AcDbEntity
  8
25
100
AcDbCircle
 10
5111.166005678849
 20
-2992.168826425585
 30
0.0
 40
117.85
100
AcDbArc
 50
292.3460352090874
 51
49.50848562070008
  0
LINE
  5
1BE0
330
18
100
AcDbEntity
  8
25
100
AcDbLine
 10
5079.166005678849
 20
-3101.168826425585
 30
0.0
 11
5079.16600567885
 21
-3122.035130613653
 31
0.0
  0
LINE
  5
1BE1
330
18
100
AcDbEntity
  8
25
100
AcDbLine
 10
5143.166005678849
 20
-3101.168826425585
 30
0.0
 11
5143.16600567885
 21
-3122.035130613653
 31
0.0
  0
LINE
  5
1BE3
330
18
100
AcDbEntity
  8
18
  6
STRICHLINIE
100
AcDbLine
 10
5271.165985678848
 20
-3122.035130613653
 30
0.0
 11
5271.165985678848
 21
-3191.317323609215
 31
0.0
  0
LINE
  5
1BE4
330
18
100
AcDbEntity
  8
18
  6
STRICHLINIE
100
AcDbLine
 10
5297.165985678848
 20
-2831.256338785935
 30
0.0
 11
5297.165985678848
 21
-2902.543649011127
 31
0.0
  0
LINE
  5
1BE5
330
18
100
AcDbEntity
  8
35
100
AcDbLine
 10
5076.166005678849
 20
-2817.729358686676
 30
0.0
 11
5076.166005678849
 21
-2831.256338785935
 31
0.0
  0
LINE
  5
1BE6
330
18
100
AcDbEntity
  8
35
100
AcDbLine
 10
5146.166005678849
 20
-2817.729358686676
 30
0.0
 11
5146.16600567885
 21
-2831.256338785935
 31
0.0
  0
LWPOLYLINE
  5
1BE8
330
18
100
AcDbEntity
  8
35
100
AcDbPolyline
 90
        2
 70
     0
 43
0.0
 10
5307.964114645064
 20
-2831.256338785935
 42
0.0779092946150002
 10
5313.170510801188
 20
-2810.207693068148
 42
0.0779092946150002
  0
ARC
  5
1BE9
330
18
100
AcDbEntity
  8
18
100
AcDbCircle
 10
5238.896879482268
 20
-2804.126827498111
 30
0.0
 40
15.0
100
AcDbArc
 50
203.9156339127711
 51
336.0843660872289
  0
CIRCLE
  5
1BEA
330
18
100
AcDbEntity
  8
18
100
AcDbCircle
 10
5011.166005678848
 20
-2609.126827498111
 30
0.0
 40
15.0
  0
CIRCLE
  5
1BEB
330
18
100
AcDbEntity
  8
18
100
AcDbCircle
 10
5211.166005678848
 20
-2609.126827498111
 30
0.0
 40
15.0
  0
LINE
  5
1BEC
330
18
100
AcDbEntity
  8
25
100
AcDbLine
 10
5070.166005678849
 20
-2564.092569107604
 30
0.0
 11
5152.166005678849
 21
-2564.092569107604
 31
0.0
  0
LINE
  5
1BED
330
18
100
AcDbEntity
  8
25
100
AcDbLine
 10
6336.832665678849
 20
-2564.092569107604
 30
0.0
 11
6336.83266567885
 21
-2818.113384518912
 31
0.0
  0
LINE
  5
1BEE
330
18
100
AcDbEntity
  8
25
100
AcDbLine
 10
6418.832665678849
 20
-2564.092569107604
 30
0.0
 11
6418.832665678848
 21
-2818.113384518912
 31
0.0
  0
LWPOLYLINE
  5
1BEF
330
18
100
AcDbEntity
  8
35
100
AcDbPolyline
 90
        4
 70
     0
 43
0.0
 10
6568.544380422806
 20
-2742.375114174089
 10
6526.416938868006
 20
-2544.092569107609
 10
6229.248392489695
 20
-2544.092569107604
 10
6187.120950934892
 20
-2742.375114174089
  0
ARC
  5
1BF1
330
18
100
AcDbEntity
  8
25
100
AcDbCircle
 10
6377.832665678848
 20
-2992.168826425585
 30
0.0
 40
117.85
100
AcDbArc
 50
130.4915143792999
 51
247.6539647909126
  0
ARC
  5
1BF2
330
18
100
AcDbEntity
  8
18
100
AcDbCircle
 10
6245.563539482268
 20
-2804.126827498111
 30
0.0
 40
15.0
100
AcDbArc
 50
203.9156339127711
 51
336.0843660872289
  0
LWPOLYLINE
  5
1BF3
330
18
100
AcDbEntity
  8
35
100
AcDbPolyline
 90
        2
 70
     0
 43
0.0
 10
6175.82816055651
 20
-2810.207693068148
 42
0.0779092946149983
 10
6181.034556712631
 20
-2831.256338785935
  0
ARC
  5
1BF5
330
18
100
AcDbEntity
  8
25
100
AcDbCircle
 10
6377.832665678848
 20
-2992.168826425585
 30
0.0
 40
117.85
100
AcDbArc
 50
292.3460352090874
 51
49.50848562070008
  0
LINE
  5
1BF7
330
18
100
AcDbEntity
  8
25
100
AcDbLine
 10
6333.026165034411
 20
-3101.168826425585
 30
0.0
 11
6422.639166323286
 21
-3101.168826425585
 31
0.0
  0
LINE
  5
1BF8
330
18
100
AcDbEntity
  8
25
100
AcDbLine
 10
6345.832665678848
 20
-3101.168826425585
 30
0.0
 11
6345.832665678848
 21
-3122.035130613653
 31
0.0
  0
LINE
  5
1BF9
330
18
100
AcDbEntity
  8
25
100
AcDbLine
 10
6409.832665678848
 20
-3101.168826425585
 30
0.0
 11
6409.832665678848
 21
-3122.035130613653
 31
0.0
  0
LINE
  5
1BFB
330
18
100
AcDbEntity
  8
35
100
AcDbLine
 10
6342.832665678848
 20
-2818.113384518912
 30
0.0
 11
6342.832665678848
 21
-2831.256338785935
 31
0.0
  0
LINE
  5
1BFC
330
18
100
AcDbEntity
  8
35
100
AcDbLine
 10
6412.832665678848
 20
-2818.113384518912
 30
0.0
 11
6412.832665678848
 21
-2831.256338785935
 31
0.0
  0
LWPOLYLINE
  5
1BFE
330
18
100
AcDbEntity
  8
35
100
AcDbPolyline
 90
        2
 70
     0
 43
0.0
 10
6574.630774645065
 20
-2831.256338785935
 42
0.0779092946150002
 10
6579.837170801187
 20
-2810.207693068148
 42
0.0779092946150002
  0
ARC
  5
1BFF
330
18
100
AcDbEntity
  8
18
100
AcDbCircle
 10
6505.563539482267
 20
-2804.126827498111
 30
0.0
 40
15.0
100
AcDbArc
 50
203.9156339127711
 51
336.0843660872289
  0
CIRCLE
  5
1C00
330
18
100
AcDbEntity
  8
18
100
AcDbCircle
 10
6277.832665678849
 20
-2609.126827498111
 30
0.0
 40
15.0
  0
CIRCLE
  5
1C01
330
18
100
AcDbEntity
  8
18
100
AcDbCircle
 10
6477.83266567885
 20
-2609.126827498111
 30
0.0
 40
15.0
  0
LINE
  5
1C02
330
18
100
AcDbEntity
  8
25
100
AcDbLine
 10
6336.832665678849
 20
-2564.092569107604
 30
0.0
 11
6418.832665678849
 21
-2564.092569107604
 31
0.0
  0
DIMENSION
  5
1C03
330
18
100
AcDbEntity
  8
KOTIERUNG
100
AcDbDimension
  2
*D8
 10
8911.16598567885
 20
-2236.328597182202
 30
0.0
 11
8485.474755295426
 21
-2236.328597182202
 31
0.0
 70
   160
 71
     5
 42
1266.666659999999
  3
TYPENBLATT_M50
100
AcDbAlignedDimension
 13
7644.49932567885
 23
-2544.092569107606
 33
0.0
 14
8911.16598567885
 24
-2544.092569107606
 34
0.0
100
AcDbRotatedDimension
1001
ACAD
1000
DSTYLE
1002
{
1070
   287
1070
     4
1070
    40
1040
420.0
1070
   279
1070
     1
1002
}
  0
LINE
  5
1C04
330
18
100
AcDbEntity
  8
25
100
AcDbLine
 10
7685.499325678849
 20
-2810.207693068148
 30
0.0
 11
8870.16598567885
 21
-2810.207693068147
 31
0.0
  0
LINE
  5
1C05
330
18
100
AcDbEntity
  8
25
100
AcDbLine
 10
7685.499325678849
 20
-2742.375114174089
 30
0.0
 11
8870.16598567885
 21
-2742.375114174089
 31
0.0
  0
LINE
  5
1C06
330
18
100
AcDbEntity
  8
25
100
AcDbLine
 10
7603.49932567885
 20
-2564.092569107604
 30
0.0
 11
7603.499325678851
 21
-2817.72938022163
 31
0.0
  0
LINE
  5
1C07
330
18
100
AcDbEntity
  8
25
100
AcDbLine
 10
7685.499325678849
 20
-2564.092569107604
 30
0.0
 11
7685.499325678849
 21
-2817.72938022163
 31
0.0
  0
LWPOLYLINE
  5
1C08
330
18
100
AcDbEntity
  8
35
100
AcDbPolyline
 90
        4
 70
     0
 43
0.0
 10
7835.211040422804
 20
-2742.375114174089
 10
7793.083598868005
 20
-2544.092569107609
 10
7495.915052489694
 20
-2544.092569107604
 10
7453.787610934893
 20
-2742.375114174089
  0
ARC
  5
1C0A
330
18
100
AcDbEntity
  8
25
100
AcDbCircle
 10
7644.499325678849
 20
-2992.168826425585
 30
0.0
 40
117.85
100
AcDbArc
 50
130.4915143792999
 51
247.6539647909126
  0
ARC
  5
1C0B
330
18
100
AcDbEntity
  8
18
100
AcDbCircle
 10
7512.230199482267
 20
-2804.126827498111
 30
0.0
 40
15.0
100
AcDbArc
 50
203.9156339127711
 51
336.0843660872289
  0
LWPOLYLINE
  5
1C0C
330
18
100
AcDbEntity
  8
35
100
AcDbPolyline
 90
        2
 70
     0
 43
0.0
 10
7442.494820556508
 20
-2810.207693068148
 42
0.0779092946149983
 10
7447.701216712632
 20
-2831.256338785935
  0
ARC
  5
1C0E
330
18
100
AcDbEntity
  8
25
100
AcDbCircle
 10
7644.499325678849
 20
-2992.168826425585
 30
0.0
 40
117.85
100
AcDbArc
 50
292.3460352090874
 51
49.50848562070008
  0
LINE
  5
1C10
330
18
100
AcDbEntity
  8
25
100
AcDbLine
 10
7599.692825034409
 20
-3101.168826425585
 30
0.0
 11
7689.305826323288
 21
-3101.168826425585
 31
0.0
  0
LINE
  5
1C11
330
18
100
AcDbEntity
  8
25
100
AcDbLine
 10
7612.49932567885
 20
-3101.168826425585
 30
0.0
 11
7612.499325678851
 21
-3122.035130613653
 31
0.0
  0
LINE
  5
1C12
330
18
100
AcDbEntity
  8
25
100
AcDbLine
 10
7676.49932567885
 20
-3101.168826425585
 30
0.0
 11
7676.499325678851
 21
-3122.035130613653
 31
0.0
  0
LINE
  5
1C14
330
18
100
AcDbEntity
  8
35
100
AcDbLine
 10
7609.499325678848
 20
-2817.72938022163
 30
0.0
 11
7609.49932567885
 21
-2831.256338785935
 31
0.0
  0
LINE
  5
1C15
330
18
100
AcDbEntity
  8
35
100
AcDbLine
 10
7679.49932567885
 20
-2817.72938022163
 30
0.0
 11
7679.499325678851
 21
-2831.256338785935
 31
0.0
  0
LWPOLYLINE
  5
1C17
330
18
100
AcDbEntity
  8
35
100
AcDbPolyline
 90
        2
 70
     0
 43
0.0
 10
7841.297434645065
 20
-2831.256338785935
 42
0.0779092946150002
 10
7846.503830801188
 20
-2810.207693068148
 42
0.0779092946150002
  0
ARC
  5
1C18
330
18
100
AcDbEntity
  8
18
100
AcDbCircle
 10
7772.230199482269
 20
-2804.126827498111
 30
0.0
 40
15.0
100
AcDbArc
 50
203.9156339127711
 51
336.0843660872289
  0
CIRCLE
  5
1C19
330
18
100
AcDbEntity
  8
18
100
AcDbCircle
 10
7544.499325678849
 20
-2609.126827498111
 30
0.0
 40
15.0
  0
CIRCLE
  5
1C1A
330
18
100
AcDbEntity
  8
18
100
AcDbCircle
 10
7744.499325678849
 20
-2609.126827498111
 30
0.0
 40
15.0
  0
LINE
  5
1C1B
330
18
100
AcDbEntity
  8
25
100
AcDbLine
 10
7603.49932567885
 20
-2564.092569107604
 30
0.0
 11
7685.499325678849
 21
-2564.092569107604
 31
0.0
  0
LINE
  5
1C1C
330
18
100
AcDbEntity
  8
25
100
AcDbLine
 10
8870.16598567885
 20
-2564.092569107604
 30
0.0
 11
8870.16598567885
 21
-2818.160260195753
 31
0.0
  0
LINE
  5
1C1D
330
18
100
AcDbEntity
  8
25
100
AcDbLine
 10
8952.165985678851
 20
-2564.092569107604
 30
0.0
 11
8952.165985678851
 21
-2818.160260195753
 31
0.0
  0
LWPOLYLINE
  5
1C1E
330
18
100
AcDbEntity
  8
35
100
AcDbPolyline
 90
        4
 70
     0
 43
0.0
 10
9101.877700422805
 20
-2742.375114174089
 10
9059.750258868005
 20
-2544.092569107609
 10
8762.581712489696
 20
-2544.092569107604
 10
8720.454270934894
 20
-2742.375114174089
  0
ARC
  5
1C20
330
18
100
AcDbEntity
  8
25
100
AcDbCircle
 10
8911.16598567885
 20
-2992.168826425585
 30
0.0
 40
117.85
100
AcDbArc
 50
130.4915143792999
 51
247.6539647909126
  0
LINE
  5
1C21
330
18
100
AcDbEntity
  8
25
100
AcDbLine
 10
8751.16598567885
 20
-3122.035130613653
 30
0.0
 11
8751.16598567885
 21
-3191.317323609215
 31
0.0
  0
LINE
  5
1C22
330
18
100
AcDbEntity
  8
25
100
AcDbLine
 10
8777.165985678848
 20
-2831.256338785935
 30
0.0
 11
8777.165985678848
 21
-2902.543649011127
 31
0.0
  0
LINE
  5
1C23
330
18
100
AcDbEntity
  8
25
100
AcDbLine
 10
8707.16598567885
 20
-2742.375114174089
 30
0.0
 11
8707.16598567885
 21
-2810.207693068147
 31
0.0
  0
LINE
  5
1C24
330
18
100
AcDbEntity
  8
18
  6
STRICHLINIE
100
AcDbLine
 10
8807.16598567885
 20
-2742.375114174089
 30
0.0
 11
8807.16598567885
 21
-2810.207693068147
 31
0.0
  0
ARC
  5
1C25
330
18
100
AcDbEntity
  8
18
100
AcDbCircle
 10
8778.896859482269
 20
-2804.126827498111
 30
0.0
 40
15.0
100
AcDbArc
 50
203.9156339127711
 51
336.0843660872289
  0
LWPOLYLINE
  5
1C26
330
18
100
AcDbEntity
  8
35
100
AcDbPolyline
 90
        2
 70
     0
 43
0.0
 10
8709.16148055651
 20
-2810.207693068148
 42
0.0779092946149983
 10
8714.367876712634
 20
-2831.256338785935
  0
ARC
  5
1C28
330
18
100
AcDbEntity
  8
25
100
AcDbCircle
 10
8911.16598567885
 20
-2992.168826425585
 30
0.0
 40
117.85
100
AcDbArc
 50
292.3460352090874
 51
49.50848562070008
  0
LINE
  5
1C2A
330
18
100
AcDbEntity
  8
25
100
AcDbLine
 10
8866.359485034411
 20
-3101.168826425585
 30
0.0
 11
8955.972486323288
 21
-3101.168826425585
 31
0.0
  0
LINE
  5
1C2B
330
18
100
AcDbEntity
  8
25
100
AcDbLine
 10
8879.16598567885
 20
-3101.168826425585
 30
0.0
 11
8879.16598567885
 21
-3122.035130613653
 31
0.0
  0
LINE
  5
1C2C
330
18
100
AcDbEntity
  8
25
100
AcDbLine
 10
8943.165985678851
 20
-3101.168826425585
 30
0.0
 11
8943.165985678851
 21
-3122.035130613653
 31
0.0
  0
LINE
  5
1C2E
330
18
100
AcDbEntity
  8
18
  6
STRICHLINIE
100
AcDbLine
 10
9071.165985678851
 20
-3122.035130613653
 30
0.0
 11
9071.165985678851
 21
-3191.317323609215
 31
0.0
  0
LINE
  5
1C2F
330
18
100
AcDbEntity
  8
18
  6
STRICHLINIE
100
AcDbLine
 10
9097.165985678849
 20
-2831.256338785935
 30
0.0
 11
9097.165985678849
 21
-2902.543649011127
 31
0.0
  0
LINE
  5
1C30
330
18
100
AcDbEntity
  8
35
100
AcDbLine
 10
8876.16598567885
 20
-2818.160260195753
 30
0.0
 11
8876.16598567885
 21
-2831.256338785935
 31
0.0
  0
LINE
  5
1C31
330
18
100
AcDbEntity
  8
35
100
AcDbLine
 10
8946.165985678849
 20
-2818.160260195753
 30
0.0
 11
8946.165985678851
 21
-2831.256338785935
 31
0.0
  0
LWPOLYLINE
  5
1C33
330
18
100
AcDbEntity
  8
35
100
AcDbPolyline
 90
        2
 70
     0
 43
0.0
 10
9107.964094645064
 20
-2831.256338785935
 42
0.0779092946150002
 10
9113.170490801188
 20
-2810.207693068148
 42
0.0779092946150002
  0
ARC
  5
1C34
330
18
100
AcDbEntity
  8
18
100
AcDbCircle
 10
9038.896859482269
 20
-2804.126827498111
 30
0.0
 40
15.0
100
AcDbArc
 50
203.9156339127711
 51
336.0843660872289
  0
CIRCLE
  5
1C35
330
18
100
AcDbEntity
  8
18
100
AcDbCircle
 10
8811.165985678851
 20
-2609.126827498111
 30
0.0
 40
15.0
  0
LINE
  5
1C36
330
18
100
AcDbEntity
  8
25
100
AcDbLine
 10
8870.16598567885
 20
-2564.092569107604
 30
0.0
 11
8952.165985678851
 21
-2564.092569107604
 31
0.0
  0
CIRCLE
  5
1C37
330
18
100
AcDbEntity
  8
18
100
AcDbCircle
 10
9011.16598567885
 20
-2609.126827498111
 30
0.0
 40
15.0
  0
LINE
  5
1CA2
330
18
100
AcDbEntity
  8
25
100
AcDbLine
 10
4482.433841996309
 20
-3191.317323609215
 30
0.0
 11
9539.898149361389
 21
-3191.317323609215
 31
0.0
  0
LINE
  5
1CA3
330
18
100
AcDbEntity
  8
25
100
AcDbLine
 10
4482.43384199631
 20
-3122.035130613653
 30
0.0
 11
9539.898149361389
 21
-3122.035130613653
 31
0.0
  0
LINE
  5
1CA4
330
18
100
AcDbEntity
  8
25
100
AcDbLine
 10
4482.43384199631
 20
-2902.543649011126
 30
0.0
 11
9539.898149361389
 21
-2902.543649011126
 31
0.0
  0
LINE
  5
1CA5
330
18
100
AcDbEntity
  8
25
100
AcDbLine
 10
4482.43384199631
 20
-2831.256338785935
 30
0.0
 11
9539.898149361389
 21
-2831.256338785935
 31
0.0
  0
LINE
  5
1E53
330
18
100
AcDbEntity
  8
50
100
AcDbLine
 10
8911.16598567885
 20
-2658.160260195753
 30
0.0
 11
8911.16598567885
 21
-2818.160260195753
 31
0.0
  0
LINE
  5
1E54
330
18
100
AcDbEntity
  8
50
100
AcDbLine
 10
8952.165985678851
 20
-2658.160260195753
 30
0.0
 11
8870.16598567885
 21
-2658.160260195753
 31
0.0
  0
LINE
  5
1E55
330
18
100
AcDbEntity
  8
50
100
AcDbLine
 10
8870.16598567885
 20
-2818.160260195753
 30
0.0
 11
8952.165985678851
 21
-2818.160260195753
 31
0.0
  0
LINE
  5
1E5D
330
18
100
AcDbEntity
  8
50
100
AcDbLine
 10
7644.499331907102
 20
-2657.72938022163
 30
0.0
 11
7644.499331907102
 21
-2817.72938022163
 31
0.0
  0
LINE
  5
1E5E
330
18
100
AcDbEntity
  8
50
100
AcDbLine
 10
7685.499331907101
 20
-2657.72938022163
 30
0.0
 11
7603.499331907102
 21
-2657.72938022163
 31
0.0
  0
LINE
  5
1E5F
330
18
100
AcDbEntity
  8
50
100
AcDbLine
 10
7603.499325678851
 20
-2817.72938022163
 30
0.0
 11
7685.499325678849
 21
-2817.72938022163
 31
0.0
  0
LINE
  5
1E67
330
18
100
AcDbEntity
  8
50
100
AcDbLine
 10
6377.832671907101
 20
-2658.113384518911
 30
0.0
 11
6377.832671907101
 21
-2818.113384518912
 31
0.0
  0
LINE
  5
1E68
330
18
100
AcDbEntity
  8
50
100
AcDbLine
 10
6418.832671907101
 20
-2658.113384518911
 30
0.0
 11
6336.832671907101
 21
-2658.113384518911
 31
0.0
  0
LINE
  5
1E69
330
18
100
AcDbEntity
  8
50
100
AcDbLine
 10
6336.83266567885
 20
-2818.113384518912
 30
0.0
 11
6418.832665678848
 21
-2818.113384518912
 31
0.0
  0
LINE
  5
1E71
330
18
100
AcDbEntity
  8
50
100
AcDbLine
 10
5111.166011907101
 20
-2657.729358686677
 30
0.0
 11
5111.166011907101
 21
-2817.729358686677
 31
0.0
  0
LINE
  5
1E72
330
18
100
AcDbEntity
  8
50
100
AcDbLine
 10
5152.166011907102
 20
-2657.729358686677
 30
0.0
 11
5070.166011907101
 21
-2657.729358686677
 31
0.0
  0
LINE
  5
1E73
330
18
100
AcDbEntity
  8
50
100
AcDbLine
 10
5070.166005678849
 20
-2817.729358686677
 30
0.0
 11
5152.166011907102
 21
-2817.729358686677
 31
0.0
  0
LINE
  5
2674
330
18
100
AcDbEntity
  8
C160
100
AcDbLine
 10
7149.292612570171
 20
-738.9663613013783
 30
0.0
 11
7063.335444809844
 21
483.2922576695514
 31
0.0
  0
LINE
  5
2675
330
18
100
AcDbEntity
  8
C160
100
AcDbLine
 10
6916.942909688521
 20
483.2922576695501
 30
0.0
 11
7003.192790957207
 21
-742.6135083978458
 31
0.0
  0
LWPOLYLINE
  5
267C
330
18
100
AcDbEntity
  8
50
100
AcDbPolyline
 90
        6
 70
     1
 43
0.0
 10
7176.459861846144
 20
-1338.871804433357
 10
7176.459861846149
 20
-1041.703258055047
 10
6930.97320552455
 20
-989.5467519783059
 42
0.4769476725554622
 10
6846.42560345564
 20
-1058.018405047621
 10
6846.425603455641
 20
-1322.556657440782
 42
0.4769476725554603
 10
6930.973205524551
 20
-1391.028310510097
  0
DIMENSION
  5
267D
330
18
100
AcDbEntity
  8
KOTIERUNG
100
AcDbDimension
  2
*D46
 10
6846.425603455641
 20
-942.3989183194969
 30
0.0
 11
7011.442732650895
 21
-918.0817286878461
 31
0.0
 70
    32
 71
     5
 42
330.0342583905058
  3
TYPENBLATT_M10
100
AcDbAlignedDimension
 13
7176.459861846147
 23
-1041.703258055047
 33
0.0
 14
6846.425603455641
 24
-991.4586616835594
 34
0.0
 50
180.0
100
AcDbRotatedDimension
1001
ACAD
1000
DSTYLE
1002
{
1070
    40
1040
120.0
1002
}
  0
DIMENSION
  5
267E
330
18
100
AcDbEntity
  8
KOTIERUNG
100
AcDbDimension
  2
*D47
 10
6685.580044322425
 20
-1392.556657440783
 30
0.0
 11
6685.580044322425
 21
-1190.287531244201
 31
0.0
 70
   160
 71
     5
 42
404.538252393162
  3
TYPENBLATT_M10
100
AcDbAlignedDimension
 13
6850.440412208773
 23
-988.0184050476207
 33
0.0
 14
6850.440412208775
 24
-1392.556657440783
 34
0.0
 50
90.0
100
AcDbRotatedDimension
1001
ACAD
1000
DSTYLE
1002
{
1070
    40
1040
120.0
1002
}
  0
LWPOLYLINE
  5
267F
330
18
100
AcDbEntity
  8
50
100
AcDbPolyline
 90
       16
 70
     1
 43
0.0
 10
7156.459861846149
 20
-1149.287531244202
 10
7149.559861846147
 20
-1149.287531244202
 10
7149.559861846147
 20
-1178.7875312442
 42
-0.4142135623730951
 10
7140.559861846146
 20
-1187.787531244202
 10
7012.359861846147
 20
-1187.787531244202
 42
-0.4142135623730951
 10
7003.359861846147
 20
-1178.787531244202
 10
7003.359861846147
 20
-1149.287531244202
 10
6996.459861846149
 20
-1149.287531244202
 10
6996.459861846149
 20
-1231.287531244202
 10
7003.359861846147
 20
-1231.287531244202
 10
7003.359861846147
 20
-1201.787531244202
 42
-0.4142135623730951
 10
7012.359861846147
 20
-1192.7875312442
 10
7140.559861846146
 20
-1192.787531244202
 42
-0.4142135623730951
 10
7149.559861846147
 20
-1201.7875312442
 10
7149.559861846147
 20
-1231.287531244202
 10
7156.459861846149
 20
-1231.287531244202
  0
DIMENSION
  5
2680
330
18
100
AcDbEntity
  8
KOTIERUNG
100
AcDbDimension
  2
*D48
 10
7306.682669874081
 20
-1338.871804433358
 30
0.0
 11
7306.682669874081
 21
-1191.352985158901
 31
0.0
 70
   160
 71
     5
 42
297.1685463783115
  3
TYPENBLATT_M10
100
AcDbAlignedDimension
 13
7176.459861846147
 23
-1041.703258055046
 33
0.0
 14
7176.459861846144
 24
-1338.871804433358
 34
0.0
 50
90.0
100
AcDbRotatedDimension
1001
ACAD
1000
DSTYLE
1002
{
1070
    40
1040
120.0
1002
}
  0
DIMENSION
  5
2681
330
18
100
AcDbEntity
  8
KOTIERUNG
100
AcDbDimension
  2
*D49
 10
7250.593100304486
 20
-1290.287531244201
 30
0.0
 11
7250.593100304486
 21
-1190.287531244201
 31
0.0
 70
   160
 71
     5
 42
199.9999999999991
  3
TYPENBLATT_M10
100
AcDbAlignedDimension
 13
7151.074068848894
 23
-1090.287531244202
 33
0.0
 14
7151.074068848896
 24
-1290.287531244201
 34
0.0
 50
90.0
100
AcDbRotatedDimension
1001
ACAD
1000
DSTYLE
1002
{
1070
    40
1040
120.0
1002
}
  0
DIMENSION
  5
2682
330
18
100
AcDbEntity
  8
KOTIERUNG
100
AcDbDimension
  2
*D50
 10
6782.377129086326
 20
-1318.01840504762
 30
0.0
 11
6782.377129086326
 21
-1188.018405047619
 31
0.0
 70
   160
 71
     5
 42
259.9999999999991
  3
TYPENBLATT_M10
100
AcDbAlignedDimension
 13
6881.777138062389
 23
-1058.018405047621
 33
0.0
 14
6881.777138062389
 24
-1318.01840504762
 34
0.0
 50
90.0
100
AcDbRotatedDimension
1001
ACAD
1000
DSTYLE
1002
{
1070
    40
1040
120.0
1002
}
  0
CIRCLE
  5
2683
330
18
100
AcDbEntity
  8
35
100
AcDbCircle
 10
7111.425603455642
 20
-1290.287531244202
 30
0.0
 40
15.0
  0
LINE
  5
2684
330
18
100
AcDbEntity
  8
18
  6
STRICHPUNKT
 48
0.05
100
AcDbLine
 10
7111.425603455642
 20
-1290.287531244201
 30
0.0
 11
7151.074068848894
 21
-1290.287531244201
 31
0.0
  0
LINE
  5
2685
330
18
100
AcDbEntity
  8
18
  6
STRICHPUNKT
 48
0.05
100
AcDbLine
 10
6916.425603455642
 20
-1318.018405047621
 30
0.0
 11
6916.425603455642
 21
-1352.666870440874
 31
0.0
  0
DIMENSION
  5
2686
330
18
100
AcDbEntity
  8
KOTIERUNG
100
AcDbDimension
  2
*D51
 10
6916.425603455642
 20
-1453.989307564011
 30
0.0
 11
7013.925603455641
 21
-1453.989307564011
 31
0.0
 70
   160
 71
     5
 42
195.0
  3
TYPENBLATT_M10
100
AcDbAlignedDimension
 13
7111.425603455642
 23
-1324.935996637455
 33
0.0
 14
6916.425603455642
 24
-1352.666870440874
 34
0.0
 50
180.0
100
AcDbRotatedDimension
1001
ACAD
1000
DSTYLE
1002
{
1070
    40
1040
120.0
1002
}
  0
LINE
  5
2687
330
18
100
AcDbEntity
  8
18
  6
STRICHPUNKT
 48
0.05
100
AcDbLine
 10
6916.425603455642
 20
-1318.018405047621
 30
0.0
 11
6916.425603455642
 21
-1283.369939654368
 31
0.0
  0
LINE
  5
2688
330
18
100
AcDbEntity
  8
18
  6
STRICHPUNKT
 48
0.05
100
AcDbLine
 10
6916.425603455642
 20
-1318.01840504762
 30
0.0
 11
6951.074068848893
 21
-1318.01840504762
 31
0.0
  0
CIRCLE
  5
2689
330
18
100
AcDbEntity
  8
35
100
AcDbCircle
 10
6916.425603455642
 20
-1318.018405047621
 30
0.0
 40
15.0
  0
LINE
  5
268A
330
18
100
AcDbEntity
  8
18
  6
STRICHPUNKT
 48
0.05
100
AcDbLine
 10
6916.425603455642
 20
-1318.01840504762
 30
0.0
 11
6881.777138062389
 21
-1318.01840504762
 31
0.0
  0
LINE
  5
268B
330
18
100
AcDbEntity
  8
18
  6
STRICHPUNKT
 48
0.05
100
AcDbLine
 10
7111.425603455642
 20
-1290.287531244202
 30
0.0
 11
7111.425603455642
 21
-1255.639065850949
 31
0.0
  0
LINE
  5
268C
330
18
100
AcDbEntity
  8
18
  6
STRICHPUNKT
 48
0.05
100
AcDbLine
 10
7111.425603455642
 20
-1290.287531244202
 30
0.0
 11
7111.425603455642
 21
-1324.935996637455
 31
0.0
  0
LINE
  5
268D
330
18
100
AcDbEntity
  8
18
  6
STRICHPUNKT
 48
0.05
100
AcDbLine
 10
7111.425603455642
 20
-1290.287531244201
 30
0.0
 11
7081.777138062388
 21
-1290.287531244201
 31
0.0
  0
LWPOLYLINE
  5
268E
330
18
100
AcDbEntity
  8
25
100
AcDbPolyline
 90
        4
 70
     1
 43
0.0
 10
7003.359861846147
 20
-1331.287531244202
 10
6996.359861846146
 20
-1331.287531244202
 10
6996.359861846146
 20
-1231.287531244202
 10
7003.359861846147
 20
-1231.287531244202
  0
CIRCLE
  5
268F
330
18
100
AcDbEntity
  8
18
  6
STRICHPUNKT
 48
0.05
100
AcDbCircle
 10
7111.425603455642
 20
-1090.287531244202
 30
0.0
 40
15.0
  0
LINE
  5
2690
330
18
100
AcDbEntity
  8
18
  6
STRICHPUNKT
 48
0.05
100
AcDbLine
 10
7111.425603455642
 20
-1090.287531244202
 30
0.0
 11
7151.074068848894
 21
-1090.287531244202
 31
0.0
  0
LINE
  5
2691
330
18
100
AcDbEntity
  8
18
  6
STRICHPUNKT
 48
0.2
100
AcDbLine
 10
6808.901354187279
 20
-1190.287531244202
 30
0.0
 11
7214.86316745895
 21
-1190.287531244202
 31
0.0
  0
LINE
  5
2692
330
18
100
AcDbEntity
  8
LS
  6
STRICHPUNKT
 62
     1
 48
0.5
100
AcDbLine
 10
7167.521014431702
 20
-1164.287531244202
 30
0.0
 11
7136.566889875921
 21
-1164.287531244202
 31
0.0
  0
LINE
  5
2693
330
18
100
AcDbEntity
  8
LS
  6
STRICHPUNKT
 62
     1
 48
0.5
100
AcDbLine
 10
7167.521014431702
 20
-1216.287531244202
 30
0.0
 11
7136.566889875921
 21
-1216.287531244202
 31
0.0
  0
LINE
  5
2694
330
18
100
AcDbEntity
  8
18
  6
STRICHPUNKT
 48
0.05
100
AcDbLine
 10
7111.425603455639
 20
-1090.287531244202
 30
0.0
 11
7111.425603455639
 21
-1124.935996637455
 31
0.0
  0
LWPOLYLINE
  5
2695
330
18
100
AcDbEntity
  8
25
100
AcDbPolyline
 90
        4
 70
     1
 43
0.0
 10
7003.359861846147
 20
-1149.287531244202
 10
6996.359861846146
 20
-1149.287531244202
 10
6996.359861846146
 20
-1049.287531244202
 10
7003.359861846147
 20
-1049.287531244202
  0
LINE
  5
2696
330
18
100
AcDbEntity
  8
LS
  6
STRICHPUNKT
 62
     1
 48
0.5
100
AcDbLine
 10
6985.398709260592
 20
-1164.287531244202
 30
0.0
 11
7016.352833816373
 21
-1164.287531244202
 31
0.0
  0
LINE
  5
2697
330
18
100
AcDbEntity
  8
LS
  6
STRICHPUNKT
 62
     1
 48
0.5
100
AcDbLine
 10
6985.398709260592
 20
-1216.287531244202
 30
0.0
 11
7016.352833816373
 21
-1216.287531244202
 31
0.0
  0
LINE
  5
2698
330
18
100
AcDbEntity
  8
18
  6
STRICHPUNKT
 48
0.05
100
AcDbLine
 10
6916.425603455639
 20
-1058.018405047621
 30
0.0
 11
6916.425603455639
 21
-1092.666870440874
 31
0.0
  0
LINE
  5
2699
330
18
100
AcDbEntity
  8
18
  6
STRICHPUNKT
 48
0.05
100
AcDbLine
 10
6916.425603455642
 20
-1058.018405047621
 30
0.0
 11
6916.425603455642
 21
-1023.369939654368
 31
0.0
  0
CIRCLE
  5
269A
330
18
100
AcDbEntity
  8
35
100
AcDbCircle
 10
6916.425603455642
 20
-1058.018405047621
 30
0.0
 40
15.0
  0
LINE
  5
269B
330
18
100
AcDbEntity
  8
18
  6
STRICHPUNKT
 48
0.05
100
AcDbLine
 10
6916.425603455642
 20
-1058.018405047621
 30
0.0
 11
6951.074068848893
 21
-1058.018405047621
 31
0.0
  0
LINE
  5
269C
330
18
100
AcDbEntity
  8
18
  6
STRICHPUNKT
 48
0.05
100
AcDbLine
 10
6916.425603455642
 20
-1058.018405047621
 30
0.0
 11
6881.777138062389
 21
-1058.018405047621
 31
0.0
  0
LINE
  5
269D
330
18
100
AcDbEntity
  8
18
  6
STRICHPUNKT
 48
0.05
100
AcDbLine
 10
7111.425603455642
 20
-1090.287531244202
 30
0.0
 11
7111.425603455642
 21
-1055.639065850949
 31
0.0
  0
LINE
  5
269E
330
18
100
AcDbEntity
  8
18
  6
STRICHPUNKT
 48
0.05
100
AcDbLine
 10
7111.425603455642
 20
-1090.287531244202
 30
0.0
 11
7081.777138062388
 21
-1090.287531244202
 31
0.0
  0
LINE
  5
26A0
330
18
100
AcDbEntity
  8
18
  6
STRICHPUNKT
 62
     5
 48
0.3
100
AcDbLine
 10
7116.425603455642
 20
-909.8965845546157
 30
0.0
 11
7116.153532747587
 21
-717.6893084100814
 31
0.0
  0
LINE
  5
26A1
330
18
100
AcDbEntity
  8
18
  6
STRICHPUNKT
 62
     5
 48
0.3
100
AcDbLine
 10
6916.425603455642
 20
-909.8965845546157
 30
0.0
 11
6916.153532747587
 21
-716.894460937354
 31
0.0
  0
LWPOLYLINE
  5
26A3
330
18
100
AcDbEntity
  8
50
100
AcDbPolyline
 90
        4
 70
     1
 43
0.0
 10
7176.506066212458
 20
-753.2916942485346
 10
6846.574593662907
 20
-761.5279028821767
 10
6846.200259404074
 20
-746.5325744808822
 10
7176.131731953624
 20
-738.2963658472402
  0
LINE
  5
270E
330
18
100
AcDbEntity
  8
C160
100
AcDbLine
 10
7156.297408321968
 20
-738.7914978401815
 30
0.0
 11
7070.352538096411
 21
483.2922576695505
 31
0.0
  0
LINE
  5
270F
330
18
100
AcDbEntity
  8
C160
100
AcDbLine
 10
7070.352538096411
 20
483.2922576695505
 30
0.0
 11
6909.961834403424
 21
483.2922576695498
 31
0.0
  0
LINE
  5
2710
330
18
100
AcDbEntity
  8
C160
100
AcDbLine
 10
6909.961834403424
 20
483.2922576695498
 30
0.0
 11
6996.266730263819
 21
-742.7864063649272
 31
0.0
  0
LINE
  5
2711
330
18
100
AcDbEntity
  8
50
100
AcDbLine
 10
7401.163588811202
 20
-747.774233313856
 30
0.0
 11
6580.775238785261
 21
-768.1196609777055
 31
0.0
  0
ARC
  5
2712
330
18
100
AcDbEntity
  8
50
100
AcDbCircle
 10
6581.023160078231
 20
-778.1165872569419
 30
0.0
 40
10.0
100
AcDbArc
 50
91.4206299308144
 51
167.9708812401154
  0
HATCH
  5
2713
330
18
100
AcDbEntity
  8
18
100
AcDbHatch
 10
0.0
 20
0.0
 30
0.0
210
0.0
220
0.0
230
1.0
  2
ANSI31
 70
     0
 71
     0
 91
        1
 92
        7
 72
     0
 73
     1
 93
        4
 10
6557.891797296687
 20
-838.6871646526309
 10
6310.320143756175
 20
-838.6871646526309
 10
6310.320143756175
 20
-876.3195573535824
 10
6557.891797296687
 20
-876.3195573535824
 97
        0
 75
     0
 76
     1
 52
0.0
 41
100.0
 77
     0
 78
     1
 53
45.0
 43
9411.967608802701
 44
1968.671427658816
 45
-8.838834764831842
 46
8.838834764831844
 79
     0
 47
0.2419713554873503
 98
        1
 10
6474.609468057457
 20
-844.2787229731996
1001
ACAD
1010
0.0
1020
0.0
1030
0.0
  0
LINE
  5
2714
330
18
100
AcDbEntity
  8
50
100
AcDbLine
 10
6557.891797296687
 20
-838.6871646526309
 30
0.0
 11
6310.320143756175
 21
-838.6871646526309
 31
0.0
  0
LINE
  5
2715
330
18
100
AcDbEntity
  8
35
100
AcDbLine
 10
6557.891797296687
 20
-838.6871646526309
 30
0.0
 11
6557.891797296687
 21
-876.3195573535824
 31
0.0
  0
LINE
  5
2716
330
18
100
AcDbEntity
  8
50
100
AcDbLine
 10
6557.891797296687
 20
-838.6871646526309
 30
0.0
 11
6571.24274197918
 21
-776.0324994930154
 31
0.0
  0
HATCH
  5
2717
330
18
100
AcDbEntity
  8
18
100
AcDbHatch
 10
0.0
 20
0.0
 30
0.0
210
0.0
220
0.0
230
1.0
  2
ANSI31
 70
     0
 71
     0
 91
        3
 92
        7
 72
     0
 73
     1
 93
        4
 10
7116.206121372648
 20
-754.8411078506062
 10
6916.214016926836
 20
-759.8008624524534
 10
6916.37827068337
 20
-876.3195573535824
 10
7116.378074945024
 20
-876.319557353583
 97
        0
 92
        7
 72
     0
 73
     1
 93
        4
 10
7401.163588811202
 20
-747.7742333138564
 10
7116.206121372648
 20
-754.8411078506062
 10
7116.378074945024
 20
-876.3195573535824
 10
7401.163588811202
 20
-876.3195573535824
 97
        0
 92
        7
 72
     1
 73
     1
 93
        6
 10
6916.214016926836
 20
-759.8008624524538
 42
0.0
 10
6580.775238785261
 20
-768.1196609777055
 42
0.3470154219377684
 10
6571.24274197918
 20
-776.0324994930158
 42
0.0
 10
6557.891797296687
 20
-838.6871646526309
 42
0.0
 10
6557.891797296687
 20
-876.319557353583
 42
0.0
 10
6916.378270683371
 20
-876.3195573535824
 42
0.0
 97
        0
 75
     0
 76
     1
 52
90.0
 41
150.0
 77
     0
 78
     1
 53
135.0
 43
5825.662502869626
 44
1968.671427658816
 45
-13.25825214724776
 46
-13.25825214724776
 79
     0
 47
3.130373784818107
 98
        3
 10
7034.928345966088
 20
-824.1127893309919
 10
7213.393332529723
 20
-824.1127893309919
 10
6862.725296062865
 20
-836.6342868466288
  0
DIMENSION
  5
2718
330
18
100
AcDbEntity
  8
KOTIERUNG
100
AcDbDimension
  2
*D54
 10
6916.425603455642
 20
-1453.989307564011
 30
0.0
 11
6737.158700376165
 21
-1429.67211793236
 31
0.0
 70
    32
  1
360
 71
     5
 42
358.5338061589537
  3
TYPENBLATT_M10
100
AcDbAlignedDimension
 13
6557.891797296687
 23
-838.6871646526309
 33
0.0
 14
6916.425603455642
 24
-1352.666870440874
 34
0.0
100
AcDbRotatedDimension
1001
ACAD
1000
DSTYLE
1002
{
1070
    40
1040
120.0
1002
}
  0
LINE
  5
2AD7
330
18
100
AcDbEntity
  8
LS
100
AcDbLine
 10
6892.482540706935
 20
550.2185862390615
 30
0.0
 11
6838.022649656548
 21
514.7345015421158
 31
0.0
  0
LWPOLYLINE
  5
2AD8
330
18
100
AcDbEntity
  8
LS
100
AcDbPolyline
 90
       15
 70
     0
 43
0.0
 10
6921.318336140432
 20
231.8205321103332
 10
6852.543926665558
 20
264.1143128777335
 42
-0.2720695057079331
 10
6844.527967783523
 20
275.8182529650321
 10
6842.519877938852
 20
304.7753622705948
 42
-0.270885575192229
 10
6848.7919481437
 20
317.4398940608953
 10
6902.963295386493
 20
353.0773231692649
 42
0.2708855751922286
 10
6910.489779632317
 20
368.2747613176261
 10
6908.575026953442
 20
395.8859276021021
 10
6906.660274274559
 20
423.4970938865805
 42
0.2708855751920952
 10
6897.108126644792
 20
437.5101794509732
 10
6838.536262357931
 20
465.3292004530831
 42
-0.2708855751920949
 10
6830.576139333128
 20
477.0067717567425
 10
6828.568049488459
 20
505.9638810623036
 42
-0.2720695057077015
 10
6834.891781399211
 20
518.6622362741486
 10
6898.55036274608
 20
560.1398530785918
  0
LWPOLYLINE
  5
2AD9
330
18
100
AcDbEntity
  8
LS
100
AcDbPolyline
 90
        7
 70
     0
 43
0.0
 10
6842.703829678907
 20
473.7954046900644
 10
6901.275693965769
 20
445.9763836879564
 42
-0.2708855751920952
 10
6913.102162459759
 20
428.6268491796602
 10
6915.358735049818
 20
396.3563576852238
 10
6917.595960926987
 20
364.0950550158122
 42
-0.2708855751922286
 10
6908.277456622636
 20
345.2791792130769
 10
6854.106109379841
 20
309.6417501047089
  0
LINE
  5
2ADA
330
18
100
AcDbEntity
  8
LS
100
AcDbLine
 10
6907.150335269903
 20
243.997056710262
 30
0.0
 11
6861.891504515011
 21
265.2488387226019
 31
0.0
  0
LINE
  5
2ADB
330
18
100
AcDbEntity
  8
25
100
AcDbLine
 10
6623.217890099756
 20
-57.10221270153362
 30
0.0
 11
6565.743411276085
 21
-57.10221270153362
 31
0.0
  0
LWPOLYLINE
  5
2ADC
330
18
100
AcDbEntity
  8
LS
100
AcDbPolyline
 90
       15
 70
     0
 43
0.0
 10
6600.487915795129
 20
31.02564018187957
 10
6538.34087055698
 20
-12.68422647359339
 42
0.2720695057077395
 10
6532.471607557319
 20
-25.59892980762754
 10
6535.50571902482
 20
-54.4665721041747
 42
0.2708855751919197
 10
6543.875106180746
 20
-65.85439844445057
 10
6603.397011637446
 20
-91.5780060133701
 42
-0.2708855751919198
 10
6613.440276224541
 20
-105.2433976216963
 10
6616.333360453733
 20
-132.7692553749649
 10
6619.226444682915
 20
-160.2951131282309
 42
-0.2708855751921097
 10
6612.24384419848
 20
-175.7499952646468
 10
6559.370873928499
 20
-213.286780294595
 42
0.2708855751921097
 10
6553.552040191468
 20
-226.1658487416045
 10
6556.586151658969
 20
-255.0334910381504
 42
0.2720695057076367
 10
6565.012274986749
 20
-266.4456887244084
 10
6634.889050460903
 20
-296.2792926670637
  0
LWPOLYLINE
  5
2ADD
330
18
100
AcDbEntity
  8
LS
100
AcDbPolyline
 90
        7
 70
     0
 43
0.0
 10
6564.958337862788
 20
-220.8914897294199
 10
6617.831308132766
 20
-183.354704699475
 42
0.2708855751921097
 10
6626.476432542074
 20
-164.2200887210552
 10
6623.096109342235
 20
-132.0584618247445
 10
6619.696125624002
 20
-99.8883382337109
 42
0.2708855751919198
 10
6607.261607563782
 20
-82.96928195673572
 10
6547.73970210708
 20
-57.24567438781388
  0
LWPOLYLINE
  5
2ADE
330
18
100
AcDbEntity
  8
25
100
AcDbPolyline
 90
        5
 70
     1
 43
0.0
 10
6641.055202546501
 20
-226.8129042036873
 10
6623.743411276085
 20
-62.10221270153362
 10
6619.013720689131
 20
-17.10221270153362
 10
6848.243411276084
 20
-17.10221270153362
 10
6848.243411276084
 20
-282.1022127015336
  0
LWPOLYLINE
  5
2ADF
330
18
100
AcDbEntity
  8
50
100
AcDbPolyline
 90
        6
 70
     0
 43
0.0
 10
6968.888483406074
 20
-359.2568389672971
 10
6854.243411276084
 20
-293.0664757117839
 42
-0.2679491924311263
 10
6848.243411276084
 20
-282.6741708663704
 10
6848.243411276084
 20
-79.10221270153363
 42
-0.4142135623730951
 10
6860.243411276084
 20
-67.10221270153363
 10
6948.459041796755
 20
-67.10221270153363
  0
LINE
  5
2AE0
330
18
100
AcDbEntity
  8
LS
100
AcDbLine
 10
6620.297992242377
 20
-284.6130584818808
 30
0.0
 11
6574.313720199483
 21
-264.9802613127218
 31
0.0
  0
LINE
  5
2AE1
330
18
100
AcDbEntity
  8
LS
100
AcDbLine
 10
6588.641253681429
 20
16.5806896190087
 30
0.0
 11
6547.743736366105
 21
-12.18375157915954
 31
0.0
  0
LWPOLYLINE
  5
2AE2
330
18
100
AcDbEntity
  8
70
100
AcDbPolyline
 90
       10
 70
     0
 43
0.0
 10
6979.66974384238
 20
-513.5772906699291
 10
6976.922692564638
 20
-475.6767140347717
 42
0.577350269189629
 10
6962.894562819825
 20
-468.8788043661507
 10
6922.757411101405
 20
-496.1002858088004
 42
0.2679491924311201
 10
6918.832636124299
 20
-504.1994302931944
 10
6925.302851113119
 20
-593.46783274953
 42
0.2679491924311201
 10
6930.354528496976
 20
-600.9163598260374
 10
6973.997598814166
 20
-622.0654121284136
 42
0.5773502691896291
 10
6986.898826152231
 20
-613.3156502361335
 10
6984.151774874487
 20
-575.4150736009757
  0
DIMENSION
  5
2B4B
330
18
100
AcDbEntity
  8
KOTIERUNG
100
AcDbDimension
  2
*D58
 10
6441.350535383404
 20
-768.6871646526308
 30
0.0
 11
6417.033345751754
 21
-803.6871646526297
 31
0.0
 70
    32
 71
     5
 42
70.0
  3
TYPENBLATT_M10
100
AcDbAlignedDimension
 13
6557.891797296687
 23
-838.6871646526309
 33
0.0
 14
6577.693597141553
 24
-768.6871646526308
 34
0.0
 50
90.0
100
AcDbRotatedDimension
1001
ACAD
1000
DSTYLE
1002
{
1070
    40
1040
120.0
1002
}
  0
DIMENSION
  5
2B77
330
18
100
AcDbEntity
  8
KOTIERUNG
100
AcDbDimension
  2
*D59
 10
6759.137188105204
 20
-548.8336315213621
 30
0.0
 11
6734.819998473553
 21
-658.7603980869954
 31
0.0
 70
    32
 71
     5
 42
219.8535331312687
  3
TYPENBLATT_M10
100
AcDbAlignedDimension
 13
6577.693597141553
 23
-768.6871646526308
 33
0.0
 14
6922.067743618709
 24
-548.8336315213622
 34
0.0
 50
90.0
100
AcDbRotatedDimension
1001
ACAD
1000
DSTYLE
1002
{
1070
    40
1040
120.0
1002
}
  0
DIMENSION
  5
2BA6
330
18
100
AcDbEntity
  8
KOTIERUNG
100
AcDbDimension
  2
*D61
 10
6501.805322581654
 20
31.02564018187961
 30
0.0
 11
6477.488132950004
 21
-368.8307622353745
 31
0.0
 70
    32
 71
     5
 42
799.7128048345103
  3
TYPENBLATT_M10
100
AcDbAlignedDimension
 13
6577.693597141553
 23
-768.6871646526308
 33
0.0
 14
6600.487915795129
 24
31.02564018187957
 34
0.0
 50
90.0
100
AcDbRotatedDimension
1001
ACAD
1000
DSTYLE
1002
{
1070
    40
1040
120.0
1002
}
  0
DIMENSION
  5
2BD8
330
18
100
AcDbEntity
  8
KOTIERUNG
100
AcDbDimension
  2
*D62
 10
6441.350535383404
 20
561.1398530785918
 30
0.0
 11
6417.033345751754
 21
-103.7736557870184
 31
0.0
 70
    32
 71
     5
 42
1329.827017731223
  3
TYPENBLATT_M10
100
AcDbAlignedDimension
 13
6577.693597141553
 23
-768.6871646526308
 33
0.0
 14
6898.55036274608
 24
561.1398530785918
 34
0.0
 50
90.0
100
AcDbRotatedDimension
1001
ACAD
1000
DSTYLE
1002
{
1070
    40
1040
120.0
1002
}
  0
DIMENSION
  5
2BF8
330
18
100
AcDbEntity
  8
KOTIERUNG
100
AcDbDimension
  2
*D63
 10
6367.690110021533
 20
561.1398530785919
 30
0.0
 11
6343.372920389882
 21
-138.7736557870184
 31
0.0
 70
    32
  1
{\H0.875x;\U+2265}<>
 71
     5
 42
1399.827017731223
  3
TYPENBLATT_M10
100
AcDbAlignedDimension
 13
6557.891797296687
 23
-838.6871646526309
 33
0.0
 14
6898.55036274608
 24
561.1398530785918
 34
0.0
 50
90.0
100
AcDbRotatedDimension
1001
ACAD
1000
DSTYLE
1002
{
1070
   272
1070
     0
1070
    47
1040
40.0
1070
   147
1040
0.075
1070
    48
1040
40.0
1070
    72
1070
     0
1070
    71
1070
     1
1070
    40
1040
120.0
1002
}
1001
ACAD_DSTYLE_DIMTALN
1070
   392
1070
     0
  0
VIEWPORT
  5
1DF
102
{ACAD_XDICTIONARY
360
2E49
102
}
330
15
100
AcDbEntity
 67
     1
  8
0
100
AcDbViewport
 10
5.14190195037193
 20
5.627083233960968
 30
0.0
 40
21.06849091127136
 41
11.7812091593854
 68
     1
 69
     1
 12
5.14190195037193
 22
5.627083233960968
 13
0.0
 23
0.0
 14
0.5
 24
0.5
 15
0.5
 25
0.5
 16
0.0
 26
0.0
 36
1.0
 17
0.0
 27
0.0
 37
0.0
 42
50.0
 43
0.0
 44
0.0
 45
11.7812091593854
 50
0.0
 51
0.0
 72
   100
 90
    32800
  1

281
     0
 71
     1
 74
     0
110
0.0
120
0.0
130
0.0
111
1.0
121
0.0
131
0.0
112
0.0
122
1.0
132
0.0
 79
     0
146
0.0
  0
MTEXT
  5
13A5
330
15
100
AcDbEntity
 67
     1
  8
KOTIERUNG
100
AcDbMText
 10
334.574239722046
 20
33.70865160095127
 30
0.0
 40
2.5
 41
0.0
 71
     4
 72
     1
  1
\A1;
  7
VOEST
 73
     1
 44
1.0
1001
ACAD
1000
MTEXTBEGIN
1070
    73
1070
     1
1070
    44
1040
1.0
1070
    74
1070
     0
1000
MTEXTEND
  0
MTEXT
  5
1505
330
15
100
AcDbEntity
 67
     1
  8
TEXT
100
AcDbMText
 10
170.1309310268098
 20
188.4899274501241
 30
0.0
 40
125.0
 41
0.0
 71
     4
 72
     1
  1
\A1;
  7
VOEST
 73
     1
 44
1.0
1001
ACAD
1000
MTEXTBEGIN
1070
    73
1070
     1
1070
    44
1040
1.0
1070
    74
1070
     0
1000
MTEXTEND
  0
MTEXT
  5
1509
330
15
100
AcDbEntity
 67
     1
  8
TEXT
100
AcDbMText
 10
122.2170016261258
 20
214.8213238210264
 30
0.0
 40
2.5
 41
0.0
 71
     4
 72
     1
  1
\A1;
  7
VOEST
 73
     1
 44
1.0
1001
ACAD
1000
MTEXTBEGIN
1070
    73
1070
     1
1070
    44
1040
1.0
1070
    74
1070
     0
1000
MTEXTEND
  0
MTEXT
  5
150D
330
15
100
AcDbEntity
 67
     1
  8
TEXT
100
AcDbMText
 10
122.2170016261258
 20
214.9995195096872
 30
0.0
 40
2.5
 41
0.0
 71
     4
 72
     1
  1
\A1;
  7
VOEST
 73
     1
 44
1.0
1001
ACAD
1000
MTEXTBEGIN
1070
    73
1070
     1
1070
    44
1040
1.0
1070
    74
1070
     0
1000
MTEXTEND
  0
MTEXT
  5
150F
330
15
100
AcDbEntity
 67
     1
  8
TEXT
100
AcDbMText
 10
122.2170016261258
 20
214.9995195096872
 30
0.0
 40
2.5
 41
0.0
 71
     4
 72
     1
  1
\A1;
  7
VOEST
 73
     1
 44
1.0
1001
ACAD
1000
MTEXTBEGIN
1070
    73
1070
     1
1070
    44
1040
1.0
1070
    74
1070
     0
1000
MTEXTEND
  0
MTEXT
  5
1513
330
15
100
AcDbEntity
 67
     1
  8
TEXT
100
AcDbMText
 10
130.9001099666395
 20
219.6788439368279
 30
0.0
 40
2.5
 41
0.0
 71
     4
 72
     1
  1
\A1;
  7
VOEST
 73
     1
 44
1.0
1001
ACAD
1000
MTEXTBEGIN
1070
    73
1070
     1
1070
    44
1040
1.0
1070
    74
1070
     0
1000
MTEXTEND
  0
ENDSEC
  0
SECTION
  2
OBJECTS
  0
DICTIONARY
  5
C
330
0
100
AcDbDictionary
281
     1
  3
ACAD_COLOR
350
20DE
  3
ACAD_GROUP
350
D
  3
ACAD_LAYOUT
350
1612
  3
ACAD_MATERIAL
350
20DD
  3
ACAD_MLEADERSTYLE
350
2314
  3
ACAD_MLINESTYLE
350
1B
  3
ACAD_PLOTSETTINGS
350
1613
  3
ACAD_PLOTSTYLENAME
350
1610
  3
ACAD_SCALELIST
350
22F2
  3
ACAD_TABLESTYLE
350
2136
  3
ACAD_VISUALSTYLE
350
22E1
  3
ACDB_RECOMPOSE_DATA
350
24B8
  3
ACDBVARIABLEDICTIONARY
350
1109
  3
CONTENTDICTIONARY
350
23
  3
DWGPROPS
350
2E48
  0
DICTIONARY
  5
24B9
330
8
100
AcDbDictionary
280
     1
281
     1
  0
DICTIONARY
  5
2192
330
2
100
AcDbDictionary
280
     1
281
     1
  3
ACAD_LAYERSTATES
360
2193
  0
DICTIONARY
  5
24A0
330
E
100
AcDbDictionary
280
     1
281
     1
  3
ADSK_XREC_LAYER_RECONCILED
360
24A1
  0
DICTIONARY
  5
24A2
330
12F
100
AcDbDictionary
280
     1
281
     1
  3
ADSK_XREC_LAYER_RECONCILED
360
24A3
  0
DICTIONARY
  5
24A4
330
1DA
100
AcDbDictionary
280
     1
281
     1
  3
ADSK_XREC_LAYER_RECONCILED
360
24A5
  0
DICTIONARY
  5
24A6
330
224
100
AcDbDictionary
280
     1
281
     1
  3
ADSK_XREC_LAYER_RECONCILED
360
24A7
  0
DICTIONARY
  5
24A8
330
226
100
AcDbDictionary
280
     1
281
     1
  3
ADSK_XREC_LAYER_RECONCILED
360
24A9
  0
DICTIONARY
  5
24AA
330
425
100
AcDbDictionary
280
     1
281
     1
  3
ADSK_XREC_LAYER_RECONCILED
360
24AB
  0
DICTIONARY
  5
24AC
330
14EF
100
AcDbDictionary
280
     1
281
     1
  3
ADSK_XREC_LAYER_RECONCILED
360
24AD
  0
DICTIONARY
  5
24AE
330
1676
100
AcDbDictionary
280
     1
281
     1
  3
ADSK_XREC_LAYER_RECONCILED
360
24AF
  0
DICTIONARY
  5
24B0
330
1677
100
AcDbDictionary
280
     1
281
     1
  3
ADSK_XREC_LAYER_RECONCILED
360
24B1
  0
DICTIONARY
  5
24B2
330
190A
100
AcDbDictionary
280
     1
281
     1
  3
ADSK_XREC_LAYER_RECONCILED
360
24B3
  0
DICTIONARY
  5
24B4
330
2190
100
AcDbDictionary
280
     1
281
     1
  3
ADSK_XREC_LAYER_RECONCILED
360
24B5
  0
DICTIONARY
  5
25AB
330
25AA
100
AcDbDictionary
280
     1
281
     1
  0
DICTIONARY
  5
1FC3
330
18
100
AcDbDictionary
280
     1
281
     1
  3
ACAD_LAYOUTSELFREF
360
1FC4
  0
DICTIONARY
  5
1FC1
330
15
100
AcDbDictionary
280
     1
281
     1
  3
ACAD_LAYOUTSELFREF
360
1FC2
  0
DICTIONARY
  5
2E52
330
2506
100
AcDbDictionary
280
     1
281
     1
  3
ACAD_MTEXT_RT
360
2E53
  0
DICTIONARY
  5
2E54
330
2512
100
AcDbDictionary
280
     1
281
     1
  3
ACAD_MTEXT_RT
360
2E55
  0
DICTIONARY
  5
2E56
330
2573
100
AcDbDictionary
280
     1
281
     1
  3
ACAD_MTEXT_RT
360
2E57
  0
DICTIONARY
  5
2E58
330
29E4
100
AcDbDictionary
280
     1
281
     1
  3
ACAD_MTEXT_RT
360
2E59
  0
DICTIONARY
  5
2E5A
330
29ED
100
AcDbDictionary
280
     1
281
     1
  3
ACAD_MTEXT_RT
360
2E5B
  0
DICTIONARY
  5
2E5C
330
2A36
100
AcDbDictionary
280
     1
281
     1
  3
ACAD_MTEXT_RT
360
2E5D
  0
DICTIONARY
  5
2E5E
330
2E00
100
AcDbDictionary
280
     1
281
     1
  3
ACAD_MTEXT_RT
360
2E5F
  0
DICTIONARY
  5
2E49
330
1DF
100
AcDbDictionary
280
     1
281
     1
  3
ACAD_XREC_ROUNDTRIP
360
2E4A
  0
DICTIONARY
  5
20DE
102
{ACAD_REACTORS
330
C
102
}
330
C
100
AcDbDictionary
281
     1
  0
DICTIONARY
  5
D
102
{ACAD_REACTORS
330
C
102
}
330
C
100
AcDbDictionary
281
     1
  3
*A1
350
1B1
  3
*A10
350
46B
  3
*A2
350
95A
  3
*A3
350
95B
  3
*A4
350
95C
  3
*A5
350
95D
  3
*A6
350
1B2
  3
*A7
350
1C3
  3
*A8
350
1D2
  3
*A9
350
46A
  0
DICTIONARY
  5
1612
102
{ACAD_REACTORS
330
C
102
}
330
C
100
AcDbDictionary
281
     1
  3
Layout1
350
1615
  3
Model
350
1614
  0
DICTIONARY
  5
20DD
102
{ACAD_REACTORS
330
C
102
}
330
C
100
AcDbDictionary
281
     1
  3
ByBlock
350
22D1
  3
ByLayer
350
22C9
  3
Global
350
22D9
  0
DICTIONARY
  5
2314
102
{ACAD_REACTORS
330
C
102
}
330
C
100
AcDbDictionary
281
     1
  3
Standard
350
2315
  0
DICTIONARY
  5
1B
102
{ACAD_REACTORS
330
C
102
}
330
C
100
AcDbDictionary
281
     1
  3
STANDARD
350
1C
  0
DICTIONARY
  5
1613
102
{ACAD_REACTORS
330
C
102
}
330
C
100
AcDbDictionary
281
     1
  0
ACDBDICTIONARYWDFLT
  5
1610
102
{ACAD_REACTORS
330
C
102
}
330
C
100
AcDbDictionary
281
     1
  3
Normal
350
1611
100
AcDbDictionaryWithDefault
340
1611
  0
DICTIONARY
  5
22F2
102
{ACAD_REACTORS
330
C
102
}
330
C
100
AcDbDictionary
281
     1
  3
A0
350
22F3
  3
A1
350
22F4
  3
A2
350
22F5
  3
A3
350
22F6
  3
A4
350
22F7
  3
A5
350
22F8
  3
A6
350
22F9
  3
A7
350
22FA
  3
A8
350
22FB
  3
A9
350
22FC
  3
B0
350
22FD
  3
B1
350
22FE
  3
B2
350
22FF
  3
B3
350
2300
  3
B4
350
2301
  3
B5
350
2302
  3
B6
350
2303
  3
B7
350
2304
  3
B8
350
2305
  3
B9
350
2306
  3
C0
350
2307
  3
C1
350
2308
  3
C2
350
2309
  3
C3
350
230A
  3
C4
350
230B
  3
C5
350
230C
  3
C6
350
230D
  3
C7
350
230E
  3
C8
350
230F
  3
C9
350
2310
  3
D0
350
2311
  3
D1
350
2312
  3
D2
350
2313
  0
DICTIONARY
  5
2136
102
{ACAD_REACTORS
330
C
102
}
330
C
100
AcDbDictionary
281
     1
  3
Standard
350
2137
  0
DICTIONARY
  5
22E1
102
{ACAD_REACTORS
330
C
102
}
330
C
100
AcDbDictionary
281
     1
  3
2dWireframe
350
22E7
  3
3D Hidden
350
22E9
  3
3dWireframe
350
22E8
  3
Basic
350
22E6
  3
Brighten
350
22ED
  3
ColorChange
350
22F1
  3
Conceptual
350
22EA
  3
Dim
350
22EC
  3
Facepattern
350
22F0
  3
Flat
350
22E2
  3
FlatWithEdges
350
22E3
  3
Gouraud
350
22E4
  3
GouraudWithEdges
350
22E5
  3
Linepattern
350
22EF
  3
Realistic
350
22EB
  3
Thicken
350
22EE
  0
XRECORD
  5
24B8
102
{ACAD_REACTORS
330
C
102
}
330
C
100
AcDbXrecord
280
     1
 90
        1
330
2137
  0
DICTIONARY
  5
1109
102
{ACAD_REACTORS
330
C
102
}
330
C
100
AcDbDictionary
281
     1
  3
CANNOSCALE
350
24C2
  3
CMLEADERSTYLE
350
24C1
  3
CTABLESTYLE
350
22C7
  3
DIMASSOC
350
210C
  3
INDEXCTL
350
2E46
  3
PROJECTNAME
350
210D
  3
SORTENTS
350
110A
  0
DICTIONARY
  5
23
102
{ACAD_REACTORS
330
C
102
}
330
C
100
AcDbDictionary
281
     1
  0
XRECORD
  5
2E48
102
{ACAD_REACTORS
330
C
102
}
330
C
100
AcDbXrecord
280
     1
  1
DWGPROPS COOKIE
  2

  3

  4

  6

  7

  8
V498957
  9

300
=
301
=
302
=
303
=
304
=
305
=
306
=
307
=
308
=
309
=
 40
2.407913136574074
 41
2451353.459995197
 42
2454799.525174468
  1

 90
        0
  0
DICTIONARY
  5
2193
102
{ACAD_REACTORS
330
2192
102
}
330
2192
100
AcDbDictionary
281
     1
  0
XRECORD
  5
24A1
102
{ACAD_REACTORS
330
24A0
102
}
330
24A0
100
AcDbXrecord
280
     1
290
     1
  0
XRECORD
  5
24A3
102
{ACAD_REACTORS
330
24A2
102
}
330
24A2
100
AcDbXrecord
280
     1
290
     1
  0
XRECORD
  5
24A5
102
{ACAD_REACTORS
330
24A4
102
}
330
24A4
100
AcDbXrecord
280
     1
290
     1
  0
XRECORD
  5
24A7
102
{ACAD_REACTORS
330
24A6
102
}
330
24A6
100
AcDbXrecord
280
     1
290
     1
  0
XRECORD
  5
24A9
102
{ACAD_REACTORS
330
24A8
102
}
330
24A8
100
AcDbXrecord
280
     1
290
     1
  0
XRECORD
  5
24AB
102
{ACAD_REACTORS
330
24AA
102
}
330
24AA
100
AcDbXrecord
280
     1
290
     1
  0
XRECORD
  5
24AD
102
{ACAD_REACTORS
330
24AC
102
}
330
24AC
100
AcDbXrecord
280
     1
290
     1
  0
XRECORD
  5
24AF
102
{ACAD_REACTORS
330
24AE
102
}
330
24AE
100
AcDbXrecord
280
     1
290
     1
  0
XRECORD
  5
24B1
102
{ACAD_REACTORS
330
24B0
102
}
330
24B0
100
AcDbXrecord
280
     1
290
     1
  0
XRECORD
  5
24B3
102
{ACAD_REACTORS
330
24B2
102
}
330
24B2
100
AcDbXrecord
280
     1
290
     1
  0
XRECORD
  5
24B5
102
{ACAD_REACTORS
330
24B4
102
}
330
24B4
100
AcDbXrecord
280
     1
290
     1
  0
XRECORD
  5
1FC4
102
{ACAD_REACTORS
330
1FC3
102
}
330
1FC3
100
AcDbXrecord
280
     1
340
18
  0
XRECORD
  5
1FC2
102
{ACAD_REACTORS
330
1FC1
102
}
330
1FC1
100
AcDbXrecord
280
     1
340
15
  0
XRECORD
  5
2E53
102
{ACAD_REACTORS
330
2E52
102
}
330
2E52
100
AcDbXrecord
280
     1
 40
8540.0
  1
\A1;1400±40
  0
XRECORD
  5
2E55
102
{ACAD_REACTORS
330
2E54
102
}
330
2E54
100
AcDbXrecord
280
     1
 40
7678.0
  1
\A1;870±40
  0
XRECORD
  5
2E57
102
{ACAD_REACTORS
330
2E56
102
}
330
2E56
100
AcDbXrecord
280
     1
 40
7660.0
  1
\A1;290±40
  0
XRECORD
  5
2E59
102
{ACAD_REACTORS
330
2E58
102
}
330
2E58
100
AcDbXrecord
280
     1
 40
13304.0
  1
\A1;1400±40.0000
  0
XRECORD
  5
2E5B
102
{ACAD_REACTORS
330
2E5A
102
}
330
2E5A
100
AcDbXrecord
280
     1
 40
12204.0
  1
\A1;870±40.0000
  0
XRECORD
  5
2E5D
102
{ACAD_REACTORS
330
2E5C
102
}
330
2E5C
100
AcDbXrecord
280
     1
 40
12186.0
  1
\A1;290±40.0000
  0
XRECORD
  5
2E5F
102
{ACAD_REACTORS
330
2E5E
102
}
330
2E5E
100
AcDbXrecord
280
     1
 40
38564.0
  1
\A1;{\H0.875x;\U+2265}1400±40
  0
XRECORD
  5
2E4A
102
{ACAD_REACTORS
330
2E49
102
}
330
2E49
100
AcDbXrecord
280
     1
102
SHADEPLOT
 70
     0
  0
GROUP
  5
1B1
102
{ACAD_REACTORS
330
D
102
}
330
D
100
AcDbGroup
300

 70
     1
 71
     1
  0
GROUP
  5
46B
102
{ACAD_REACTORS
330
D
102
}
330
D
100
AcDbGroup
300

 70
     1
 71
     1
  0
GROUP
  5
95A
102
{ACAD_REACTORS
330
D
102
}
330
D
100
AcDbGroup
300

 70
     1
 71
     1
  0
GROUP
  5
95B
102
{ACAD_REACTORS
330
D
102
}
330
D
100
AcDbGroup
300

 70
     1
 71
     1
  0
GROUP
  5
95C
102
{ACAD_REACTORS
330
D
102
}
330
D
100
AcDbGroup
300

 70
     1
 71
     1
  0
GROUP
  5
95D
102
{ACAD_REACTORS
330
D
102
}
330
D
100
AcDbGroup
300

 70
     1
 71
     1
  0
GROUP
  5
1B2
102
{ACAD_REACTORS
330
D
102
}
330
D
100
AcDbGroup
300

 70
     1
 71
     1
  0
GROUP
  5
1C3
102
{ACAD_REACTORS
330
D
102
}
330
D
100
AcDbGroup
300

 70
     1
 71
     1
  0
GROUP
  5
1D2
102
{ACAD_REACTORS
330
D
102
}
330
D
100
AcDbGroup
300

 70
     1
 71
     1
  0
GROUP
  5
46A
102
{ACAD_REACTORS
330
D
102
}
330
D
100
AcDbGroup
300

 70
     1
 71
     1
  0
LAYOUT
  5
1615
102
{ACAD_XDICTIONARY
360
2863
102
}
102
{ACAD_REACTORS
330
1612
102
}
330
1612
100
AcDbPlotSettings
  1

  2
\\VAKF11\Lexmark Optra E312 lex15
  4
A4
  6

 40
6.805083274841308
 41
5.535083293914794
 42
6.974411010742187
 43
7.14373779296875
 44
209.9733276367187
 45
296.9259948730469
 46
0.0
 47
0.0
 48
0.0
 49
0.0
140
0.0
141
0.0
142
1.0
143
1.0
 70
   690
 72
     0
 73
     0
 74
     5
  7
monochrome.ctb
 75
     0
147
1.0
148
0.0
149
0.0
100
AcDbLayout
  1
Layout1
 70
     1
 71
     1
 10
-0.2679166643638311
 20
-0.2179166651147557
 11
7.99874977802667
 21
11.47208313303669
 12
0.0
 22
0.0
 32
0.0
 14
1.000000000000000E+20
 24
1.000000000000000E+20
 34
1.000000000000000E+20
 15
-1.000000000000000E+20
 25
-1.000000000000000E+20
 35
-1.000000000000000E+20
146
0.0
 13
0.0
 23
0.0
 33
0.0
 16
1.0
 26
0.0
 36
0.0
 17
0.0
 27
1.0
 37
0.0
 76
     0
330
15
331
1DF
  0
LAYOUT
  5
1614
102
{ACAD_XDICTIONARY
360
2E4B
102
}
102
{ACAD_REACTORS
330
1612
102
}
330
1612
100
AcDbPlotSettings
  1

  2
\\VAKF11\Lexmark Optra E312 lex15
  4

  6

 40
0.0
 41
0.0
 42
0.0
 43
0.0
 44
0.0
 45
0.0
 46
0.0
 47
0.0
 48
0.0
 49
0.0
140
0.0
141
0.0
142
1.0
143
1.0
 70
  1712
 72
     0
 73
     0
 74
     0
  7

 75
     0
147
1.0
148
0.0
149
0.0
100
AcDbLayout
  1
Model
 70
     1
 71
     0
 10
0.0
 20
0.0
 11
12.0
 21
9.0
 12
0.0
 22
0.0
 32
0.0
 14
0.0
 24
0.0
 34
0.0
 15
0.0
 25
0.0
 35
0.0
146
0.0
 13
0.0
 23
0.0
 33
0.0
 16
1.0
 26
0.0
 36
0.0
 17
0.0
 27
1.0
 37
0.0
 76
     0
330
18
331
22C6
  0
MATERIAL
  5
22D1
102
{ACAD_XDICTIONARY
360
22D2
102
}
102
{ACAD_REACTORS
330
20DD
102
}
330
20DD
100
AcDbMaterial
  1
ByBlock
 72
     0
 43
0.0208333333333333
 43
0.0
 43
0.0
 43
0.0
 43
0.0
 43
0.0208333333333333
 43
0.0
 43
0.0
 43
0.0
 43
0.0
 43
1.0
 43
0.0
 43
0.0
 43
0.0
 43
0.0
 43
1.0
 77
     0
 47
0.0208333333333333
 47
0.0
 47
0.0
 47
0.0
 47
0.0
 47
0.0208333333333333
 47
0.0
 47
0.0
 47
0.0
 47
0.0
 47
1.0
 47
0.0
 47
0.0
 47
0.0
 47
0.0
 47
1.0
171
     0
 49
0.0208333333333333
 49
0.0
 49
0.0
 49
0.0
 49
0.0
 49
0.0208333333333333
 49
0.0
 49
0.0
 49
0.0
 49
0.0
 49
1.0
 49
0.0
 49
0.0
 49
0.0
 49
0.0
 49
1.0
175
     0
142
0.0208333333333333
142
0.0
142
0.0
142
0.0
142
0.0
142
0.0208333333333333
142
0.0
142
0.0
142
0.0
142
0.0
142
1.0
142
0.0
142
0.0
142
0.0
142
0.0
142
1.0
179
     0
144
0.0208333333333333
144
0.0
144
0.0
144
0.0
144
0.0
144
0.0208333333333333
144
0.0
144
0.0
144
0.0
144
0.0
144
1.0
144
0.0
144
0.0
144
0.0
144
0.0
144
1.0
147
0.0208333333333333
147
0.0
147
0.0
147
0.0
147
0.0
147
0.0208333333333333
147
0.0
147
0.0
147
0.0
147
0.0
147
1.0
147
0.0
147
0.0
147
0.0
147
0.0
147
1.0
  0
MATERIAL
  5
22C9
102
{ACAD_XDICTIONARY
360
22CA
102
}
102
{ACAD_REACTORS
330
20DD
102
}
330
20DD
100
AcDbMaterial
  1
ByLayer
 72
     0
 43
0.0208333333333333
 43
0.0
 43
0.0
 43
0.0
 43
0.0
 43
0.0208333333333333
 43
0.0
 43
0.0
 43
0.0
 43
0.0
 43
1.0
 43
0.0
 43
0.0
 43
0.0
 43
0.0
 43
1.0
 77
     0
 47
0.0208333333333333
 47
0.0
 47
0.0
 47
0.0
 47
0.0
 47
0.0208333333333333
 47
0.0
 47
0.0
 47
0.0
 47
0.0
 47
1.0
 47
0.0
 47
0.0
 47
0.0
 47
0.0
 47
1.0
171
     0
 49
0.0208333333333333
 49
0.0
 49
0.0
 49
0.0
 49
0.0
 49
0.0208333333333333
 49
0.0
 49
0.0
 49
0.0
 49
0.0
 49
1.0
 49
0.0
 49
0.0
 49
0.0
 49
0.0
 49
1.0
175
     0
142
0.0208333333333333
142
0.0
142
0.0
142
0.0
142
0.0
142
0.0208333333333333
142
0.0
142
0.0
142
0.0
142
0.0
142
1.0
142
0.0
142
0.0
142
0.0
142
0.0
142
1.0
179
     0
144
0.0208333333333333
144
0.0
144
0.0
144
0.0
144
0.0
144
0.0208333333333333
144
0.0
144
0.0
144
0.0
144
0.0
144
1.0
144
0.0
144
0.0
144
0.0
144
0.0
144
1.0
147
0.0208333333333333
147
0.0
147
0.0
147
0.0
147
0.0
147
0.0208333333333333
147
0.0
147
0.0
147
0.0
147
0.0
147
1.0
147
0.0
147
0.0
147
0.0
147
0.0
147
1.0
  0
MATERIAL
  5
22D9
102
{ACAD_XDICTIONARY
360
22DA
102
}
102
{ACAD_REACTORS
330
20DD
102
}
330
20DD
100
AcDbMaterial
  1
Global
 72
     0
 43
0.0208333333333333
 43
0.0
 43
0.0
 43
0.0
 43
0.0
 43
0.0208333333333333
 43
0.0
 43
0.0
 43
0.0
 43
0.0
 43
1.0
 43
0.0
 43
0.0
 43
0.0
 43
0.0
 43
1.0
 77
     0
 47
0.0208333333333333
 47
0.0
 47
0.0
 47
0.0
 47
0.0
 47
0.0208333333333333
 47
0.0
 47
0.0
 47
0.0
 47
0.0
 47
1.0
 47
0.0
 47
0.0
 47
0.0
 47
0.0
 47
1.0
171
     0
 49
0.0208333333333333
 49
0.0
 49
0.0
 49
0.0
 49
0.0
 49
0.0208333333333333
 49
0.0
 49
0.0
 49
0.0
 49
0.0
 49
1.0
 49
0.0
 49
0.0
 49
0.0
 49
0.0
 49
1.0
175
     0
142
0.0208333333333333
142
0.0
142
0.0
142
0.0
142
0.0
142
0.0208333333333333
142
0.0
142
0.0
142
0.0
142
0.0
142
1.0
142
0.0
142
0.0
142
0.0
142
0.0
142
1.0
179
     0
144
0.0208333333333333
144
0.0
144
0.0
144
0.0
144
0.0
144
0.0208333333333333
144
0.0
144
0.0
144
0.0
144
0.0
144
1.0
144
0.0
144
0.0
144
0.0
144
0.0
144
1.0
147
0.0208333333333333
147
0.0
147
0.0
147
0.0
147
0.0
147
0.0208333333333333
147
0.0
147
0.0
147
0.0
147
0.0
147
1.0
147
0.0
147
0.0
147
0.0
147
0.0
147
1.0
  0
MLEADERSTYLE
  5
2315
102
{ACAD_REACTORS
330
2314
102
}
330
2314
100
AcDbMLeaderStyle
170
     2
171
     1
172
     0
 90
        2
 40
0.0
 41
0.0
173
     1
 91
-1056964608
340
12
 92
       -2
290
     1
 42
0.09
291
     1
 43
0.36
  3
Standard
 44
0.18
300

342
F
174
     1
178
     6
175
     1
176
     0
 93
-1056964608
 45
0.18
292
     0
297
     0
 46
0.18
 94
-1056964608
 47
1.0
 49
1.0
140
1.0
293
     1
141
0.0
294
     1
177
     0
142
1.0
295
     0
296
     0
143
0.125
1001
ACAD_MLEADERVER
1070
     2
  0
MLINESTYLE
  5
1C
102
{ACAD_REACTORS
330
1B
102
}
330
1B
100
AcDbMlineStyle
  2
STANDARD
 70
     0
  3

 62
   256
 51
90.0
 52
90.0
 71
     2
 49
0.5
 62
   256
  6
BYLAYER
 49
-0.5
 62
   256
  6
BYLAYER
  0
ACDBPLACEHOLDER
  5
1611
102
{ACAD_REACTORS
330
1610
102
}
330
1610
  0
SCALE
  5
22F3
102
{ACAD_REACTORS
330
22F2
102
}
330
22F2
100
AcDbScale
 70
     0
300
1:1
140
1.0
141
1.0
290
     1
  0
SCALE
  5
22F4
102
{ACAD_REACTORS
330
22F2
102
}
330
22F2
100
AcDbScale
 70
     0
300
1:2
140
1.0
141
2.0
290
     0
  0
SCALE
  5
22F5
102
{ACAD_REACTORS
330
22F2
102
}
330
22F2
100
AcDbScale
 70
     0
300
1:4
140
1.0
141
4.0
290
     0
  0
SCALE
  5
22F6
102
{ACAD_REACTORS
330
22F2
102
}
330
22F2
100
AcDbScale
 70
     0
300
1:5
140
1.0
141
5.0
290
     0
  0
SCALE
  5
22F7
102
{ACAD_REACTORS
330
22F2
102
}
330
22F2
100
AcDbScale
 70
     0
300
1:8
140
1.0
141
8.0
290
     0
  0
SCALE
  5
22F8
102
{ACAD_REACTORS
330
22F2
102
}
330
22F2
100
AcDbScale
 70
     0
300
1:10
140
1.0
141
10.0
290
     0
  0
SCALE
  5
22F9
102
{ACAD_REACTORS
330
22F2
102
}
330
22F2
100
AcDbScale
 70
     0
300
1:16
140
1.0
141
16.0
290
     0
  0
SCALE
  5
22FA
102
{ACAD_REACTORS
330
22F2
102
}
330
22F2
100
AcDbScale
 70
     0
300
1:20
140
1.0
141
20.0
290
     0
  0
SCALE
  5
22FB
102
{ACAD_REACTORS
330
22F2
102
}
330
22F2
100
AcDbScale
 70
     0
300
1:30
140
1.0
141
30.0
290
     0
  0
SCALE
  5
22FC
102
{ACAD_REACTORS
330
22F2
102
}
330
22F2
100
AcDbScale
 70
     0
300
1:40
140
1.0
141
40.0
290
     0
  0
SCALE
  5
22FD
102
{ACAD_REACTORS
330
22F2
102
}
330
22F2
100
AcDbScale
 70
     0
300
1:50
140
1.0
141
50.0
290
     0
  0
SCALE
  5
22FE
102
{ACAD_REACTORS
330
22F2
102
}
330
22F2
100
AcDbScale
 70
     0
300
1:100
140
1.0
141
100.0
290
     0
  0
SCALE
  5
22FF
102
{ACAD_REACTORS
330
22F2
102
}
330
22F2
100
AcDbScale
 70
     0
300
2:1
140
2.0
141
1.0
290
     0
  0
SCALE
  5
2300
102
{ACAD_REACTORS
330
22F2
102
}
330
22F2
100
AcDbScale
 70
     0
300
4:1
140
4.0
141
1.0
290
     0
  0
SCALE
  5
2301
102
{ACAD_REACTORS
330
22F2
102
}
330
22F2
100
AcDbScale
 70
     0
300
8:1
140
8.0
141
1.0
290
     0
  0
SCALE
  5
2302
102
{ACAD_REACTORS
330
22F2
102
}
330
22F2
100
AcDbScale
 70
     0
300
10:1
140
10.0
141
1.0
290
     0
  0
SCALE
  5
2303
102
{ACAD_REACTORS
330
22F2
102
}
330
22F2
100
AcDbScale
 70
     0
300
100:1
140
100.0
141
1.0
290
     0
  0
SCALE
  5
2304
102
{ACAD_REACTORS
330
22F2
102
}
330
22F2
100
AcDbScale
 70
     0
300
1/128" = 1'-0"
140
0.0078125
141
12.0
290
     0
  0
SCALE
  5
2305
102
{ACAD_REACTORS
330
22F2
102
}
330
22F2
100
AcDbScale
 70
     0
300
1/64" = 1'-0"
140
0.015625
141
12.0
290
     0
  0
SCALE
  5
2306
102
{ACAD_REACTORS
330
22F2
102
}
330
22F2
100
AcDbScale
 70
     0
300
1/32" = 1'-0"
140
0.03125
141
12.0
290
     0
  0
SCALE
  5
2307
102
{ACAD_REACTORS
330
22F2
102
}
330
22F2
100
AcDbScale
 70
     0
300
1/16" = 1'-0"
140
0.0625
141
12.0
290
     0
  0
SCALE
  5
2308
102
{ACAD_REACTORS
330
22F2
102
}
330
22F2
100
AcDbScale
 70
     0
300
3/32" = 1'-0"
140
0.09375
141
12.0
290
     0
  0
SCALE
  5
2309
102
{ACAD_REACTORS
330
22F2
102
}
330
22F2
100
AcDbScale
 70
     0
300
1/8" = 1'-0"
140
0.125
141
12.0
290
     0
  0
SCALE
  5
230A
102
{ACAD_REACTORS
330
22F2
102
}
330
22F2
100
AcDbScale
 70
     0
300
3/16" = 1'-0"
140
0.1875
141
12.0
290
     0
  0
SCALE
  5
230B
102
{ACAD_REACTORS
330
22F2
102
}
330
22F2
100
AcDbScale
 70
     0
300
1/4" = 1'-0"
140
0.25
141
12.0
290
     0
  0
SCALE
  5
230C
102
{ACAD_REACTORS
330
22F2
102
}
330
22F2
100
AcDbScale
 70
     0
300
3/8" = 1'-0"
140
0.375
141
12.0
290
     0
  0
SCALE
  5
230D
102
{ACAD_REACTORS
330
22F2
102
}
330
22F2
100
AcDbScale
 70
     0
300
1/2" = 1'-0"
140
0.5
141
12.0
290
     0
  0
SCALE
  5
230E
102
{ACAD_REACTORS
330
22F2
102
}
330
22F2
100
AcDbScale
 70
     0
300
3/4" = 1'-0"
140
0.75
141
12.0
290
     0
  0
SCALE
  5
230F
102
{ACAD_REACTORS
330
22F2
102
}
330
22F2
100
AcDbScale
 70
     0
300
1" = 1'-0"
140
1.0
141
12.0
290
     0
  0
SCALE
  5
2310
102
{ACAD_REACTORS
330
22F2
102
}
330
22F2
100
AcDbScale
 70
     0
300
1-1/2" = 1'-0"
140
1.5
141
12.0
290
     0
  0
SCALE
  5
2311
102
{ACAD_REACTORS
330
22F2
102
}
330
22F2
100
AcDbScale
 70
     0
300
3" = 1'-0"
140
3.0
141
12.0
290
     0
  0
SCALE
  5
2312
102
{ACAD_REACTORS
330
22F2
102
}
330
22F2
100
AcDbScale
 70
     0
300
6" = 1'-0"
140
6.0
141
12.0
290
     0
  0
SCALE
  5
2313
102
{ACAD_REACTORS
330
22F2
102
}
330
22F2
100
AcDbScale
 70
     0
300
1'-0" = 1'-0"
140
12.0
141
12.0
290
     0
  0
TABLESTYLE
  5
2137
102
{ACAD_XDICTIONARY
360
24B6
102
}
102
{ACAD_REACTORS
330
2136
102
}
330
2136
100
AcDbTableStyle
  3
Standard
 70
     0
 71
     0
 40
0.06
 41
0.06
280
     0
281
     0
  7
STANDARD
140
0.18
170
     2
 62
     0
 63
     7
283
     0
274
    -2
284
     1
 64
     0
275
    -2
285
     1
 65
     0
276
    -2
286
     1
 66
     0
277
    -2
287
     1
 67
     0
278
    -2
288
     1
 68
     0
279
    -2
289
     1
 69
     0
  7
STANDARD
140
0.25
170
     5
 62
     0
 63
     7
283
     0
274
    -2
284
     1
 64
     0
275
    -2
285
     1
 65
     0
276
    -2
286
     1
 66
     0
277
    -2
287
     1
 67
     0
278
    -2
288
     1
 68
     0
279
    -2
289
     1
 69
     0
  7
STANDARD
140
0.18
170
     5
 62
     0
 63
     7
283
     0
274
    -2
284
     1
 64
     0
275
    -2
285
     1
 65
     0
276
    -2
286
     1
 66
     0
277
    -2
287
     1
 67
     0
278
    -2
288
     1
 68
     0
279
    -2
289
     1
 69
     0
  0
VISUALSTYLE
  5
22E7
102
{ACAD_REACTORS
330
22E1
102
}
330
22E1
100
AcDbVisualStyle
  2
2dWireframe
 70
     4
 71
     0
 72
     2
 73
     0
 90
        0
 40
-0.6
 41
-30.0
 62
     5
 63
     7
 74
     1
 91
        4
 64
     7
 65
   257
 75
     1
175
     1
 42
1.0
 92
        0
 66
   257
 43
1.0
 76
     1
 77
     6
 78
     2
 67
     7
 79
     5
170
     0
171
     0
290
     0
174
     0
 93
        1
 44
0.0
173
     0
291
     0
 45
0.0
1001
ACAD
1000
AcDbSavedByObjectVersion
1070
     0
  0
VISUALSTYLE
  5
22E9
102
{ACAD_REACTORS
330
22E1
102
}
330
22E1
100
AcDbVisualStyle
  2
3D Hidden
 70
     6
 71
     1
 72
     2
 73
     2
 90
        0
 40
-0.6
 41
-30.0
 62
     5
 63
     7
 74
     2
 91
        2
 64
     7
 65
   257
 75
     2
175
     1
 42
40.0
 92
        0
 66
   257
 43
1.0
 76
     1
 77
     6
 78
     2
 67
     7
 79
     3
170
     0
171
     0
290
     0
174
     0
 93
        1
 44
0.0
173
     0
291
     0
 45
0.0
1001
ACAD
1000
AcDbSavedByObjectVersion
1070
     0
  0
VISUALSTYLE
  5
22E8
102
{ACAD_REACTORS
330
22E1
102
}
330
22E1
100
AcDbVisualStyle
  2
3dWireframe
 70
     5
 71
     0
 72
     2
 73
     0
 90
        0
 40
-0.6
 41
-30.0
 62
     5
 63
     7
 74
     1
 91
        4
 64
     7
 65
   257
 75
     1
175
     1
 42
1.0
 92
        0
 66
   257
 43
1.0
 76
     1
 77
     6
 78
     2
 67
     7
 79
     5
170
     0
171
     0
290
     0
174
     0
 93
        1
 44
0.0
173
     0
291
     0
 45
0.0
1001
ACAD
1000
AcDbSavedByObjectVersion
1070
     0
  0
VISUALSTYLE
  5
22E6
102
{ACAD_REACTORS
330
22E1
102
}
330
22E1
100
AcDbVisualStyle
  2
Basic
 70
     7
 71
     1
 72
     0
 73
     1
 90
        0
 40
-0.6
 41
-30.0
 62
     5
 63
     7
 74
     0
 91
        4
 64
     7
 65
   257
 75
     1
175
     1
 42
1.0
 92
        8
 66
     7
 43
1.0
 76
     1
 77
     6
 78
     2
 67
     7
 79
     5
170
     0
171
     0
290
     0
174
     0
 93
        1
 44
0.0
173
     0
291
     1
 45
0.0
1001
ACAD
1000
AcDbSavedByObjectVersion
1070
     0
  0
VISUALSTYLE
  5
22ED
102
{ACAD_REACTORS
330
22E1
102
}
330
22E1
100
AcDbVisualStyle
  2
Brighten
 70
    12
 71
     2
 72
     2
 73
     0
 90
        0
 40
-0.6
 41
-30.0
 62
     5
 63
     7
 74
     1
 91
        4
 64
     7
 65
   257
 75
     1
175
     1
 42
1.0
 92
        8
 66
     7
 43
1.0
 76
     1
 77
     6
 78
     2
 67
     7
 79
     5
170
     0
171
     0
290
     0
174
     0
 93
        1
 44
50.0
173
     0
291
     1
 45
0.0
1001
ACAD
1000
AcDbSavedByObjectVersion
1070
     0
  0
VISUALSTYLE
  5
22F1
102
{ACAD_REACTORS
330
22E1
102
}
330
22E1
100
AcDbVisualStyle
  2
ColorChange
 70
    16
 71
     2
 72
     2
 73
     3
 90
        0
 40
-0.6
 41
-30.0
 62
     5
 63
     8
 74
     1
 91
        4
 64
     7
 65
   257
 75
     1
175
     1
 42
1.0
 92
        8
 66
     8
 43
1.0
 76
     1
 77
     6
 78
     2
 67
     7
 79
     5
170
     0
171
     0
290
     0
174
     0
 93
        1
 44
0.0
173
     0
291
     1
 45
0.0
1001
ACAD
1000
AcDbSavedByObjectVersion
1070
     0
  0
VISUALSTYLE
  5
22EA
102
{ACAD_REACTORS
330
22E1
102
}
330
22E1
100
AcDbVisualStyle
  2
Conceptual
 70
     9
 71
     3
 72
     2
 73
     0
 90
        0
 40
-0.6
 41
-30.0
 62
     5
 63
     7
 74
     2
 91
        2
 64
     7
 65
   257
 75
     1
175
     1
 42
40.0
 92
        8
 66
     7
 43
1.0
 76
     1
 77
     6
 78
     2
 67
     7
 79
     3
170
     0
171
     0
290
     0
174
     0
 93
        1
 44
0.0
173
     0
291
     0
 45
0.0
1001
ACAD
1000
AcDbSavedByObjectVersion
1070
     0
  0
VISUALSTYLE
  5
22EC
102
{ACAD_REACTORS
330
22E1
102
}
330
22E1
100
AcDbVisualStyle
  2
Dim
 70
    11
 71
     2
 72
     2
 73
     0
 90
        0
 40
-0.6
 41
-30.0
 62
     5
 63
     7
 74
     1
 91
        4
 64
     7
 65
   257
 75
     1
175
     1
 42
1.0
 92
        8
 66
     7
 43
1.0
 76
     1
 77
     6
 78
     2
 67
     7
 79
     5
170
     0
171
     0
290
     0
174
     0
 93
        1
 44
-50.0
173
     0
291
     1
 45
0.0
1001
ACAD
1000
AcDbSavedByObjectVersion
1070
     0
  0
VISUALSTYLE
  5
22F0
102
{ACAD_REACTORS
330
22E1
102
}
330
22E1
100
AcDbVisualStyle
  2
Facepattern
 70
    15
 71
     2
 72
     2
 73
     0
 90
        0
 40
-0.6
 41
-30.0
 62
     5
 63
     7
 74
     1
 91
        4
 64
     7
 65
   257
 75
     1
175
     1
 42
1.0
 92
        8
 66
     7
 43
1.0
 76
     1
 77
     6
 78
     2
 67
     7
 79
     5
170
     0
171
     0
290
     0
174
     0
 93
        1
 44
0.0
173
     0
291
     1
 45
0.0
1001
ACAD
1000
AcDbSavedByObjectVersion
1070
     0
  0
VISUALSTYLE
  5
22E2
102
{ACAD_REACTORS
330
22E1
102
}
330
22E1
100
AcDbVisualStyle
  2
Flat
 70
     0
 71
     2
 72
     1
 73
     1
 90
        2
 40
-0.6
 41
30.0
 62
     5
 63
     7
 74
     0
 91
        4
 64
     7
 65
   257
 75
     1
175
     1
 42
1.0
 92
        8
 66
     7
 43
1.0
 76
     1
 77
     6
 78
     2
 67
     7
 79
     5
170
     0
171
     0
290
     0
174
     0
 93
       13
 44
0.0
173
     0
291
     1
 45
0.0
1001
ACAD
1000
AcDbSavedByObjectVersion
1070
     0
  0
VISUALSTYLE
  5
22E3
102
{ACAD_REACTORS
330
22E1
102
}
330
22E1
100
AcDbVisualStyle
  2
FlatWithEdges
 70
     1
 71
     2
 72
     1
 73
     1
 90
        2
 40
-0.6
 41
30.0
 62
     5
 63
     7
 74
     1
 91
        4
 64
     7
 65
   257
 75
     1
175
     1
 42
1.0
 92
        0
 66
   257
 43
1.0
 76
     1
 77
     6
 78
     2
 67
     7
 79
     5
170
     0
171
     0
290
     0
174
     0
 93
       13
 44
0.0
173
     0
291
     1
 45
0.0
1001
ACAD
1000
AcDbSavedByObjectVersion
1070
     0
  0
VISUALSTYLE
  5
22E4
102
{ACAD_REACTORS
330
22E1
102
}
330
22E1
100
AcDbVisualStyle
  2
Gouraud
 70
     2
 71
     2
 72
     2
 73
     1
 90
        2
 40
-0.6
 41
30.0
 62
     5
 63
     7
 74
     0
 91
        4
 64
     7
 65
   257
 75
     1
175
     1
 42
1.0
 92
        0
 66
     7
 43
1.0
 76
     1
 77
     6
 78
     2
 67
     7
 79
     5
170
     0
171
     0
290
     0
174
     0
 93
       13
 44
0.0
173
     0
291
     1
 45
0.0
1001
ACAD
1000
AcDbSavedByObjectVersion
1070
     0
  0
VISUALSTYLE
  5
22E5
102
{ACAD_REACTORS
330
22E1
102
}
330
22E1
100
AcDbVisualStyle
  2
GouraudWithEdges
 70
     3
 71
     2
 72
     2
 73
     1
 90
        2
 40
-0.6
 41
30.0
 62
     5
 63
     7
 74
     1
 91
        4
 64
     7
 65
   257
 75
     1
175
     1
 42
1.0
 92
        0
 66
   257
 43
1.0
 76
     1
 77
     6
 78
     2
 67
     7
 79
     5
170
     0
171
     0
290
     0
174
     0
 93
       13
 44
0.0
173
     0
291
     1
 45
0.0
1001
ACAD
1000
AcDbSavedByObjectVersion
1070
     0
  0
VISUALSTYLE
  5
22EF
102
{ACAD_REACTORS
330
22E1
102
}
330
22E1
100
AcDbVisualStyle
  2
Linepattern
 70
    14
 71
     2
 72
     2
 73
     0
 90
        0
 40
-0.6
 41
-30.0
 62
     5
 63
     7
 74
     1
 91
        4
 64
     7
 65
   257
 75
     7
175
     7
 42
1.0
 92
        8
 66
     7
 43
1.0
 76
     1
 77
     6
 78
     2
 67
     7
 79
     5
170
     0
171
     0
290
     0
174
     0
 93
        1
 44
0.0
173
     0
291
     1
 45
0.0
1001
ACAD
1000
AcDbSavedByObjectVersion
1070
     0
  0
VISUALSTYLE
  5
22EB
102
{ACAD_REACTORS
330
22E1
102
}
330
22E1
100
AcDbVisualStyle
  2
Realistic
 70
     8
 71
     2
 72
     2
 73
     0
 90
        0
 40
-0.6
 41
-30.0
 62
     5
 63
     7
 74
     1
 91
        0
 64
     7
 65
   257
 75
     1
175
     1
 42
1.0
 92
        8
 66
     8
 43
1.0
 76
     1
 77
     6
 78
     2
 67
     7
 79
     5
170
     0
171
     0
290
     0
174
     0
 93
       13
 44
0.0
173
     0
291
     0
 45
0.0
1001
ACAD
1000
AcDbSavedByObjectVersion
1070
     0
  0
VISUALSTYLE
  5
22EE
102
{ACAD_REACTORS
330
22E1
102
}
330
22E1
100
AcDbVisualStyle
  2
Thicken
 70
    13
 71
     2
 72
     2
 73
     0
 90
        0
 40
-0.6
 41
-30.0
 62
     5
 63
     7
 74
     1
 91
        4
 64
     7
 65
   257
 75
     1
175
     1
 42
1.0
 92
       12
 66
     7
 43
1.0
 76
     1
 77
     6
 78
     2
 67
     7
 79
     5
170
     0
171
     0
290
     0
174
     0
 93
        1
 44
0.0
173
     0
291
     1
 45
0.0
1001
ACAD
1000
AcDbSavedByObjectVersion
1070
     0
  0
DICTIONARYVAR
  5
24C2
102
{ACAD_REACTORS
330
1109
102
}
330
1109
100
DictionaryVariables
280
     0
  1
1:1
  0
DICTIONARYVAR
  5
24C1
102
{ACAD_REACTORS
330
1109
102
}
330
1109
100
DictionaryVariables
280
     0
  1
STANDARD
  0
DICTIONARYVAR
  5
22C7
102
{ACAD_REACTORS
330
1109
102
}
330
1109
100
DictionaryVariables
280
     0
  1
STANDARD
  0
DICTIONARYVAR
  5
210C
102
{ACAD_REACTORS
330
1109
102
}
330
1109
100
DictionaryVariables
280
     0
  1
1
  0
DICTIONARYVAR
  5
2E46
102
{ACAD_REACTORS
330
1109
102
}
330
1109
100
DictionaryVariables
280
     0
  1
0
  0
DICTIONARYVAR
  5
210D
102
{ACAD_REACTORS
330
1109
102
}
330
1109
100
DictionaryVariables
280
     0
  1

  0
DICTIONARYVAR
  5
110A
102
{ACAD_REACTORS
330
1109
102
}
330
1109
100
DictionaryVariables
280
     0
  1
96
  0
DICTIONARY
  5
2863
330
1615
100
AcDbDictionary
280
     1
281
     1
  3
ACAD_XREC_ROUNDTRIP
360
2E4D
  3
ADSK_XREC_LAYOUTTHUMBNAIL
360
2864
  0
DICTIONARY
  5
2E4B
330
1614
100
AcDbDictionary
280
     1
281
     1
  3
ACAD_XREC_ROUNDTRIP
360
2E4C
  0
DICTIONARY
  5
22D2
330
22D1
100
AcDbDictionary
280
     1
281
     1
  3
ACAD_XREC_ROUNDTRIP
360
2E50
  3
BUMPTILE
360
22D4
  3
DIFFUSETILE
360
22D3
  3
OPACITYTILE
360
22D7
  3
REFLECTIONTILE
360
22D6
  3
REFRACTIONTILE
360
22D8
  3
SPECULARTILE
360
22D5
  0
DICTIONARY
  5
22CA
330
22C9
100
AcDbDictionary
280
     1
281
     1
  3
ACAD_XREC_ROUNDTRIP
360
2E4F
  3
BUMPTILE
360
22CC
  3
DIFFUSETILE
360
22CB
  3
OPACITYTILE
360
22CF
  3
REFLECTIONTILE
360
22CE
  3
REFRACTIONTILE
360
22D0
  3
SPECULARTILE
360
22CD
  0
DICTIONARY
  5
22DA
330
22D9
100
AcDbDictionary
280
     1
281
     1
  3
ACAD_XREC_ROUNDTRIP
360
2E51
  3
BUMPTILE
360
22DC
  3
DIFFUSETILE
360
22DB
  3
OPACITYTILE
360
22DF
  3
REFLECTIONTILE
360
22DE
  3
REFRACTIONTILE
360
22E0
  3
SPECULARTILE
360
22DD
  0
DICTIONARY
  5
24B6
330
2137
100
AcDbDictionary
280
     1
281
     1
  3
ACAD_ROUNDTRIP_2008_TABLESTYLE_CELLSTYLEMAP
360
2E47
  3
ACAD_XREC_ROUNDTRIP
360
2E4E
  0
XRECORD
  5
2E4D
102
{ACAD_REACTORS
330
2863
102
}
330
2863
100
AcDbXrecord
280
     1
102
SHADEPLOT
 70
     0
102
SHADEPLOTRESLEVEL
 70
     2
102
SHADEPLOTCUSTOMDPI
 70
   300
  0
XRECORD
  5
2864
102
{ACAD_REACTORS
330
2863
102
}
330
2863
100
AcDbXrecord
280
     1
310
28000000630000008C0000000100080000000000B036000000000000000000000001000000000000FFFFFF0000000000FFFFFF000000000000000000000000000000000000000000000000000000000000000000330000006600000099000000CC000000FF00000000330000333300006633000099330000CC330000FF3300
310
0000660000336600006666000099660000CC660000FF66000000990000339900006699000099990000CC990000FF99000000CC000033CC000066CC000099CC0000CCCC0000FFCC000000FF000033FF000066FF000099FF0000CCFF0000FFFF000000003300330033006600330099003300CC003300FF003300003333003333
310
33006633330099333300CC333300FF33330000663300336633006666330099663300CC663300FF66330000993300339933006699330099993300CC993300FF99330000CC330033CC330066CC330099CC3300CCCC3300FFCC330000FF330033FF330066FF330099FF3300CCFF3300FFFF330000006600330066006600660099
310
006600CC006600FF00660000336600333366006633660099336600CC336600FF33660000666600336666006666660099666600CC666600FF66660000996600339966006699660099996600CC996600FF99660000CC660033CC660066CC660099CC6600CCCC6600FFCC660000FF660033FF660066FF660099FF6600CCFF6600
310
FFFF660000009900330099006600990099009900CC009900FF00990000339900333399006633990099339900CC339900FF33990000669900336699006666990099669900CC669900FF66990000999900339999006699990099999900CC999900FF99990000CC990033CC990066CC990099CC9900CCCC9900FFCC990000FF99
310
0033FF990066FF990099FF9900CCFF9900FFFF99000000CC003300CC006600CC009900CC00CC00CC00FF00CC000033CC003333CC006633CC009933CC00CC33CC00FF33CC000066CC003366CC006666CC009966CC00CC66CC00FF66CC000099CC003399CC006699CC009999CC00CC99CC00FF99CC0000CCCC0033CCCC0066CC
310
CC0099CCCC00CCCCCC00FFCCCC0000FFCC0033FFCC0066FFCC0099FFCC00CCFFCC00FFFFCC000000FF003300FF006600FF009900FF00CC00FF00FF00FF000033FF003333FF006633FF009933FF00CC33FF00FF33FF000066FF003366FF006666FF009966FF00CC66FF00FF66FF000099FF003399FF006699FF009999FF00CC
310
99FF00FF99FF0000CCFF0033CCFF0066CCFF0099CCFF00CCCCFF00FFCCFF0000FFFF0033FFFF0066FFFF0099FFFF00CCFFFF00FFFFFF00000000000D0D0D001A1A1A00282828003535350043434300505050005D5D5D006B6B6B00787878008686860093939300A1A1A100AEAEAE00BBBBBB00C9C9C900D6D6D600E4E4E400
310
F1F1F100FFFFFF0000000000000000000000000000000000000000000000000000000000000000000000000000000000E2E2E2E2E2E2E2E2E2E2E2E2E2E2E2E2E2E2E2E2E2E2E2E2E2E2E2E2E2E2E2E2E2E2E2E2E2E2E2E2E2E2E2E2E2E2E2E2E2E2E2E2E2E2E2E2E2E2E2E2E2E2E2E2E2E2E2E2E2E2E2E2E2E2E2E2E2E2E2
310
E2E2E2E2E2E2E2E2E2E2E2E2E2E2E2E2E2E2E2E200E2F5F5F5F5F5F5F5F5F5F5F5F5F5F5F5F5F5F5F5F5F5F5F5F5F5F5F5F5F5F5F5F5F5F5F5F5F5F5F5F5F5F5F5F5F5F5F5F5F5F5F5F5F5F5F5F5F5F5F5F5F5F5F5F5F5F5F5F5F5F5F5F5F5F5F5F5F5F5F5F5F5F5F5F5F5F5F5F5F5F5F5F5F5F5F5F5F5F500E2F5F5F5F5F5
310
F5F5F5F5F5F5F5F5F5F5F5F5F5F5F5F5F5F5F5F5F5F5F5F5F5F5F5F5F5F5F5F5F5F5F5F5F5F5F5F5F5F5F5F5F5F5F5F5F5F5F5F5F5F5F5F5F5F5F5F5F5F5F5F5F5F5F5F5F5F5F5F5F5F5F5F5F5F5F5F5F5F5F5F5F5F5F5F5F5F5F5F5F500E2F5F5F5E2E2E2E2E2E2E2E2F5F5F5F5F5F5F5F5E2E2E2E2E2E2E2E2E2E2E2E2E2
310
E2E2F5F5F5F5F5F5F5F5E2E2E2E2E2E2E2E2E2E2E2E2E2E2F5F5F5F5F5F5F5F5E2E2E2E2E2E2E2E2E2E2E2E2E2E2E2F5F5F5F5F5F5F5F5E2E2E2E2E2E2E2E2F5F5F500E2F5F5F5E2F5F5F5F5F5F5F5F5F5F5F5F5F5F5F5F5F5F5F5F5F5F5F5F5F5F5F5F5F5F5F5F5F5F5F5F5F5F5F5F5F5F5F5F5F5F5F5F5F5F5F5F5F5F5F5
310
F5F5F5F5F5F5F5F5F5F5F5F5F5F5F5F5F5F5F5F5F5F5F5F5F5F5F5F5F5F5F5F5F5F5F5E2F5F5F500E2F5F5F5E2F5F5F5F5F5F5F5F5F5F5F5F5F5F5F5F5F5F5F5F5F5F5F5F5F5F5F5F5F5F5F5F5F5F5F5F5F5F5F5F5F5F5F5F5F5F5F5F5F5F5F5F5F5F5F5F5F5F5F5F5F5F5F5F5F5F5F5F5F5F5F5F5F5F5F5F5F5F5F5F5F5F5
310
F5F5F5F5F5F5F5F5E2F5F5F500E2F5F5F5E2F5F5F5F5F5F5F5F5F5F5F5F5F5F5F5F5F5F5F5F5F5F5F5F5F5F5F5F5F5F5F5F5F5F5F5F5F5F5F5F5F5F5F5F5F5F5F5F5F5F5F5F5F5F5F5F5F5F5F5F5F5F5F5F5F5F5F5F5F5F5F5F5F5F5F5F5F5F5F5F5F5F5F5F5F5F5F5F5F5F5E2F5F5F500E2F5F5F5E2F5F5F5F5F5F5F5F5F5
310
F5F5F5F5F5F5F5F5F5F5F5F5F5F5F5F5F5F5F5F5F5F5F5F5F5F5F5F5F5F5F5F5F5F5F5F5F5F5F5F5F5F5F5F5F5F5F5F5F5F5F5F5F5F5F5F5F5F5F5F5F5F5F5F5F5F5F5F5F5F5F5F5F5F5F5F5F5F5F5F5F5E2F5F5F500E2F5F5F5E2F5F5F5F5F5F5F5F5F5F5F5F5F5F5F5F5F5F5F5F5F5F5F5F5F5F5F5F5F5F5F5F5F5F5F5F5
310
F5F5F5F5F5F5F5F5F5F5F5F5F5F5F5F5F5F5F5F5F5F5F5F5F5F5F5F5F5F5F5F5F5F5F5F5F5F5F5F5F5F5F5F5F5F5F5F5F5F5F5F5F5F5E2F5F5F500E2F5F5F5E2F5F5F5F5F5F5F5F5F5F5F5F5F5F5F5F5F5F5F5F5F5F5F5F5F5F5F5F5F5F5F5F5F5F5F5F5F5F5F5F5F5F5F5F5F5F5F5F5F5F5F5F5F5F5F5F5F5F5F5F5F5F5F5
310
F5F5F5F5F5F5F5F5F5F5F5F5F5F5F5F5F5F5F5F5F5F5F5F5F5F5F5E2F5F5F500E2F5F5F5E2F5F5F5F5F5F5F5F5F5F5F5F5F5F5F5F5F5F5F5F5F5F5F5F5F5F5F5F5F5F5F5F5F5F5F5F5F5F5F5F5F5F5F5F5F5F5F5F5F5F5F5F5F5F5F5F5F5F5F5F5F5F5F5F5F5F5F5F5F5F5F5F5F5F5F5F5F5F5F5F5F5F5F5F5F5F5F5F5F5F5
310
E2F5F5F500E2F5F5F5E2F5F5F5F5F5F5F5F5F5F5F5F5F5F5F5F5F5F5F5F5F5F5F5F5F5F5F5F5F5F5F5F5F5F5F5F5F5F5F5F5F5F5F5F5F5F5F5F5F5F5F5F5F5F5F5F5F5F5F5F5F5F5F5F5F5F5F5F5F5F5F5F5F5F5F5F5F5F5F5F5F5F5F5F5F5F5F5F5F5F5E2F5F5F500E2F5F5F5F5F5F5F5F5F5F5F5F5F5F5F5F5F5F5F5F5F5
310
F5F5F5F5F5F5F5F5F5F5F5F5F5F5F5F5F5F5F5F5F5F5F5F5F5F5F5F5F5F5F5F5F5F5F5F5F5F5F5F5F5F5F5F5F5F5F5F5F5F5F5F5F5F5F5F5F5F5F5F5F5F5F5F5F5F5F5F5F5F5F5F5F5F5F5F5F500E2F5F5F5F5F5F5F5F5F5F5F5F5F5F5F5F5F5F5F5F5F5F5F5F5F5F5F5F5F5F5F5F5F5F5F5F5F5F5F5F5F5F5F5F5F5F5F5F5
310
F5F5F5F5F5F5F5F5F5F5F5F5F5F5F5F5F5F5F5F5F5F5F5F5F5F5F5F5F5F5F5F5F5F5F5F5F5F5F5F5F5F5F5F5F5F5F5F5F5F500E2F5F5F5F5F5F5F5F5F5F5F5F5F5F5F5F5F5F5F5F5F5F5F5F5F5F5F5F5F5F5F5F5F5F5F5F5F5F5F5F5F5F5F5F5F5F5F5F5F5F5F5F5F5F5F5F5F5F5F5F5F5F5F5F5F5F5F5F5F5F5F5F5F5F5F5
310
F5F5F5F5F5F5F5F5F5F5F5F5F5F5F5F5F5F5F5F5F5F5F500E2F5F5F5F5F5F5F5F5F5F5F5F5F5F5F5F5F5F5F5F5F5F5F5F5F5F5F5F5F5F5F5F5F5F5F5F5F5F5F5F5F5F5F5F5F5F5F5F5F5F5F5F5F5F5F5F5F5F5F5F5F5F5F5F5F5F5F5F5F5F5F5F5F5F5F5F5F5F5F5F5F5F5F5F5F5F5F5F5F5F5F5F5F5F5F5F5F5F500E2F5F5
310
F5F5F5F5F5F5F5F5F5F5F5F5F5F5F5F5F5F5F5F5F5F5F5F5F5F5F5F5F5F5F5F5F5F5F5F5F5F5F5F5F5F5F5F5F5F5F5F5F5F5F5F5F5F5F5F5F5F5F5F5F5F5F5F5F5F5F5F5F5F5F5F5F5F5F5F5F5F5F5F5F5F5F5F5F5F5F5F5F5F5F5F5F5F5F5F500E2F5F5F5F5F5F5F5F5F5F5F5F5F5F5F5F5F5F5F5F5F5F5F5F5F5F5F5F5F5
310
F5F5F5F5F5F5F5F5F5F5F5F5F5F5F5F5F5F5F5F5F5F5F5F5F5F5F5F5F5F5F5F5F5F5F5F5F5F5F5F5F5F5F5F5F5F5F5F5F5F5F5F5F5F5F5F5F5F5F5F5F5F5F5F5F5F5F5F5F500E2F5F5F5F5F5F5F5F5F5F5F5F5F5F5F5F5F5F5F5F5F5F5F5F5F5F5F5F5F5F5F5F5F5F5F5F5F5F5F5F5F5F5F5F5F5F5F5F5F5F5F5F5F5F5F5F5
310
F5F5F5F5F5F5F5F5F5F5F5F5F5F5F5F5F5F5F5F5F5F5F5F5F5F5F5F5F5F5F5F5F5F5F5F5F5F5F5F5F5F500E2F5F5F5F5F5F5F5F5F5F5F5F5F5F5F5F5F5F5F5F5F5F5F5F5F5F5F5F5F5F5F5F5F5F5F5F5F5F5F5F5F5F5F5F5F5F5F5F5F5F5F5F5F5F5F5F5F5F5F5F5F5F5F5F5F5F5F5F5F5F5F5F5F5F5F5F5F5F5F5F5F5F5F5
310
F5F5F5F5F5F5F5F5F5F5F5F5F5F5F500E2F5F5F5F5F5F5F5F5F5F5F5F5F5F5F5F5F5F5F5F5F5F5F5F5F5F5F5F5F5F5F5F5F5F5F5F5F5F5F5F5F5F5F5F5F5F5F5F5F5F5F5F5F5F5F5F5F5F5F5F5F5F5F5F5F5F5F5F5F5F5F5F5F5F5F5F5F5F5F5F5F5F5F5F5F5F5F5F5F5F5F5F5F5F5F5F5F5F500E2F5F5F5F5F5F5F5F5F5F5
310
F5F5F5F5F5F5F5F5F5F5F5F5F5F5F5F5F5F5F5F5F5F5F5F5F5F5F5F5F5F5F5F5F5F5F5F5F5F5F5F5F5F5F5F5F5F5F5F5F5F5F5F5F5F5F5F5F5F5F5F5F5F5F5F5F5F5F5F5F5F5F5F5F5F5F5F5F5F5F5F5F5F5F5F5F5F5F5F500E2F5F5F5E2F5F5F5F5F5F5F5F5F5F5F5F5F5F5F5F5F5F5F5F5F5F5F5F5F5F5F5F5F5F5F5F5F5
310
F5F5F5F5F5F5F5F5F5F5F5F5F5F5F5F5F5F5F5F5F5F5F5F5F5F5F5F5F5F5F5F5F5F5F5F5F5F5F5F5F5F5F5F5F5F5F5F5F5F5F5F5F5F5F5F5F5E2F5F5F500E2F5F5F5E2F5F5F5F5F5F5F5F5F5F5F5F5F5F5F5F5F5F5F5F5F5F5F5F5F5F5F5F5F5F5F5F5F5F5F5F5F5F5F5F5F5F5F5F5F5F5F5F5F5F5F5F5F5F5F5F5F5F5F5F5
310
F5F5F5F5F5F5F5F5F5F5F5F5F5F5F5F5F5F5F5F5F5F5F5F5F5F5F5F5F5F5E2F5F5F500E2F5F5F5E2F5F5F5F5F5F5F5F5F5F5F5F5F5F5F5F5F5F5F5F5F5F5F5F5F5F5F5F5F5F5F5F5F5F5F5F5F5F5F5F5F5F5F5F5F5F5F5F5F5F5F5F5F5F5F5F5F5F5F5F5F5F5F5F5F5F5F5F5F5F5F5F5F5F5F5F5F5F5F5F5F5F5F5F5F5F5F5
310
F5F5F5E2F5F5F500E2F5F5F5E2F5F5F5F5F5F5F5F5F5F5F5F5F5F5F5F5F5F5F5F5F5F5F5F5F5F5F5F5F5F5F5F5F5F5F5F5F5F5F5F5F5F5F5F5F5F5F5F5F5F5F5F5F5F5F5F5F5F5F5F5F5F5F5F5F5F5F5F5F5F5F5F5F5F5F5F5F5F5F5F5F5F5F5F5F5F5F5F5F5F5E2F5F5F500E2F5F5F5E2F5F5F5F5F5F5F5F5F5F5F5F5F5F5
310
F5F5F5F5F5F5F5F5F5F5F5F5F5F5F5F5F5F5F5F5F5F5F5F5F5F5F5F5F5F5F5F5F5F5F5F5F5F5F5F5F5F5F5F5F5F5F5F5F5F5F5F5F5F5F5F5F5F5F5F5F5F5F5F5F5F5F5F5F5F5F5F5F5F5F5F5E2F5F5F500E2F5F5F5E2F5F5F5F5F5F5F5F5F5F5F5F5F5F5F5F5F5F5F5F5F5F5F5F5F5F5F5F5F5F5F5F5F5F5F5F5F5F5F5F5F5
310
F5F5F5F5F5F5F5F5F5F5F5F5F5F5F5F5F5F5F5F5F5F5F5F5F5F5F5F5F5F5F5F5F5F5F5F5F5F5F5F5F5F5F5F5F5F5F5F5F5E2F5F5F500E2F5F5F5E2F5F5F5F5F5F5F5F5F5F5F5F5F5F5F5F5F5F5F5F5F5F5F5F5F5F5F5F5F5F5F5F5F5F5F5F5F5F5F5F5F5F5F5F5F5F5F5F5F5F5F5F5F5F5F5F5F5F5F5F5F5F5F5F5F5F5F5F5
310
F5F5F5F5F5F5F5F5F5F5F5F5F5F5F5F5F5F5F5F5F5F5E2F5F5F500E2F5F5F5E2F5F5F5F5F5F5F5F5F5F5F5F5F5F5F5F5F5F5F5F5F5F5F5F5F5F5F5F5F5F5F5F5F5F5F5F5F5F5F5F5F5F5F5F5F5F5F5F5F5F5F5F5F5F5F5F5F5F5F5F5F5F5F5F5F5F5F5F5F5F5F5F5F5F5F5F5F5F5F5F5F5F5F5F5F5F5F5F5F5F5E2F5F5F500
310
E2F5F5F5E2F5F5F5F5F5F5F5F5F5F5F5F5F5F5F5F5F5F5F5F5F5F5F5F5F5F5F5F5F5F5F5F5F5F5F5F5F5F5F5F5F5F5F5F5F5F5F5F5F5F5F5F5F5F5F5F5F5F5F5F5F5F5F5F5F5F5F5F5F5F5F5F5F5F5F5F5F5F5F5F5F5F5F5F5F5F5F5F5F5F5E2F5F5F500E2F5F5F5E2F5F5F5F5F5F5F5F5F5F5F5F5F5F5F5F5F5F5F5F5F5F5
310
F5F5F5F5F5F5F5F5F5F5F5F5F5F5F5F5F5F5F5F5F5F5F5F5F5F5F5F5F5F5F5F5F5F5F5F5F5F5F5F5F5F5F5F5F5F5F5F5F5F5F5F5F5F5F5F5F5F5F5F5F5F5F5F5F5F5F5F5E2F5F5F500E2F5F5F5E2F5F5F5F5F5F5F5F5F5F5F5F5F5F5F5F5F5F5F5F5F5F5F5F5F5F5F5F5F5F5F5F5F5F5F5F5F5F5F5F5F5F5F5F5F5F5F5F5F5
310
F5F5F5F5F5F5F5F5F5F5F5F5F5F5F5F5F5F5F5F5F5F5F5F5F5F5F5F5F5F5F5F5F5F5F5F5F5F5F5F5F5E2F5F5F500E2F5F5F5E2F5F5F5F5F5F5F5F5F5F5F5F5F5F5F5F5F5F5F5F5F5F5F5F5F5F5F5F5F5F5F5F5F5F5F5F5F5F5F5F5F5F5F5F5F5F5F5F5F5F5F5F5F5F5F5F5F5F5F5F5F5F5F5F5F5F5F5F5F5F5F5F5F5F5F5F5
310
F5F5F5F5F5F5F5F5F5F5F5F5F5F5E2F5F5F500E2F5F5F5E2F5F5F5F5F5F5F5F5F5F5F5F5F5F5F5F5F5F5F5F5F5F5F5F5F5F5F5F5F5F5F5F5F5F5F5F5F5F5F5F5F5F5F5F5F5F5F5F5F5F5F5F5F5F5F5F5F5F5F5F5F5F5F5F5F5F5F5F5F5F5F5F5F5F5F5F5F5F5F5F5F5F5F5F5F5F5F5F5F5F5E2F5F5F500E2F5F5F5E2F5F5F5
310
F5F5F5F5F5F5F5F5F5F5F5F5F5F5F5F5F5F5F5F5F5F5F5F5F5F5F5F5F5F5F5F5F5F5F5F5F5F5F5F5F5F5F5F5F5F5F5F5F5F5F5F5F5F5F5F5F5F5F5F5F5F5F5F5F5F5F5F5F5F5F5F5F5F5F5F5F5F5F5F5F5F5F5F5F5F5F5E2F5F5F500E2F5F5F5E2F5F5F5F5F5F5F5F5F5F5F5F5F5F5F5F5F5F5F5F5F5F5F5F5F5F5F5F5F5F5
310
F5F5F5F5F5F5F5F5F5F5F5F5F5F5F5F5F5F5F5F5F5F5F5F5F5F5F5F5F5F5F5F5F5F5F5F5F5F5F5F5F5F5F5F5F5F5F5F5F5F5F5F5F5F5F5F5F5F5F5F5E2F5F5F500E2F5F5F5E2F5F5F5F5F5F5F5F5F5F5F5F5F5F5F5F5F5F5F5F5F5F5F5F5F5F5F5F5F5F5F5F5F5F5F5F5F5F5F5F5F5F5F5F5F5F5F5F5F5F5F5F5F5F5F5F5F5
310
F5F5F5F5F5F5F5F5F5F5F5F5F5F5F5F5F5F5F5F5F5F5F5F5F5F5F5F5F5F5F5F5F5E2F5F5F500E2F5F5F5E2F5F5F5F5F5F5F5F5F5F5F5F5F5F5F5F5F5F5F5F5F5F5F5F5F5F5F5F5F5F5F5F5F5F5F5F5F5F5F5F5F5F5F5F5F5F5F5F5F5F5F5F5F5F5F5F5F5F5F5F5F5F5F5F5F5F5F5F5F5F5F5F5F5F5F5F5F5F5F5F5F5F5F5F5
310
F5F5F5F5F5F5E2F5F5F500E2F5F5F5F5F5F5F5F5F5F5F5F5F5F5F5F5F5F5F5F5F5F5F5F5F5F5F5F5F5F5F5F5F5F5F5F5F5F5F5F5F5F5F5F5F5F5F5F5F5F5F5F5F5F5F5F5F5F5F5F5F5F5F5F5F5F5F5F5F5F5F5F5F5F5F5F5F5F5F5F5F5F5F5F5F5F5F5F5F5F5F5F5F5F5F5F5F5F500E2F5F5F5F5F5F5F5F5F5F5F5F5F5F5F5
310
F5F5F5F5F5F5F5F5F5F5F5F5F5F5F5F5F5F5F5F5F5F5F5F5F5F5F5F5F5F5F5F5F5F5F5F5F5F5F5F5F5F5F5F5F5F5F5F5F5F5F5F5F5F5F5F5F5F5F5F5F5F5F5F5F5F5F5F5F5F5F5F5F5F5F5F5F5F5F5F5F5F5F500E2F5F5F5F5F5F5F5F5F5F5F5F5F5F5F5F5F5F5F5F5F5F5F5F5F5F5F5F5F5F5F5F5F5F5F5F5F5F5F5F5F5F5
310
F5F5F5F5F5F5F5F5F5F5F5F5F5F5F5F5F5F5F5F5F5F5F5F5F5F5F5F5F5F5F5F5F5F5F5F5F5F5F5F5F5F5F5F5F5F5F5F5F5F5F5F5F5F5F5F500E2F5F5F5F5F5F5F5F5F5F5F5F5F5F5F5F5F5F5F5F5F5F5F5F5F5F5F5F5F5F5F5F5F5F5F5F5F5F5F5F5F5F5F5F5F5F5F5F5F5F5F5F5F5F5F5F5F5F5F5F5F5F5F5F5F5F5F5F5F5
310
F5F5F5F5F5F5F5F5F5F5F5F5F5F5F5F5F5F5F5F5F5F5F5F5F5F5F5F5F500E2F5F5F5F5F5F5F5F5F5F5F5F5F5F5F5F5F5F5F5F5F5F5F5F5F5F5F5F5F5F5F5F5F5F5F5F5F5F5F5F5F5F5F5F5F5F5F5F5F5F5F5F5F5F5F5F5F5F5F5F5F5F5F5F5F5F5F5F5F5F5F5F5F5F5F5F5F5F5F5F5F5F5F5F5F5F5F5F5F5F5F5F5F5F5F5F5
310
F5F500E2F5F5F5F5F5F5F5F5F5F5F5F5F5F5F5F5F5F5F5F5F5F5F5F5F5F5F5F5F5F5F5F5F5F5F5F5F5F5F5F5F5F5F5F5F5F5F5F5F5F5F5F5F5F5F5F5F5F5F5F5F5F5F5F5F5F5F5F5F5F5F5F5F5F5F5F5F5F5F5F5F5F5F5F5F5F5F5F5F5F5F5F5F5F5F5F5F5F500E2F5F5F5F5F5F5F5F5F5F5F5F5F5F5F5F5F5F5F5F5F5F5F5
310
F5F5F5F5F5F5F5F5F5F5F5F5F5F5F5F5F5F5F5F5F5F5F5F5F5F5F5F5F5F5F5F5F5F5F5F5F5F5F5F5F5F5F5F5F5F5F5F5F5F5F5F5F5F5F5F5F5F5F5F5F5F5F5F5F5F5F5F5F5F5F5F5F5F5F500E2F5F5F5F5F5F5F5F5F5F5F5F5F5F5F5F5F5F5F5F5F5F5F5F5F5F5F5F5F5F5F5F5F5F5F5F5F5F5F5F5F5F5F5F5F5F5F5F5F5F5
310
F5F5F5F5F5F5F5F5F5F5F5F5F5F5F5F5F5F5F5F5F5F5F5F5F5F5F5F5F5F5F5F5F5F5F5F5F5F5F5F5F5F5F5F5F5F5F5F500E2F5F5F5F5F5F5F5F5F5F5F5F5F5F5F5F5F5F5F5F5F5F5F5F5F5F5F5F5F5F5F5F5F5F5F5F5F5F5F5F5F5F5F5F5F5F5F5F5F5F5F5F5F5F5F5F5F5F5F5F5F5F5F5F5F5F5F5F5F5F5F5F5F5F5F5F5F5
310
F5F5F5F5F5F5F5F5F5F5F5F5F5F5F5F5F5F5F5F5F500E2F5F5F5E2F5F5F5F5F5F5F5F5F5F5F5F5F5F5F5F5F5F5F5F5F5F5F5F5F5F5F5F5F5F5F5F5F5F5F5F5F5F5F5F5F5F5F5F5F5F5F5F5F5F5F5F5F5F5F5F5F5F5F5F5F5F5F5F5F5F5F5F5F5F5F5F5F5F5F5F5F5F5F5F5F5F5F5F5F5F5F5F5F5F5E2F5F5F500E2F5F5F5E2
310
F5F5F5F5F5F5F5F5F5F5F5F5F5F5F5F5F5F5F5F5F5F5F5F5F5F5F5F5F5F5F5F5F5F5F5F5F5F5F5F5F5F5F5F5F5F5F5F5F5F5F5F5F5F5F5F5F5F5F5F5F5F5F5F5F5F5F5F5F5F5F5F5F5F5F5F5F5F5F5F5F5F5F5F5F5F5F5F5F5F5E2F5F5F500E2F5F5F5E2F5F5F5F5F5F5F5F5F5F5F5F5F5F5F5F5F5F5F5F5F5F5F5F5F5F5F5
310
F5F5F5F5F5F5F5F5F5F5F5F5F5F5F5F5F5F5F5F5F5F5F5F5F5F5F5F5F5F5F5F5F5F5F5F5F5F5F5F5F5F5F5F5F5F5F5F5F5F5F5F5F5F5F5F5F5F5F5F5F5F5F5E2F5F5F500E2F5F5F5E2F5F5F5F5F5F5F5F5F5F5F5F5F5F5F5F5F5F5F5F5F5F5F5F5F5F5F5F5F5F5F5F5F5F5F5F5F5F5F5F5F5F5F5F5F5F5F5F5F5F5F5F5F5F5
310
F5F5F5F5F5F5F5F5F5F5F5F5F5F5F5F5F5F5F5F5F5F5F5F5F5F5F5F5F5F5F5F5F5F5F5F5E2F5F5F500E2F5F5F5E2F5F5F5F5F5F5F5F5F5F5F5F5F5F5F5F5F5F5F5F5F5F5F5F5F5F5F5F5F5F5F5F5F5F5F5F5F5F5F5F5F5F5F5F5F5F5F5F5F5F5F5F5F5F5F5F5F5F5F5F5F5F5F5F5F5F5F5F5F5F5F5F5F5F5F5F5F5F5F5F5F5
310
F5F5F5F5F5F5F5F5F5E2F5F5F500E2F5F5F5E2F5F5F5F5F5F5F5F5F5F5F5F5F5F5F5F5F5F5F5F5F5F5F5F5F5F5F5F5F5F5F5F5F5F5F5F5F5F5F5F5F5F5F5F5F5F5F5F5F5F5F5F5F5F5F5F5F5F5F5F5F5F5F5F5F5F5F5F5F5F5F5F5F5F5F5F5F5F5F5F5F5F5F5F5F5F5F5F5F5F5E2F5F5F500E2F5F5F5E2F5F5F5F5F5F5F5F5
310
F5F5F5F5F5F5F5F5F5F5F5F5F5F5F5F5F5F5F5F5F5F5F5F5F5F5F5F5F5F5F5F5F5F5F5F5F5F5F5F5F5F5F5F5F5F5F5F5F5F5F5F5F5F5F5F5F5F5F5F5F5F5F5F5F5F5F5F5F5F5F5F5F5F5F5F5F5F5F5F5F5F5E2F5F5F500E2F5F5F5E2F5F5F5F5F5F5F5F5F5F5F5F5F5F5F5F5F5F5F5F5F5F5F5F5F5F5F5F5F5F5F5F5F5F5F5
310
F5F5F5F5F5F5F5F5F5F5F5F5F5F5F5F5F5F5F5F5F5F5F5F5F5F5F5F5F5F5F5F5F5F5F5F5F5F5F5F5F5F5F5F5F5F5F5F5F5F5F5F5F5F5F5E2F5F5F500E2F5F5F5E2F5F5F5F5F5F5F5F5F5F5F5F5F5F5F5F5F5F5F5F5F5F5F5F5F5F5F5F5F5F5F5F5F5F5F5F5F5F5F5F5F5F5F5F5F5F5F5F5F5F5F5F5F5F5F5F5F5F5F5F5F5F5
310
F5F5F5F5F5F5F5F5F5F5F5F5F5F5F5F5F5F5F5F5F5F5F5F5F5F5F5F5E2F5F5F500E2F5F5F5E2F5F5F5F5F5F5F5F5F5F5F5F5F5F5F5F5F5F5F5F5F5F5F5F5F5F5F5F5F5F5F5F5F5F5F5F5F5F5F5F5F5F5F5F5F5F5F5F5F5F5F5F5F5F5F5F5F5F5F5F5F5F5F5F5F5F5F5F5F5F5F5F5F5F5F5F5F5F5F5F5F5F5F5F5F5F5F5F5F5
310
F5E2F5F5F500E2F5F5F5E2F5F5F5F5F5F5F5F5F5F5F5F5F5F5F5F5F5F5F5F5F5F5F5F5F5F5F5F5F5F5F5F5F5F5F5F5F5F5F5F5F5F5F5F5F5F5F5F5F5F5F5F5F5F5F5F5F5F5F5F5F5F5F5F5F5F5F5F5F5F5F5F5F5F5F5F5F5F5F5F5F5F5F5F5F5F5F5F5F5F5E2F5F5F500E2F5F5F5E2F5F5F5F5F5F5F5F5F5F5F5F5F5F5F5F5
310
F5F5F5F5F5F5F5F5F5F5F5F5F5F5F5F5F5F5F5F5F5F5F5F5F5F5F5F5F5F5F5F5F5F5F5F5F5F5F5F5F5F5F5F5F5F5F5F5F5F5F5F5F5F5F5F5F5F5F5F5F5F5F5F5F5F5F5F5F5F5F5F5F5F5E2F5F5F500E2F5F5F5E2F5F5F5F5F5F5F5F5F5F5F5F5F5F5F5F5F5F5F5F5F5F5F5F5F5F5F5F5F5F5F5F5F5F5F5F5F5F5F5F5F5F5F5
310
F5F5F5F5F5F5F5F5F5F5F5F5F5F5F5F5F5F5F5F5F5F5F5F5F5F5F5F5F5F5F5F5F5F5F5F5F5F5F5F5F5F5F5F5F5F5F5E2F5F5F500E2F5F5F5E2F5F5F5F5F5F5F5F5F5F5F5F5F5F5F5F5F5F5F5F5F5F5F5F5F5F5F5F5F5F5F5F5F5F5F5F5F5F5F5F5F5F5F5F5F5F5F5F5F5F5F5F5F5F5F5F5F5F5F5F5F5F5F5F5F5F5F5F5F5F5
310
F5F5F5F5F5F5F5F5F5F5F5F5F5F5F5F5F5F5F5F5E2F5F5F500E2F5F5F5E2F5F5F5F5F5F5F5F5F5F5F5F5F5F5F5F5F5F5F5F5F5F5F5F5F5F5F5F5F5F5F5F5F5F5F5F5F5F5F5F5F5F5F5F5F5F5F5F5F5F5F5F5F5F5F5F5F5F5F5F5F5F5F5F5F5F5F5F5F5F5F5F5F5F5F5F5F5F5F5F5F5F5F5F5F5F5F5F5F5F5E2F5F5F500E2F5
310
F5F5E2F5F5F5F5F5F5F5F5F5F5F5F5F5F5F5F5F5F5F5F5F5F5F5F5F5F5F5F5F5F5F5F5F5F5F5F5F5F5F5F5F5F5F5F5F5F5F5F5F5F5F5F5F5F5F5F5F5F5F5F5F5F5F5F5F5F5F5F5F5F5F5F5F5F5F5F5F5F5F5F5F5F5F5F5F5F5F5F5F5F5E2F5F5F500E2F5F5F5E2F5F5F5F5F5F5F5F5F5F5F5F5F5F5F5F5F5F5F5F5F5F5F5F5
310
F5F5F5F5F5F5F5F5F5F5F5F5F5F5F5F5F5F5F5F5F5F5F5F5F5F5F5F5F5F5F5F5F5F5F5F5F5F5F5F5F5F5F5F5F5F5F5F5F5F5F5F5F5F5F5F5F5F5F5F5F5F5F5F5F5F5E2F5F5F500E2F5F5F5F5F5F5F5F5F5F5F5F5F5F5F5F5F5F5F5F5F5F5F5F5F5F5F5F5F5F5F5F5F5F5F5F5F5F5F5F5F5F5F5F5F5F5F5F5F5F5F5F5F5F5F5
310
F5F5F5F5F5F5F5F5F5F5F5F5F5F5F5F5F5F5F5F5F5F5F5F5F5F5F5F5F5F5F5F5F5F5F5F5F5F5F5F5F5F5F500E2F5F5F5F5F5F5F5F5F5F5F5F5F5F5F5F5F5F5F5F5F5F5F5F5F5F5F5F5F5F5F5F5F5F5F5F5F5F5F5F5F5F5F5F5F5F5F5F5F5F5F5F5F5F5F5F5F5F5F5F5F5F5F5F5F5F5F5F5F5F5F5F5F5F5F5F5F5F5F5F5F5F5
310
F5F5F5F5F5F5F5F5F5F5F5F5F5F5F5F500E2F5F5F5F5F5F5F5F5F5F5F5F5F5F5F5F5F5F5F5F5F5F5F5F5F5F5F5F5F5F5F5F5F5F5F5F5F5F5F5F5F5F5F5F5F5F5F5F5F5F5F5F5F5F5F5F5F5F5F5F5F5F5F5F5F5F5F5F5F5F5F5F5F5F5F5F5F5F5F5F5F5F5F5F5F5F5F5F5F5F5F5F5F5F5F5F5F5F500E2F5F5F5F5F5F5F5F5F5
310
F5F5F5F5F5F5F5F5F5F5F5F5F5F5F5F5F5F5F5F5F5F5F5F5F5F5F5F5F5F5F5F5F5F5F5F5F5F5F5F5F5F5F5F5F5F5F5F5F5F5F5F5F5F5F5F5F5F5F5F5F5F5F5F5F5F5F5F5F5F5F5F5F5F5F5F5F5F5F5F5F5F5F5F5F5F5F5F5F500E2F5F5F5F5F5F5F5F5F5F5F5F5F5F5F5F5F5F5F5F5F5F5F5F5F5F5F5F5F5F5F5F5F5F5F5F5
310
F5F5F5F5F5F5F5F5F5F5F5F5F5F5F5F5F5F5F5F5F5F5F5F5F5F5F5F5F5F5F5F5F5F5F5F5F5F5F5F5F5F5F5F5F5F5F5F5F5F5F5F5F5F5F5F5F5F5F5F5F5F500E2F5F5F5F5F5F5F5F5F5F5F5F5F5F5F5F5F5F5F5F5F5F5F5F5F5F5F5F5F5F5F5F5F5F5F5F5F5F5F5F5F5F5F5F5F5F5F5F5F5F5F5F5F5F5F5F5F5F5F5F5F5F5F5
310
F5F5F5F5F5F5F5F5F5F5F5F5F5F5F5F5F5F5F5F5F5F5F5F5F5F5F5F5F5F5F5F5F5F5F500E2F5F5F5F5F5F5F5F5F5F5F5F5F5F5F5F5F5F5F5F5F5F5F5F5F5F5F5F5F5F5F5F5F5F5F5F5F5F5F5F5F5F5F5F5F5F5F5F5F5F5F5F5F5F5F5F5F5F5F5F5F5F5F5F5F5F5F5F5F5F5F5F5F5F5F5F5F5F5F5F5F5F5F5F5F5F5F5F5F5F5
310
F5F5F5F5F5F5F5F500E2F5F5F5F5F5F5F5F5F5F5F5F5F5F5F5F5F5F5F5F5F5F5F5F5F5F5F5F5F5F5F5F5F5F5F5F5F5F5F5F5F5F5F5F5F5F5F5F5F5F5F5F5F5F5F5F5F5F5F5F5F5F5F5F5F5F5F5F5F5F5F5F5F5F5F5F5F5F5F5F5F5F5F5F5F5F5F5F5F5F5F5F5F5F5F5F5F5F500E2F5F5F5F5F5F5F5F5F5F5F5F5F5F5F5F5F5
310
F5F5F5F5F5F5F5F5F5F5F5F5F5F5F5F5F5F5F5F5F5F5F5F5F5F5F5F5F5F5F5F5F5F5F5F5F5F5F5F5F5F5F5F5F5F5F5F5F5F5F5F5F5F5F5F5F5F5F5F5F5F5F5F5F5F5F5F5F5F5F5F5F5F5F5F5F5F5F5F5F500E2F5F5F5F5F5F5F5F5F5F5F5F5F5F5F5F5F5F5F5F5F5F5F5F5F5F5F5F5F5F5F5F5F5F5F5F5F5F5F5F5F5F5F5F5
310
F5F5F5F5F5F5F5F5F5F5F5F5F5F5F5F5F5F5F5F5F5F5F5F5F5F5F5F5F5F5F5F5F5F5F5F5F5F5F5F5F5F5F5F5F5F5F5F5F5F5F5F5F5F500E2F5F5F5E2F5F5F5F5F5F5F5F5F5F5F5F5F5F5F5F5F5F5F5F5F5F5F5F5F5F5F5F5F5F5F5F5F5F5F5F5F5F5F5F5F5F5F5F5F5F5F5F5F5F5F5F5F5F5F5F5F5F5F5F5F5F5F5F5F5F5F5
310
F5F5F5F5F5F5F5F5F5F5F5F5F5F5F5F5F5F5F5F5F5F5F5E2F5F5F500E2F5F5F5E2F5F5F5F5F5F5F5F5F5F5F5F5F5F5F5F5F5F5F5F5F5F5F5F5F5F5F5F5F5F5F5F5F5F5F5F5F5F5F5F5F5F5F5F5F5F5F5F5F5F5F5F5F5F5F5F5F5F5F5F5F5F5F5F5F5F5F5F5F5F5F5F5F5F5F5F5F5F5F5F5F5F5F5F5F5F5F5F5F5F5E2F5F5F5
310
00E2F5F5F5E2F5F5F5F5F5F5F5F5F5F5F5F5F5F5F5F5F5F5F5F5F5F5F5F5F5F5F5F5F5F5F5F5F5F5F5F5F5F5F5F5F5F5F5F5F5F5F5F5F5F5F5F5F5F5F5F5F5F5F5F5F5F5F5F5F5F5F5F5F5F5F5F5F5F5F5F5F5F5F5F5F5F5F5F5F5F5F5F5F5F5E2F5F5F500E2F5F5F5E2F5F5F5F5F5F5F5F5F5F5F5F5F5F5F5F5F5F5F5F5F5
310
F5F5F5F5F5F5F5F5F5F5F5F5F5F5F5F5F5F5F5F5F5F5F5F5F5F5F5F5F5F5F5F5F5F5F5F5F5F5F5F5F5F5F5F5F5F5F5F5F5F5F5F5F5F5F5F5F5F5F5F5F5F5F5F5F5F5F5F5F5E2F5F5F500E2F5F5F5E2F5F5F5F5F5F5F5F5F5F5F5F5F5F5F5F5F5F5F5F5F5F5F5F5F5F5F5F5F5F5F5F5F5F5F5F5F5F5F5F5F5F5F5F5F5F5F5F5
310
F5F5F5F5F5F5F5F5F5F5F5F5F5F5F5F5F5F5F5F5F5F5F5F5F5F5F5F5F5F5F5F5F5F5F5F5F5F5F5F5F5F5E2F5F5F500E2F5F5F5E2F5F5F5F5F5F5F5F5F5F5F5F5F5F5F5F5F5F5F5F5F5F5F5F5F5F5F5F5F5F5F5F5F5F5F5F5F5F5F5F5F5F5F5F5F5F5F5F5F5F5F5F5F5F5F5F5F5F5F5F5F5F5F5F5F5F5F5F5F5F5F5F5F5F5F5
310
F5F5F5F5F5F5F5F5F5F5F5F5F5F5F5E2F5F5F500E2F5F5F5E2F5F5F5F5F5F5F5F5F5F5F5F5F5F5F5F5F5F5F5F5F5F5F5F5F5F5F5F5F5F5F5F5F5F5F5F5F5F5F5F5F5F5F5F5F5F5F5F5F5F5F5F5F5F5F5F5F5F5F5F5F5F5F5F5F5F5F5F5F5F5F5F5F5F5F5F5F5F5F5F5F5F5F5F5F5F5F5F5F5F5E2F5F5F500E2F5F5F5E2F5F5
310
F5F5F5F5F5F5F5F5F5F5F5F5F5F5F5F5F5F5F5F5F5F5F5F5F5F5F5F5F5F5F5F5F5F5F5F5F5F5F5F5F5F5F5F5F5F5F5F5F5F5F5F5F5F5F5F5F5F5F5F5F5F5F5F5F5F5F5F5F5F5F5F5F5F5F5F5F5F5F5F5F5F5F5F5F5F5F5F5E2F5F5F500E2F5F5F5E2F5F5F5F5F5F5F5F5F5F5F5F5F5F5F5F5F5F5F5F5F5F5F5F5F5F5F5F5F5
310
F5F5F5F5F5F5F5F5F5F5F5F5F5F5F5F5F5F5F5F5F5F5F5F5F5F5F5F5F5F5F5F5F5F5F5F5F5F5F5F5F5F5F5F5F5F5F5F5F5F5F5F5F5F5F5F5F5F5F5F5F5E2F5F5F500E2F5F5F5E2F5F5F5F5F5F5F5F5F5F5F5F5F5F5F5F5F5F5F5F5F5F5F5F5F5F5F5F5F5F5F5F5F5F5F5F5F5F5F5F5F5F5F5F5F5F5F5F5F5F5F5F5F5F5F5F5
310
F5F5F5F5F5F5F5F5F5F5F5F5F5F5F5F5F5F5F5F5F5F5F5F5F5F5F5F5F5F5F5F5F5F5E2F5F5F500E2F5F5F5E2F5F5F5F5F5F5F5F5F5F5F5F5F5F5F5F5F5F5F5F5F5F5F5F5F5F5F5F5F5F5F5F5F5F5F5F5F5F5F5F5F5F5F5F5F5F5F5F5F5F5F5F5F5F5F5F5F5F5F5F5F5F5F5F5F5F5F5F5F5F5F5F5F5F5F5F5F5F5F5F5F5F5F5
310
F5F5F5F5F5F5F5E2F5F5F500E2F5F5F5E2F5F5F5F5F5F5F5F5F5F5F5F5F5F5F5F5F5F5F5F5F5F5F5F5F5F5F5F5F5F5F5F5F5F5F5F5F5F5F5F5F5F5F5F5F5F5F5F5F5F5F5F5F5F5F5F5F5F5F5F5F5F5F5F5F5F5F5F5F5F5F5F5F5F5F5F5F5F5F5F5F5F5F5F5F5F5F5F5F5F5E2F5F5F500E2F5F5F5E2F5F5F5F5F5F5F5F5F5F5
310
F5F5F5F5F5F5F5F5F5F5F5F5F5F5F5F5F5F5F5F5F5F5F5F5F5F5F5F5F5F5F5F5F5F5F5F5F5F5F5F5F5F5F5F5F5F5F5F5F5F5F5F5F5F5F5F5F5F5F5F5F5F5F5F5F5F5F5F5F5F5F5F5F5F5F5F5F5F5F5F5E2F5F5F500E2F5F5F5E2F5F5F5F5F5F5F5F5F5F5F5F5F5F5F5F5F5F5F5F5F5F5F5F5F5F5F5F5F5F5F5F5F5F5F5F5F5
310
F5F5F5F5F5F5F5F5F5F5F5F5F5F5F5F5F5F5F5F5F5F5F5F5F5F5F5F5F5F5F5F5F5F5F5F5F5F5F5F5F5F5F5F5F5F5F5F5F5F5F5F5F5E2F5F5F500E2F5F5F5E2F5F5F5F5F5F5F5F5F5F5F5F5F5F5F5F5F5F5F5F5F5F5F5F5F5F5F5F5F5F5F5F5F5F5F5F5F5F5F5F5F5F5F5F5F5F5F5F5F5F5F5F5F5F5F5F5F5F5F5F5F5F5F5F5
310
F5F5F5F5F5F5F5F5F5F5F5F5F5F5F5F5F5F5F5F5F5F5F5F5F5F5E2F5F5F500E2F5F5F5E2F5F5F5F5F5F5F5F5F5F5F5F5F5F5F5F5F5F5F5F5F5F5F5F5F5F5F5F5F5F5F5F5F5F5F5F5F5F5F5F5F5F5F5F5F5F5F5F5F5F5F5F5F5F5F5F5F5F5F5F5F5F5F5F5F5F5F5F5F5F5F5F5F5F5F5F5F5F5F5F5F5F5F5F5F5F5F5F5F5F5E2
310
F5F5F500E2F5F5F5E2F5F5F5F5F5F5F5F5F5F5F5F5F5F5F5F5F5F5F5F5F5F5F5F5F5F5F5F5F5F5F5F5F5F5F5F5F5F5F5F5F5F5F5F5F5F5F5F5F5F5F5F5F5F5F5F5F5F5F5F5F5F5F5F5F5F5F5F5F5F5F5F5F5F5F5F5F5F5F5F5F5F5F5F5F5F5F5F5F5F5E2F5F5F500E2F5F5F5F5F5F5F5F5F5F5F5F5F5F5F5F5F5F5F5F5F5F5
310
F5F5F5F5F5F5F5F5F5F5F5F5F5F5F5F5F5F5F5F5F5F5F5F5F5F5F5F5F5F5F5F5F5F5F5F5F5F5F5F5F5F5F5F5F5F5F5F5F5F5F5F5F5F5F5F5F5F5F5F5F5F5F5F5F5F5F5F5F5F5F5F5F5F5F5F500E2F5F5F5F5F5F5F5F5F5F5F5F5F5F5F5F5F5F5F5F5F5F5F5F5F5F5F5F5F5F5F5F5F5F5F5F5F5F5F5F5F5F5F5F5F5F5F5F5F5
310
F5F5F5F5F5F5F5F5F5F5F5F5F5F5F5F5F5F5F5F5F5F5F5F5F5F5F5F5F5F5F5F5F5F5F5F5F5F5F5F5F5F5F5F5F5F5F5F5F500E2F5F5F5F5F5F5F5F5F5F5F5F5F5F5F5F5F5F5F5F5F5F5F5F5F5F5F5F5F5F5F5F5F5F5F5F5F5F5F5F5F5F5F5F5F5F5F5F5F5F5F5F5F5F5F5F5F5F5F5F5F5F5F5F5F5F5F5F5F5F5F5F5F5F5F5F5
310
F5F5F5F5F5F5F5F5F5F5F5F5F5F5F5F5F5F5F5F5F5F500E2F5F5F5F5F5F5F5F5F5F5F5F5F5F5F5F5F5F5F5F5F5F5F5F5F5F5F5F5F5F5F5F5F5F5F5F5F5F5F5F5F5F5F5F5F5F5F5F5F5F5F5F5F5F5F5F5F5F5F5F5F5F5F5F5F5F5F5F5F5F5F5F5F5F5F5F5F5F5F5F5F5F5F5F5F5F5F5F5F5F5F5F5F5F5F5F5F5F500E2F5F5F5
310
F5F5F5F5F5F5F5F5F5F5F5F5F5F5F5F5F5F5F5F5F5F5F5F5F5F5F5F5F5F5F5F5F5F5F5F5F5F5F5F5F5F5F5F5F5F5F5F5F5F5F5F5F5F5F5F5F5F5F5F5F5F5F5F5F5F5F5F5F5F5F5F5F5F5F5F5F5F5F5F5F5F5F5F5F5F5F5F5F5F5F5F5F5F5F500E2F5F5F5F5F5F5F5F5F5F5F5F5F5F5F5F5F5F5F5F5F5F5F5F5F5F5F5F5F5F5
310
F5F5F5F5F5F5F5F5F5F5F5F5F5F5F5F5F5F5F5F5F5F5F5F5F5F5F5F5F5F5F5F5F5F5F5F5F5F5F5F5F5F5F5F5F5F5F5F5F5F5F5F5F5F5F5F5F5F5F5F5F5F5F5F5F5F5F5F500E2F5F5F5F5F5F5F5F5F5F5F5F5F5F5F5F5F5F5F5F5F5F5F5F5F5F5F5F5F5F5F5F5F5F5F5F5F5F5F5F5F5F5F5F5F5F5F5F5F5F5F5F5F5F5F5F5F5
310
F5F5F5F5F5F5F5F5F5F5F5F5F5F5F5F5F5F5F5F5F5F5F5F5F5F5F5F5F5F5F5F5F5F5F5F5F5F5F5F5F500E2F5F5F5F5F5F5F5F5F5F5F5F5F5F5F5F5F5F5F5F5F5F5F5F5F5F5F5F5F5F5F5F5F5F5F5F5F5F5F5F5F5F5F5F5F5F5F5F5F5F5F5F5F5F5F5F5F5F5F5F5F5F5F5F5F5F5F5F5F5F5F5F5F5F5F5F5F5F5F5F5F5F5F5F5
310
F5F5F5F5F5F5F5F5F5F5F5F5F5F500E2F5F5F5F5F5F5F5F5F5F5F5F5F5F5F5F5F5F5F5F5F5F5F5F5F5F5F5F5F5F5F5F5F5F5F5F5F5F5F5F5F5F5F5F5F5F5F5F5F5F5F5F5F5F5F5F5F5F5F5F5F5F5F5F5F5F5F5F5F5F5F5F5F5F5F5F5F5F5F5F5F5F5F5F5F5F5F5F5F5F5F5F5F5F5F5F5F5F500E2F5F5F5E2F5F5F5F5F5F5F5
310
F5F5F5F5F5F5F5F5F5F5F5F5F5F5F5F5F5F5F5F5F5F5F5F5F5F5F5F5F5F5F5F5F5F5F5F5F5F5F5F5F5F5F5F5F5F5F5F5F5F5F5F5F5F5F5F5F5F5F5F5F5F5F5F5F5F5F5F5F5F5F5F5F5F5F5F5F5F5F5F5F5F5F5E2F5F5F500E2F5F5F5E2F5F5F5F5F5F5F5F5F5F5F5F5F5F5F5F5F5F5F5F5F5F5F5F5F5F5F5F5F5F5F5F5F5F5
310
F5F5F5F5F5F5F5F5F5F5F5F5F5F5F5F5F5F5F5F5F5F5F5F5F5F5F5F5F5F5F5F5F5F5F5F5F5F5F5F5F5F5F5F5F5F5F5F5F5F5F5F5F5F5F5F5E2F5F5F500E2F5F5F5E2F5F5F5F5F5F5F5F5F5F5F5F5F5F5F5F5F5F5F5F5F5F5F5F5F5F5F5F5F5F5F5F5F5F5F5F5F5F5F5F5F5F5F5F5F5F5F5F5F5F5F5F5F5F5F5F5F5F5F5F5F5
310
F5F5F5F5F5F5F5F5F5F5F5F5F5F5F5F5F5F5F5F5F5F5F5F5F5F5F5F5F5E2F5F5F500E2F5F5F5E2F5F5F5F5F5F5F5F5F5F5F5F5F5F5F5F5F5F5F5F5F5F5F5F5F5F5F5F5F5F5F5F5F5F5F5F5F5F5F5F5F5F5F5F5F5F5F5F5F5F5F5F5F5F5F5F5F5F5F5F5F5F5F5F5F5F5F5F5F5F5F5F5F5F5F5F5F5F5F5F5F5F5F5F5F5F5F5F5
310
F5F5E2F5F5F500E2F5F5F5E2F5F5F5F5F5F5F5F5F5F5F5F5F5F5F5F5F5F5F5F5F5F5F5F5F5F5F5F5F5F5F5F5F5F5F5F5F5F5F5F5F5F5F5F5F5F5F5F5F5F5F5F5F5F5F5F5F5F5F5F5F5F5F5F5F5F5F5F5F5F5F5F5F5F5F5F5F5F5F5F5F5F5F5F5F5F5F5F5F5F5E2F5F5F500E2F5F5F5E2F5F5F5F5F5F5F5F5F5F5F5F5F5F5F5
310
F5F5F5F5F5F5F5F5F5F5F5F5F5F5F5F5F5F5F5F5F5F5F5F5F5F5F5F5F5F5F5F5F5F5F5F5F5F5F5F5F5F5F5F5F5F5F5F5F5F5F5F5F5F5F5F5F5F5F5F5F5F5F5F5F5F5F5F5F5F5F5F5F5F5F5E2F5F5F500E2F5F5F5E2F5F5F5F5F5F5F5F5F5F5F5F5F5F5F5F5F5F5F5F5F5F5F5F5F5F5F5F5F5F5F5F5F5F5F5F5F5F5F5F5F5F5
310
F5F5F5F5F5F5F5F5F5F5F5F5F5F5F5F5F5F5F5F5F5F5F5F5F5F5F5F5F5F5F5F5F5F5F5F5F5F5F5F5F5F5F5F5F5F5F5F5E2F5F5F500E2F5F5F5E2F5F5F5F5F5F5F5F5F5F5F5F5F5F5F5F5F5F5F5F5F5F5F5F5F5F5F5F5F5F5F5F5F5F5F5F5F5F5F5F5F5F5F5F5F5F5F5F5F5F5F5F5F5F5F5F5F5F5F5F5F5F5F5F5F5F5F5F5F5
310
F5F5F5F5F5F5F5F5F5F5F5F5F5F5F5F5F5F5F5F5F5E2F5F5F500E2F5F5F5E2F5F5F5F5F5F5F5F5F5F5F5F5F5F5F5F5F5F5F5F5F5F5F5F5F5F5F5F5F5F5F5F5F5F5F5F5F5F5F5F5F5F5F5F5F5F5F5F5F5F5F5F5F5F5F5F5F5F5F5F5F5F5F5F5F5F5F5F5F5F5F5F5F5F5F5F5F5F5F5F5F5F5F5F5F5F5F5F5F5F5E2F5F5F500E2
310
F5F5F5E2F5F5F5F5F5F5F5F5F5F5F5F5F5F5F5F5F5F5F5F5F5F5F5F5F5F5F5F5F5F5F5F5F5F5F5F5F5F5F5F5F5F5F5F5F5F5F5F5F5F5F5F5F5F5F5F5F5F5F5F5F5F5F5F5F5F5F5F5F5F5F5F5F5F5F5F5F5F5F5F5F5F5F5F5F5F5F5F5F5F5E2F5F5F500E2F5F5F5E2F5F5F5F5F5F5F5F5F5F5F5F5F5F5F5F5F5F5F5F5F5F5F5
310
F5F5F5F5F5F5F5F5F5F5F5F5F5F5F5F5F5F5F5F5F5F5F5F5F5F5F5F5F5F5F5F5F5F5F5F5F5F5F5F5F5F5F5F5F5F5F5F5F5F5F5F5F5F5F5F5F5F5F5F5F5F5F5F5F5F5F5E2F5F5F500E2F5F5F5E2F5F5F5F5F5F5F5F5F5F5F5F5F5F5F5F5F5F5F5F5F5F5F5F5F5F5F5F5F5F5F5F5F5F5F5F5F5F5F5F5F5F5F5F5F5F5F5F5F5F5
310
F5F5F5F5F5F5F5F5F5F5F5F5F5F5F5F5F5F5F5F5F5F5F5F5F5F5F5F5F5F5F5F5F5F5F5F5F5F5F5F5E2F5F5F500E2F5F5F5E2F5F5F5F5F5F5F5F5F5F5F5F5F5F5F5F5F5F5F5F5F5F5F5F5F5F5F5F5F5F5F5F5F5F5F5F5F5F5F5F5F5F5F5F5F5F5F5F5F5F5F5F5F5F5F5F5F5F5F5F5F5F5F5F5F5F5F5F5F5F5F5F5F5F5F5F5F5
310
F5F5F5F5F5F5F5F5F5F5F5F5F5E2F5F5F500E2F5F5F5E2F5F5F5F5F5F5F5F5F5F5F5F5F5F5F5F5F5F5F5F5F5F5F5F5F5F5F5F5F5F5F5F5F5F5F5F5F5F5F5F5F5F5F5F5F5F5F5F5F5F5F5F5F5F5F5F5F5F5F5F5F5F5F5F5F5F5F5F5F5F5F5F5F5F5F5F5F5F5F5F5F5F5F5F5F5F5F5F5F5F5E2F5F5F500E2F5F5F5E2F5F5F5F5
310
F5F5F5F5F5F5F5F5F5F5F5F5F5F5F5F5F5F5F5F5F5F5F5F5F5F5F5F5F5F5F5F5F5F5F5F5F5F5F5F5F5F5F5F5F5F5F5F5F5F5F5F5F5F5F5F5F5F5F5F5F5F5F5F5F5F5F5F5F5F5F5F5F5F5F5F5F5F5F5F5F5F5F5F5F5F5E2F5F5F500E2F5F5F5E2F5F5F5F5F5F5F5F5F5F5F5F5F5F5F5F5F5F5F5F5F5F5F5F5F5F5F5F5F5F5F5
310
F5F5F5F5F5F5F5F5F5F5F5F5F5F5F5F5F5F5F5F5F5F5F5F5F5F5F5F5F5F5F5F5F5F5F5F5F5F5F5F5F5F5F5F5F5F5F5F5F5F5F5F5F5F5F5F5F5F5F5E2F5F5F500E2F5F5F5E2F5F5F5F5F5F5F5F5F5F5F5F5F5F5F5F5F5F5F5F5F5F5F5F5F5F5F5F5F5F5F5F5F5F5F5F5F5F5F5F5F5F5F5F5F5F5F5F5F5F5F5F5F5F5F5F5F5F5
310
F5F5F5F5F5F5F5F5F5F5F5F5F5F5F5F5F5F5F5F5F5F5F5F5F5F5F5F5F5F5F5F5E2F5F5F500E2F5F5F5F5F5F5F5F5F5F5F5F5F5F5F5F5F5F5F5F5F5F5F5F5F5F5F5F5F5F5F5F5F5F5F5F5F5F5F5F5F5F5F5F5F5F5F5F5F5F5F5F5F5F5F5F5F5F5F5F5F5F5F5F5F5F5F5F5F5F5F5F5F5F5F5F5F5F5F5F5F5F5F5F5F5F5F5F5F5
310
F5F5F5F5F5F5F5F5F500E2F5F5F5F5F5F5F5F5F5F5F5F5F5F5F5F5F5F5F5F5F5F5F5F5F5F5F5F5F5F5F5F5F5F5F5F5F5F5F5F5F5F5F5F5F5F5F5F5F5F5F5F5F5F5F5F5F5F5F5F5F5F5F5F5F5F5F5F5F5F5F5F5F5F5F5F5F5F5F5F5F5F5F5F5F5F5F5F5F5F5F5F5F5F5F5F5F5F500E2F5F5F5F5F5F5F5F5F5F5F5F5F5F5F5F5
310
F5F5F5F5F5F5F5F5F5F5F5F5F5F5F5F5F5F5F5F5F5F5F5F5F5F5F5F5F5F5F5F5F5F5F5F5F5F5F5F5F5F5F5F5F5F5F5F5F5F5F5F5F5F5F5F5F5F5F5F5F5F5F5F5F5F5F5F5F5F5F5F5F5F5F5F5F5F5F5F5F5F500E2F5F5F5F5F5F5F5F5F5F5F5F5F5F5F5F5F5F5F5F5F5F5F5F5F5F5F5F5F5F5F5F5F5F5F5F5F5F5F5F5F5F5F5
310
F5F5F5F5F5F5F5F5F5F5F5F5F5F5F5F5F5F5F5F5F5F5F5F5F5F5F5F5F5F5F5F5F5F5F5F5F5F5F5F5F5F5F5F5F5F5F5F5F5F5F5F5F5F5F500E2F5F5F5F5F5F5F5F5F5F5F5F5F5F5F5F5F5F5F5F5F5F5F5F5F5F5F5F5F5F5F5F5F5F5F5F5F5F5F5F5F5F5F5F5F5F5F5F5F5F5F5F5F5F5F5F5F5F5F5F5F5F5F5F5F5F5F5F5F5F5
310
F5F5F5F5F5F5F5F5F5F5F5F5F5F5F5F5F5F5F5F5F5F5F5F5F5F5F5F500E2F5F5F5F5F5F5F5F5F5F5F5F5F5F5F5F5F5F5F5F5F5F5F5F5F5F5F5F5F5F5F5F5F5F5F5F5F5F5F5F5F5F5F5F5F5F5F5F5F5F5F5F5F5F5F5F5F5F5F5F5F5F5F5F5F5F5F5F5F5F5F5F5F5F5F5F5F5F5F5F5F5F5F5F5F5F5F5F5F5F5F5F5F5F5F5F5F5
310
F500E2F5F5F5F5F5F5F5F5F5F5F5F5F5F5F5F5F5F5F5F5F5F5F5F5F5F5F5F5F5F5F5F5F5F5F5F5F5F5F5F5F5F5F5F5F5F5F5F5F5F5F5F5F5F5F5F5F5F5F5F5F5F5F5F5F5F5F5F5F5F5F5F5F5F5F5F5F5F5F5F5F5F5F5F5F5F5F5F5F5F5F5F5F5F5F5F5F5F500E2F5F5F5F5F5F5F5F5F5F5F5F5F5F5F5F5F5F5F5F5F5F5F5F5
310
F5F5F5F5F5F5F5F5F5F5F5F5F5F5F5F5F5F5F5F5F5F5F5F5F5F5F5F5F5F5F5F5F5F5F5F5F5F5F5F5F5F5F5F5F5F5F5F5F5F5F5F5F5F5F5F5F5F5F5F5F5F5F5F5F5F5F5F5F5F5F5F5F5F500E2F5F5F5F5F5F5F5F5F5F5F5F5F5F5F5F5F5F5F5F5F5F5F5F5F5F5F5F5F5F5F5F5F5F5F5F5F5F5F5F5F5F5F5F5F5F5F5F5F5F5F5
310
F5F5F5F5F5F5F5F5F5F5F5F5F5F5F5F5F5F5F5F5F5F5F5F5F5F5F5F5F5F5F5F5F5F5F5F5F5F5F5F5F5F5F5F5F5F5F500E2F5F5F5F5F5F5F5F5F5F5F5F5F5F5F5F5F5F5F5F5F5F5F5F5F5F5F5F5F5F5F5F5F5F5F5F5F5F5F5F5F5F5F5F5F5F5F5F5F5F5F5F5F5F5F5F5F5F5F5F5F5F5F5F5F5F5F5F5F5F5F5F5F5F5F5F5F5F5
310
F5F5F5F5F5F5F5F5F5F5F5F5F5F5F5F5F5F5F5F500E2F5F5F5E2F5F5F5F5F5F5F5F5F5F5F5F5F5F5F5F5F5F5F5F5F5F5F5F5F5F5F5F5F5F5F5F5F5F5F5F5F5F5F5F5F5F5F5F5F5F5F5F5F5F5F5F5F5F5F5F5F5F5F5F5F5F5F5F5F5F5F5F5F5F5F5F5F5F5F5F5F5F5F5F5F5F5F5F5F5F5F5F5F5F5E2F5F5F500E2F5F5F5E2F5
310
F5F5F5F5F5F5F5F5F5F5F5F5F5F5F5F5F5F5F5F5F5F5F5F5F5F5F5F5F5F5F5F5F5F5F5F5F5F5F5F5F5F5F5F5F5F5F5F5F5F5F5F5F5F5F5F5F5F5F5F5F5F5F5F5F5F5F5F5F5F5F5F5F5F5F5F5F5F5F5F5F5F5F5F5F5F5F5F5F5E2F5F5F500E2F5F5F5E2F5F5F5F5F5F5F5F5F5F5F5F5F5F5F5F5F5F5F5F5F5F5F5F5F5F5F5F5
310
F5F5F5F5F5F5F5F5F5F5F5F5F5F5F5F5F5F5F5F5F5F5F5F5F5F5F5F5F5F5F5F5F5F5F5F5F5F5F5F5F5F5F5F5F5F5F5F5F5F5F5F5F5F5F5F5F5F5F5F5F5F5E2F5F5F500E2F5F5F5E2F5F5F5F5F5F5F5F5F5F5F5F5F5F5F5F5F5F5F5F5F5F5F5F5F5F5F5F5F5F5F5F5F5F5F5F5F5F5F5F5F5F5F5F5F5F5F5F5F5F5F5F5F5F5F5
310
F5F5F5F5F5F5F5F5F5F5F5F5F5F5F5F5F5F5F5F5F5F5F5F5F5F5F5F5F5F5F5F5F5F5F5E2F5F5F500E2F5F5F5E2F5F5F5F5F5F5F5F5F5F5F5F5F5F5F5F5F5F5F5F5F5F5F5F5F5F5F5F5F5F5F5F5F5F5F5F5F5F5F5F5F5F5F5F5F5F5F5F5F5F5F5F5F5F5F5F5F5F5F5F5F5F5F5F5F5F5F5F5F5F5F5F5F5F5F5F5F5F5F5F5F5F5
310
F5F5F5F5F5F5F5F5E2F5F5F500E2F5F5F5E2F5F5F5F5F5F5F5F5F5F5F5F5F5F5F5F5F5F5F5F5F5F5F5F5F5F5F5F5F5F5F5F5F5F5F5F5F5F5F5F5F5F5F5F5F5F5F5F5F5F5F5F5F5F5F5F5F5F5F5F5F5F5F5F5F5F5F5F5F5F5F5F5F5F5F5F5F5F5F5F5F5F5F5F5F5F5F5F5F5F5E2F5F5F500E2F5F5F5E2F5F5F5F5F5F5F5F5F5
310
F5F5F5F5F5F5F5F5F5F5F5F5F5F5F5F5F5F5F5F5F5F5F5F5F5F5F5F5F5F5F5F5F5F5F5F5F5F5F5F5F5F5F5F5F5F5F5F5F5F5F5F5F5F5F5F5F5F5F5F5F5F5F5F5F5F5F5F5F5F5F5F5F5F5F5F5F5F5F5F5F5E2F5F5F500E2F5F5F5E2F5F5F5F5F5F5F5F5F5F5F5F5F5F5F5F5F5F5F5F5F5F5F5F5F5F5F5F5F5F5F5F5F5F5F5F5
310
F5F5F5F5F5F5F5F5F5F5F5F5F5F5F5F5F5F5F5F5F5F5F5F5F5F5F5F5F5F5F5F5F5F5F5F5F5F5F5F5F5F5F5F5F5F5F5F5F5F5F5F5F5F5E2F5F5F500E2F5F5F5E2E2E2E2E2E2E2E2F5F5F5F5F5F5F5F5E2E2E2E2E2E2E2E2E2E2E2E2E2E2E2F5F5F5F5F5F5F5F5E2E2E2E2E2E2E2E2E2E2E2E2E2E2F5F5F5F5F5F5F5F5E2E2E2
310
E2E2E2E2E2E2E2E2E2E2E2E2F5F5F5F5F5F5F5F5E2E2E2E2E2E2E2E2F5F5F500E2F5F5F5F5F5F5F5F5F5F5F5F5F5F5F5F5F5F5F5F5F5F5F5F5F5F5F5F5F5F5F5F5F5F5F5F5F5F5F5F5F5F5F5F5F5F5F5F5F5F5F5F5F5F5F5F5F5F5F5F5F5F5F5F5F5F5F5F5F5F5F5F5F5F5F5F5F5F5F5F5F5F5F5F5F5F5F5F5F5F5F5F5F5F5
310
F5F5F5F500E2F5F5F5F5F5F5F5F5F5F5F5F5F5F5F5F5F5F5F5F5F5F5F5F5F5F5F5F5F5F5F5F5F5F5F5F5F5F5F5F5F5F5F5F5F5F5F5F5F5F5F5F5F5F5F5F5F5F5F5F5F5F5F5F5F5F5F5F5F5F5F5F5F5F5F5F5F5F5F5F5F5F5F5F5F5F5F5F5F5F5F5F5F5F5F5F5F5F500E2F5F5F5F5F5F5F5F5F5F5F5F5F5F5F5F5F5F5F5F5F5
310
F5F5F5F5F5F5F5F5F5F5F5F5F5F5F5F5F5F5F5F5F5F5F5F5F5F5F5F5F5F5F5F5F5F5F5F5F5F5F5F5F5F5F5F5F5F5F5F5F5F5F5F5F5F5F5F5F5F5F5F5F5F5F5F5F5F5F5F5F5F5F5F5F5F5F5F5F500
  0
XRECORD
  5
2E4C
102
{ACAD_REACTORS
330
2E4B
102
}
330
2E4B
100
AcDbXrecord
280
     1
102
SHADEPLOT
 70
     0
102
SHADEPLOTRESLEVEL
 70
     2
102
SHADEPLOTCUSTOMDPI
 70
   300
  0
XRECORD
  5
2E50
102
{ACAD_REACTORS
330
22D2
102
}
330
22D2
100
AcDbXrecord
280
     1
102
MATERIAL
148
0.0
149
0.0
149
0.0
 93
        0
 94
      127
282
     0
 72
     0
 77
     0
171
     0
175
     0
179
     0
273
     0
  0
XRECORD
  5
22D4
102
{ACAD_REACTORS
330
22D2
102
}
330
22D2
100
AcDbXrecord
280
     1
270
     1
271
     1
  0
XRECORD
  5
22D3
102
{ACAD_REACTORS
330
22D2
102
}
330
22D2
100
AcDbXrecord
280
     1
270
     1
271
     1
  0
XRECORD
  5
22D7
102
{ACAD_REACTORS
330
22D2
102
}
330
22D2
100
AcDbXrecord
280
     1
270
     1
271
     1
  0
XRECORD
  5
22D6
102
{ACAD_REACTORS
330
22D2
102
}
330
22D2
100
AcDbXrecord
280
     1
270
     1
271
     1
  0
XRECORD
  5
22D8
102
{ACAD_REACTORS
330
22D2
102
}
330
22D2
100
AcDbXrecord
280
     1
270
     1
271
     1
  0
XRECORD
  5
22D5
102
{ACAD_REACTORS
330
22D2
102
}
330
22D2
100
AcDbXrecord
280
     1
270
     1
271
     1
  0
XRECORD
  5
2E4F
102
{ACAD_REACTORS
330
22CA
102
}
330
22CA
100
AcDbXrecord
280
     1
102
MATERIAL
148
0.0
149
0.0
149
0.0
 93
        0
 94
      127
282
     0
 72
     0
 77
     0
171
     0
175
     0
179
     0
273
     0
  0
XRECORD
  5
22CC
102
{ACAD_REACTORS
330
22CA
102
}
330
22CA
100
AcDbXrecord
280
     1
270
     1
271
     1
  0
XRECORD
  5
22CB
102
{ACAD_REACTORS
330
22CA
102
}
330
22CA
100
AcDbXrecord
280
     1
270
     1
271
     1
  0
XRECORD
  5
22CF
102
{ACAD_REACTORS
330
22CA
102
}
330
22CA
100
AcDbXrecord
280
     1
270
     1
271
     1
  0
XRECORD
  5
22CE
102
{ACAD_REACTORS
330
22CA
102
}
330
22CA
100
AcDbXrecord
280
     1
270
     1
271
     1
  0
XRECORD
  5
22D0
102
{ACAD_REACTORS
330
22CA
102
}
330
22CA
100
AcDbXrecord
280
     1
270
     1
271
     1
  0
XRECORD
  5
22CD
102
{ACAD_REACTORS
330
22CA
102
}
330
22CA
100
AcDbXrecord
280
     1
270
     1
271
     1
  0
XRECORD
  5
2E51
102
{ACAD_REACTORS
330
22DA
102
}
330
22DA
100
AcDbXrecord
280
     1
102
MATERIAL
148
0.0
149
0.0
149
0.0
 93
        0
 94
      127
282
     0
 72
     0
 77
     0
171
     0
175
     0
179
     0
273
     0
  0
XRECORD
  5
22DC
102
{ACAD_REACTORS
330
22DA
102
}
330
22DA
100
AcDbXrecord
280
     1
270
     1
271
     1
  0
XRECORD
  5
22DB
102
{ACAD_REACTORS
330
22DA
102
}
330
22DA
100
AcDbXrecord
280
     1
270
     1
271
     1
  0
XRECORD
  5
22DF
102
{ACAD_REACTORS
330
22DA
102
}
330
22DA
100
AcDbXrecord
280
     1
270
     1
271
     1
  0
XRECORD
  5
22DE
102
{ACAD_REACTORS
330
22DA
102
}
330
22DA
100
AcDbXrecord
280
     1
270
     1
271
     1
  0
XRECORD
  5
22E0
102
{ACAD_REACTORS
330
22DA
102
}
330
22DA
100
AcDbXrecord
280
     1
270
     1
271
     1
  0
XRECORD
  5
22DD
102
{ACAD_REACTORS
330
22DA
102
}
330
22DA
100
AcDbXrecord
280
     1
270
     1
271
     1
  0
CELLSTYLEMAP
  5
2E47
102
{ACAD_REACTORS
330
24B6
102
}
330
24B6
100
AcDbCellStyleMap
 90
        3
300
CELLSTYLE
  1
TABLEFORMAT_BEGIN
 90
        5
170
     1
 91
        0
 92
    32768
 62
   257
 93
        1
300
CONTENTFORMAT
  1
CONTENTFORMAT_BEGIN
 90
        0
 91
        0
 92
        4
 93
        0
300

 40
0.0
140
1.0
 94
        5
 62
     0
340
F
144
0.25
309
CONTENTFORMAT_END
171
     0
 94
        6
 95
        1
302
GRIDFORMAT
  1
GRIDFORMAT_BEGIN
 90
        0
 91
        1
 62
     0
 92
       -2
340
0
 93
        0
 40
0.045
309
GRIDFORMAT_END
 95
        2
302
GRIDFORMAT
  1
GRIDFORMAT_BEGIN
 90
        0
 91
        1
 62
     0
 92
       -2
340
0
 93
        0
 40
0.045
309
GRIDFORMAT_END
 95
        4
302
GRIDFORMAT
  1
GRIDFORMAT_BEGIN
 90
        0
 91
        1
 62
     0
 92
       -2
340
0
 93
        0
 40
0.045
309
GRIDFORMAT_END
 95
        8
302
GRIDFORMAT
  1
GRIDFORMAT_BEGIN
 90
        0
 91
        1
 62
     0
 92
       -2
340
0
 93
        0
 40
0.045
309
GRIDFORMAT_END
 95
       16
302
GRIDFORMAT
  1
GRIDFORMAT_BEGIN
 90
        0
 91
        1
 62
     0
 92
       -2
340
0
 93
        0
 40
0.045
309
GRIDFORMAT_END
 95
       32
302
GRIDFORMAT
  1
GRIDFORMAT_BEGIN
 90
        0
 91
        1
 62
     0
 92
       -2
340
0
 93
        0
 40
0.045
309
GRIDFORMAT_END
309
TABLEFORMAT_END
  1
CELLSTYLE_BEGIN
 90
        1
 91
        1
300
_TITLE
309
CELLSTYLE_END
300
CELLSTYLE
  1
TABLEFORMAT_BEGIN
 90
        5
170
     1
 91
        0
 92
        0
 62
   257
 93
        1
300
CONTENTFORMAT
  1
CONTENTFORMAT_BEGIN
 90
        0
 91
        0
 92
        4
 93
        0
300

 40
0.0
140
1.0
 94
        5
 62
     0
340
F
144
0.18
309
CONTENTFORMAT_END
171
     0
 94
        6
 95
        1
302
GRIDFORMAT
  1
GRIDFORMAT_BEGIN
 90
        0
 91
        1
 62
     0
 92
       -2
340
0
 93
        0
 40
0.045
309
GRIDFORMAT_END
 95
        2
302
GRIDFORMAT
  1
GRIDFORMAT_BEGIN
 90
        0
 91
        1
 62
     0
 92
       -2
340
0
 93
        0
 40
0.045
309
GRIDFORMAT_END
 95
        4
302
GRIDFORMAT
  1
GRIDFORMAT_BEGIN
 90
        0
 91
        1
 62
     0
 92
       -2
340
0
 93
        0
 40
0.045
309
GRIDFORMAT_END
 95
        8
302
GRIDFORMAT
  1
GRIDFORMAT_BEGIN
 90
        0
 91
        1
 62
     0
 92
       -2
340
0
 93
        0
 40
0.045
309
GRIDFORMAT_END
 95
       16
302
GRIDFORMAT
  1
GRIDFORMAT_BEGIN
 90
        0
 91
        1
 62
     0
 92
       -2
340
0
 93
        0
 40
0.045
309
GRIDFORMAT_END
 95
       32
302
GRIDFORMAT
  1
GRIDFORMAT_BEGIN
 90
        0
 91
        1
 62
     0
 92
       -2
340
0
 93
        0
 40
0.045
309
GRIDFORMAT_END
309
TABLEFORMAT_END
  1
CELLSTYLE_BEGIN
 90
        2
 91
        1
300
_HEADER
309
CELLSTYLE_END
300
CELLSTYLE
  1
TABLEFORMAT_BEGIN
 90
        5
170
     1
 91
        0
 92
        0
 62
   257
 93
        1
300
CONTENTFORMAT
  1
CONTENTFORMAT_BEGIN
 90
        0
 91
        0
 92
        4
 93
        0
300

 40
0.0
140
1.0
 94
        2
 62
     0
340
F
144
0.18
309
CONTENTFORMAT_END
171
     0
 94
        6
 95
        1
302
GRIDFORMAT
  1
GRIDFORMAT_BEGIN
 90
        0
 91
        1
 62
     0
 92
       -2
340
0
 93
        0
 40
0.045
309
GRIDFORMAT_END
 95
        2
302
GRIDFORMAT
  1
GRIDFORMAT_BEGIN
 90
        0
 91
        1
 62
     0
 92
       -2
340
0
 93
        0
 40
0.045
309
GRIDFORMAT_END
 95
        4
302
GRIDFORMAT
  1
GRIDFORMAT_BEGIN
 90
        0
 91
        1
 62
     0
 92
       -2
340
0
 93
        0
 40
0.045
309
GRIDFORMAT_END
 95
        8
302
GRIDFORMAT
  1
GRIDFORMAT_BEGIN
 90
        0
 91
        1
 62
     0
 92
       -2
340
0
 93
        0
 40
0.045
309
GRIDFORMAT_END
 95
       16
302
GRIDFORMAT
  1
GRIDFORMAT_BEGIN
 90
        0
 91
        1
 62
     0
 92
       -2
340
0
 93
        0
 40
0.045
309
GRIDFORMAT_END
 95
       32
302
GRIDFORMAT
  1
GRIDFORMAT_BEGIN
 90
        0
 91
        1
 62
     0
 92
       -2
340
0
 93
        0
 40
0.045
309
GRIDFORMAT_END
309
TABLEFORMAT_END
  1
CELLSTYLE_BEGIN
 90
        3
 91
        2
300
_DATA
309
CELLSTYLE_END
  0
XRECORD
  5
2E4E
102
{ACAD_REACTORS
330
24B6
102
}
330
24B6
100
AcDbXrecord
280
     1
102
ACAD_ROUNDTRIP_PRE2007_TABLESTYLE
 90
        4
 91
        0
  1

 92
        4
 93
        0
  2

 94
        4
 95
        0
  3

  0
ENDSEC
  0
EOF
