  0
SECTION
  2
HEADER
  9
$ACADVER
  1
AC1015
  9
$ACADMAINTVER
 70
    20
  9
$DWGCODEPAGE
  3
ANSI_1252
  9
$INSBASE
 10
0.0
 20
0.0
 30
0.0
  9
$EXTMIN
 10
-1892.069174813973
 20
-1870.065926001116
 30
0.0
  9
$EXTMAX
 10
2551.183942691699
 20
562.3445549205797
 30
0.0
  9
$LIMMIN
 10
0.0
 20
0.0
  9
$LIMMAX
 10
420.0
 20
297.0
  9
$ORTHOMODE
 70
     0
  9
$REGENMODE
 70
     1
  9
$FILLMODE
 70
     1
  9
$QTEXTMODE
 70
     0
  9
$MIRRTEXT
 70
     0
  9
$LTSCALE
 40
1.0
  9
$ATTMODE
 70
     1
  9
$TEXTSIZE
 40
2.5
  9
$TRACEWID
 40
1.0
  9
$TEXTSTYLE
  7
Standard
  9
$CLAYER
  8
KOTIERUNG
  9
$CELTYPE
  6
ByLayer
  9
$CECOLOR
 62
   256
  9
$CELTSCALE
 40
1.0
  9
$DISPSILH
 70
     0
  9
$DIMSCALE
 40
1.0
  9
$DIMASZ
 40
2.5
  9
$DIMEXO
 40
0.625
  9
$DIMDLI
 40
3.75
  9
$DIMRND
 40
0.0
  9
$DIMDLE
 40
0.0
  9
$DIMEXE
 40
1.25
  9
$DIMTP
 40
0.0
  9
$DIMTM
 40
0.0
  9
$DIMTXT
 40
2.5
  9
$DIMCEN
 40
2.5
  9
$DIMTSZ
 40
0.0
  9
$DIMTOL
 70
     0
  9
$DIMLIM
 70
     0
  9
$DIMTIH
 70
     0
  9
$DIMTOH
 70
     0
  9
$DIMSE1
 70
     0
  9
$DIMSE2
 70
     0
  9
$DIMTAD
 70
     1
  9
$DIMZIN
 70
     8
  9
$DIMBLK
  1

  9
$DIMASO
 70
     1
  9
$DIMSHO
 70
     1
  9
$DIMPOST
  1

  9
$DIMAPOST
  1

  9
$DIMALT
 70
     0
  9
$DIMALTD
 70
     3
  9
$DIMALTF
 40
0.03937007874016
  9
$DIMLFAC
 40
1.0
  9
$DIMTOFL
 70
     1
  9
$DIMTVP
 40
0.0
  9
$DIMTIX
 70
     0
  9
$DIMSOXD
 70
     0
  9
$DIMSAH
 70
     0
  9
$DIMBLK1
  1

  9
$DIMBLK2
  1

  9
$DIMSTYLE
  2
ISO-25
  9
$DIMCLRD
 70
     0
  9
$DIMCLRE
 70
     0
  9
$DIMCLRT
 70
     0
  9
$DIMTFAC
 40
1.0
  9
$DIMGAP
 40
0.625
  9
$DIMJUST
 70
     0
  9
$DIMSD1
 70
     0
  9
$DIMSD2
 70
     0
  9
$DIMTOLJ
 70
     0
  9
$DIMTZIN
 70
     8
  9
$DIMALTZ
 70
     0
  9
$DIMALTTZ
 70
     0
  9
$DIMUPT
 70
     0
  9
$DIMDEC
 70
     2
  9
$DIMTDEC
 70
     2
  9
$DIMALTU
 70
     2
  9
$DIMALTTD
 70
     3
  9
$DIMTXSTY
  7
Standard
  9
$DIMAUNIT
 70
     0
  9
$DIMADEC
 70
     0
  9
$DIMALTRND
 40
0.0
  9
$DIMAZIN
 70
     0
  9
$DIMDSEP
 70
    44
  9
$DIMATFIT
 70
     3
  9
$DIMFRAC
 70
     0
  9
$DIMLDRBLK
  1

  9
$DIMLUNIT
 70
     2
  9
$DIMLWD
 70
    -2
  9
$DIMLWE
 70
    -2
  9
$DIMTMOVE
 70
     0
  9
$LUNITS
 70
     2
  9
$LUPREC
 70
     4
  9
$SKETCHINC
 40
1.0
  9
$FILLETRAD
 40
0.0
  9
$AUNITS
 70
     0
  9
$AUPREC
 70
     0
  9
$MENU
  1
.
  9
$ELEVATION
 40
0.0
  9
$PELEVATION
 40
0.0
  9
$THICKNESS
 40
0.0
  9
$LIMCHECK
 70
     0
  9
$CHAMFERA
 40
10.0
  9
$CHAMFERB
 40
10.0
  9
$CHAMFERC
 40
20.0
  9
$CHAMFERD
 40
0.0
  9
$SKPOLY
 70
     0
  9
$TDCREATE
 40
2453488.543225174
  9
$TDUCREATE
 40
2453488.501558507
  9
$TDUPDATE
 40
2453710.453431134
  9
$TDUUPDATE
 40
2453710.411764468
  9
$TDINDWG
 40
0.4047287384
  9
$TDUSRTIMER
 40
0.4047287384
  9
$USRTIMER
 70
     1
  9
$ANGBASE
 50
0.0
  9
$ANGDIR
 70
     0
  9
$PDMODE
 70
     0
  9
$PDSIZE
 40
0.0
  9
$PLINEWID
 40
0.0
  9
$SPLFRAME
 70
     0
  9
$SPLINETYPE
 70
     6
  9
$SPLINESEGS
 70
   500
  9
$HANDSEED
  5
371B
  9
$SURFTAB1
 70
     6
  9
$SURFTAB2
 70
     6
  9
$SURFTYPE
 70
     6
  9
$SURFU
 70
     6
  9
$SURFV
 70
     6
  9
$UCSBASE
  2

  9
$UCSNAME
  2

  9
$UCSORG
 10
0.0
 20
0.0
 30
0.0
  9
$UCSXDIR
 10
1.0
 20
0.0
 30
0.0
  9
$UCSYDIR
 10
0.0
 20
1.0
 30
0.0
  9
$UCSORTHOREF
  2

  9
$UCSORTHOVIEW
 70
     0
  9
$UCSORGTOP
 10
0.0
 20
0.0
 30
0.0
  9
$UCSORGBOTTOM
 10
0.0
 20
0.0
 30
0.0
  9
$UCSORGLEFT
 10
0.0
 20
0.0
 30
0.0
  9
$UCSORGRIGHT
 10
0.0
 20
0.0
 30
0.0
  9
$UCSORGFRONT
 10
0.0
 20
0.0
 30
0.0
  9
$UCSORGBACK
 10
0.0
 20
0.0
 30
0.0
  9
$PUCSBASE
  2

  9
$PUCSNAME
  2

  9
$PUCSORG
 10
0.0
 20
0.0
 30
0.0
  9
$PUCSXDIR
 10
1.0
 20
0.0
 30
0.0
  9
$PUCSYDIR
 10
0.0
 20
1.0
 30
0.0
  9
$PUCSORTHOREF
  2

  9
$PUCSORTHOVIEW
 70
     0
  9
$PUCSORGTOP
 10
0.0
 20
0.0
 30
0.0
  9
$PUCSORGBOTTOM
 10
0.0
 20
0.0
 30
0.0
  9
$PUCSORGLEFT
 10
0.0
 20
0.0
 30
0.0
  9
$PUCSORGRIGHT
 10
0.0
 20
0.0
 30
0.0
  9
$PUCSORGFRONT
 10
0.0
 20
0.0
 30
0.0
  9
$PUCSORGBACK
 10
0.0
 20
0.0
 30
0.0
  9
$USERI1
 70
     0
  9
$USERI2
 70
     0
  9
$USERI3
 70
     0
  9
$USERI4
 70
     0
  9
$USERI5
 70
     0
  9
$USERR1
 40
0.0
  9
$USERR2
 40
0.0
  9
$USERR3
 40
0.0
  9
$USERR4
 40
0.0
  9
$USERR5
 40
0.0
  9
$WORLDVIEW
 70
     1
  9
$SHADEDGE
 70
     3
  9
$SHADEDIF
 70
    70
  9
$TILEMODE
 70
     1
  9
$MAXACTVP
 70
    64
  9
$PINSBASE
 10
0.0
 20
0.0
 30
0.0
  9
$PLIMCHECK
 70
     0
  9
$PEXTMIN
 10
1.000000000000000E+20
 20
1.000000000000000E+20
 30
1.000000000000000E+20
  9
$PEXTMAX
 10
-1.000000000000000E+20
 20
-1.000000000000000E+20
 30
-1.000000000000000E+20
  9
$PLIMMIN
 10
-6.805083274841308
 20
-5.535083293914794
  9
$PLIMMAX
 10
203.1682443618775
 20
291.3909115791321
  9
$UNITMODE
 70
     0
  9
$VISRETAIN
 70
     1
  9
$PLINEGEN
 70
     0
  9
$PSLTSCALE
 70
     1
  9
$TREEDEPTH
 70
  3020
  9
$CMLSTYLE
  2
Standard
  9
$CMLJUST
 70
     0
  9
$CMLSCALE
 40
20.0
  9
$PROXYGRAPHICS
 70
     1
  9
$MEASUREMENT
 70
     1
  9
$CELWEIGHT
370
    -1
  9
$ENDCAPS
280
     0
  9
$JOINSTYLE
280
     0
  9
$LWDISPLAY
290
     0
  9
$INSUNITS
 70
     4
  9
$HYPERLINKBASE
  1

  9
$STYLESHEET
  1

  9
$XEDIT
290
     1
  9
$CEPSNTYPE
380
     0
  9
$PSTYLEMODE
290
     1
  9
$FINGERPRINTGUID
  2
{FDEAD578-A652-11D2-9A35-0060089B3A3F}
  9
$VERSIONGUID
  2
{F38884E6-2E4C-44D6-936D-93E75FC986F0}
  9
$EXTNAMES
290
     1
  9
$PSVPSCALE
 40
0.0
  9
$OLESTARTUP
290
     0
  0
ENDSEC
  0
SECTION
  2
CLASSES
  0
CLASS
  1
ACDBDICTIONARYWDFLT
  2
AcDbDictionaryWithDefault
  3
ObjectDBX Classes
 90
        0
280
     0
281
     0
  0
CLASS
  1
DICTIONARYVAR
  2
AcDbDictionaryVar
  3
ObjectDBX Classes
 90
        0
280
     0
281
     0
  0
CLASS
  1
DIMASSOC
  2
AcDbDimAssoc
  3
"AcDbDimAssoc|Product Desc:     AcDim ARX App For Dimension|Company:          Autodesk, Inc.|WEB Address:      www.autodesk.com"
 90
        0
280
     0
281
     0
  0
CLASS
  1
RASTERVARIABLES
  2
AcDbRasterVariables
  3
ISM
 90
        0
280
     0
281
     0
  0
CLASS
  1
IMAGEDEF
  2
AcDbRasterImageDef
  3
ISM
 90
        0
280
     0
281
     0
  0
CLASS
  1
IMAGEDEF_REACTOR
  2
AcDbRasterImageDefReactor
  3
ISM
 90
    32769
280
     0
281
     0
  0
CLASS
  1
IMAGE
  2
AcDbRasterImage
  3
ISM
 90
    32895
280
     0
281
     1
  0
CLASS
  1
ACDBPLACEHOLDER
  2
AcDbPlaceHolder
  3
ObjectDBX Classes
 90
        0
280
     0
281
     0
  0
CLASS
  1
LAYOUT
  2
AcDbLayout
  3
ObjectDBX Classes
 90
        0
280
     0
281
     0
  0
CLASS
  1
TABLESTYLE
  2
AcDbTableStyle
  3
ObjectDBX Classes
 90
     2047
280
     0
281
     0
  0
ENDSEC
  0
SECTION
  2
TABLES
  0
TABLE
  2
VPORT
  5
8
330
0
100
AcDbSymbolTable
 70
     2
  0
VPORT
  5
3712
330
8
100
AcDbSymbolTableRecord
100
AcDbViewportTableRecord
  2
*Active
 70
     0
 10
0.0
 20
0.0
 11
1.0
 21
1.0
 12
773.671284388287
 22
-653.9280072273686
 13
0.0
 23
0.0
 14
10.0
 24
10.0
 15
10.0
 25
10.0
 16
0.0
 26
0.0
 36
1.0
 17
0.0
 27
0.0
 37
0.0
 40
3372.992901506988
 41
1.289855072463768
 42
50.0
 43
0.0
 44
0.0
 50
0.0
 51
0.0
 71
     0
 72
  1000
 73
     1
 74
     3
 75
     0
 76
     0
 77
     0
 78
     0
281
     0
 65
     1
110
0.0
120
0.0
130
0.0
111
1.0
121
0.0
131
0.0
112
0.0
122
1.0
132
0.0
 79
     0
146
0.0
  0
ENDTAB
  0
TABLE
  2
LTYPE
  5
5
330
0
100
AcDbSymbolTable
 70
     3
  0
LTYPE
  5
14
330
5
100
AcDbSymbolTableRecord
100
AcDbLinetypeTableRecord
  2
ByBlock
 70
     0
  3

 72
    65
 73
     0
 40
0.0
  0
LTYPE
  5
15
330
5
100
AcDbSymbolTableRecord
100
AcDbLinetypeTableRecord
  2
ByLayer
 70
     0
  3

 72
    65
 73
     0
 40
0.0
  0
LTYPE
  5
16
330
5
100
AcDbSymbolTableRecord
100
AcDbLinetypeTableRecord
  2
Continuous
 70
     0
  3
Solid line
 72
    65
 73
     0
 40
0.0
  0
LTYPE
  5
86
330
5
100
AcDbSymbolTableRecord
100
AcDbLinetypeTableRecord
  2
STRICHPUNKT
 70
     0
  3
Strichpunkt __ . __ . __ . __ . __ . __ . __ . 
 72
    65
 73
     4
 40
1.0
 49
0.5
 74
     0
 49
-0.25
 74
     0
 49
0.0
 74
     0
 49
-0.25
 74
     0
  0
LTYPE
  5
844
330
5
100
AcDbSymbolTableRecord
100
AcDbLinetypeTableRecord
  2
STRICHLINIE
 70
     0
  3
Strichlinie __ __ __ __ __ __ __ __ __ __ __ __
 72
    65
 73
     2
 40
19.05
 49
12.7
 74
     0
 49
-6.349999999999999
 74
     0
  0
ENDTAB
  0
TABLE
  2
LAYER
  5
2
330
0
100
AcDbSymbolTable
 70
     7
  0
LAYER
  5
10
330
2
100
AcDbSymbolTableRecord
100
AcDbLayerTableRecord
  2
0
 70
     0
 62
     7
  6
Continuous
370
    -3
390
F
  0
LAYER
  5
87
330
2
100
AcDbSymbolTableRecord
100
AcDbLayerTableRecord
  2
18
 70
     0
 62
     1
  6
Continuous
370
    -3
390
F
  0
LAYER
  5
89
330
2
100
AcDbSymbolTableRecord
100
AcDbLayerTableRecord
  2
KOTIERUNG
 70
     0
 62
     7
  6
Continuous
370
    -3
390
F
  0
LAYER
  5
241
330
2
100
AcDbSymbolTableRecord
100
AcDbLayerTableRecord
  2
DEFPOINTS
 70
     0
 62
     7
  6
Continuous
290
     0
370
    -3
390
F
  0
LAYER
  5
242
330
2
100
AcDbSymbolTableRecord
100
AcDbLayerTableRecord
  2
50
 70
     0
 62
    33
  6
Continuous
370
    -3
390
F
  0
LAYER
  5
12C2
330
2
100
AcDbSymbolTableRecord
100
AcDbLayerTableRecord
  2
35
 70
     0
 62
     2
  6
Continuous
370
    -3
390
F
  0
LAYER
  5
1653
330
2
100
AcDbSymbolTableRecord
100
AcDbLayerTableRecord
  2
25
 70
     0
 62
     7
  6
Continuous
370
    -3
390
F
  0
ENDTAB
  0
TABLE
  2
STYLE
  5
3
330
0
100
AcDbSymbolTable
 70
     3
  0
STYLE
  5
11
330
3
100
AcDbSymbolTableRecord
100
AcDbTextStyleTableRecord
  2
Standard
 70
     0
 40
0.0
 41
1.0
 50
0.0
 71
     0
 42
2.5
  3
txt
  4

  0
STYLE
  5
8A
330
3
100
AcDbSymbolTableRecord
100
AcDbTextStyleTableRecord
  2
VOEST
 70
     0
 40
0.0
 41
1.0
 50
0.0
 71
     0
 42
35.0
  3
ARIALN.TTF
  4

1001
ACAD
1000
Arial Narrow
1071
       34
  0
STYLE
  5
243
330
3
100
AcDbSymbolTableRecord
100
AcDbTextStyleTableRecord
  2
STYLE1
 70
     0
 40
0.0
 41
1.0
 50
0.0
 71
     0
 42
15.0
  3
ARIALN.TTF
  4

1001
ACAD
1000
Arial Narrow
1071
       34
  0
ENDTAB
  0
TABLE
  2
VIEW
  5
6
330
0
100
AcDbSymbolTable
 70
     0
  0
ENDTAB
  0
TABLE
  2
UCS
  5
7
330
0
100
AcDbSymbolTable
 70
     0
  0
ENDTAB
  0
TABLE
  2
APPID
  5
9
330
0
100
AcDbSymbolTable
 70
     1
  0
APPID
  5
12
330
9
100
AcDbSymbolTableRecord
100
AcDbRegAppTableRecord
  2
ACAD
 70
     0
  0
ENDTAB
  0
TABLE
  2
DIMSTYLE
  5
A
330
0
100
AcDbSymbolTable
 70
     4
100
AcDbDimStyleTable
 71
     3
340
172E
340
27
340
22EF
  0
DIMSTYLE
105
27
330
A
100
AcDbSymbolTableRecord
100
AcDbDimStyleTableRecord
  2
ISO-25
 70
     0
 41
2.5
 42
0.625
 43
3.75
 44
1.25
 73
     0
 74
     0
 77
     1
 78
     8
140
2.5
141
2.5
143
0.03937007874016
147
0.625
171
     3
172
     1
271
     2
272
     2
274
     3
278
    44
283
     0
284
     8
340
11
  0
DIMSTYLE
105
245
330
A
100
AcDbSymbolTableRecord
100
AcDbDimStyleTableRecord
  2
STANDARD
 70
     0
 40
5.0
 41
2.5
 42
5.0
 43
5.0
 44
1.25
 73
     0
 74
     0
 77
     1
 78
    12
140
2.5
141
2.5
143
0.0394
147
0.625
171
     4
172
     1
271
     0
272
     1
273
     8
274
     4
340
243
  0
DIMSTYLE
105
172E
102
{ACAD_REACTORS
330
186C
330
1674
330
1737
330
18A8
330
355D
330
357E
102
}
330
A
100
AcDbSymbolTableRecord
100
AcDbDimStyleTableRecord
  2
TYPENBLATT_M10
 70
     0
 40
142.85
 41
0.25
 42
0.5
 43
0.5
 44
0.25
 73
     0
 74
     0
 77
     1
140
0.25
147
0.075
271
     0
272
     0
340
8A
  0
DIMSTYLE
105
22EF
102
{ACAD_REACTORS
330
28B4
102
}
330
A
100
AcDbSymbolTableRecord
100
AcDbDimStyleTableRecord
  2
TYPENBLATT_M50
 70
     0
 40
666.666
 41
0.25
 42
0.1
 43
0.5
 44
0.25
 73
     0
 74
     0
 77
     1
140
0.25
147
0.075
271
     0
272
     0
340
8A
  0
ENDTAB
  0
TABLE
  2
BLOCK_RECORD
  5
1
330
0
100
AcDbSymbolTable
 70
     7
  0
BLOCK_RECORD
  5
1F
330
1
100
AcDbSymbolTableRecord
100
AcDbBlockTableRecord
  2
*Model_Space
340
22
  0
BLOCK_RECORD
  5
32DA
330
1
100
AcDbSymbolTableRecord
100
AcDbBlockTableRecord
  2
*Paper_Space
340
32FE
  0
BLOCK_RECORD
  5
1675
330
1
100
AcDbSymbolTableRecord
100
AcDbBlockTableRecord
  2
*D0
340
0
  0
BLOCK_RECORD
  5
1738
330
1
100
AcDbSymbolTableRecord
100
AcDbBlockTableRecord
  2
*D1
340
0
  0
BLOCK_RECORD
  5
186D
330
1
100
AcDbSymbolTableRecord
100
AcDbBlockTableRecord
  2
*D2
340
0
  0
BLOCK_RECORD
  5
18A9
330
1
100
AcDbSymbolTableRecord
100
AcDbBlockTableRecord
  2
*D3
340
0
  0
BLOCK_RECORD
  5
28B5
330
1
100
AcDbSymbolTableRecord
100
AcDbBlockTableRecord
  2
*D4
340
0
  0
BLOCK_RECORD
  5
355E
330
1
100
AcDbSymbolTableRecord
100
AcDbBlockTableRecord
  2
*D5
340
0
  0
BLOCK_RECORD
  5
357F
330
1
100
AcDbSymbolTableRecord
100
AcDbBlockTableRecord
  2
*D6
340
0
  0
ENDTAB
  0
ENDSEC
  0
SECTION
  2
BLOCKS
  0
BLOCK
  5
20
330
1F
100
AcDbEntity
  8
0
100
AcDbBlockBegin
  2
*Model_Space
 70
     0
 10
0.0
 20
0.0
 30
0.0
  3
*Model_Space
  1

  0
ENDBLK
  5
21
330
1F
100
AcDbEntity
  8
0
100
AcDbBlockEnd
  0
BLOCK
  5
32DB
330
32DA
100
AcDbEntity
 67
     1
  8
0
100
AcDbBlockBegin
  2
*Paper_Space
 70
     0
 10
0.0
 20
0.0
 30
0.0
  3
*Paper_Space
  1

  0
ENDBLK
  5
32FD
330
32DA
100
AcDbEntity
 67
     1
  8
0
100
AcDbBlockEnd
  0
BLOCK
  5
167F
330
1675
100
AcDbEntity
  8
0
100
AcDbBlockBegin
  2
*D0
 70
     1
 10
0.0
 20
0.0
 30
0.0
  3
*D0
  1

  0
LINE
  5
365B
330
1675
100
AcDbEntity
  8
0
 62
     0
370
    -2
100
AcDbLine
 10
257.3874388588561
 20
427.6301451281478
 30
0.0
 11
547.5193867592597
 21
427.6301451281478
 31
0.0
  0
LINE
  5
365C
330
1675
100
AcDbEntity
  8
0
 62
     0
370
    -2
100
AcDbLine
 10
488.1052458632941
 20
362.6301451281489
 30
0.0
 11
547.5193867592597
 21
362.6301451281489
 31
0.0
  0
LINE
  5
365D
330
1675
100
AcDbEntity
  8
0
 62
     0
370
    -2
100
AcDbLine
 10
515.0193867592597
 20
460.1301451281478
 30
0.0
 11
515.0193867592597
 21
492.6301451281477
 31
0.0
  0
LINE
  5
365E
330
1675
100
AcDbEntity
  8
0
 62
     0
370
    -2
100
AcDbLine
 10
515.0193867592597
 20
330.1301451281489
 30
0.0
 11
515.0193867592597
 21
297.6301451281489
 31
0.0
  0
SOLID
  5
365F
330
1675
100
AcDbEntity
  8
0
 62
     0
100
AcDbTrace
 10
509.602720092593
 20
460.1301451281478
 30
0.0
 11
520.4360534259263
 21
460.1301451281478
 31
0.0
 12
515.0193867592597
 22
427.6301451281478
 32
0.0
 13
515.0193867592597
 23
427.6301451281478
 33
0.0
  0
SOLID
  5
3660
330
1675
100
AcDbEntity
  8
0
 62
     0
100
AcDbTrace
 10
509.602720092593
 20
330.1301451281489
 30
0.0
 11
520.4360534259263
 21
330.1301451281489
 31
0.0
 12
515.0193867592597
 22
362.6301451281489
 32
0.0
 13
515.0193867592597
 23
362.6301451281489
 33
0.0
  0
MTEXT
  5
3661
330
1675
100
AcDbEntity
  8
0
 62
     0
100
AcDbMText
 10
488.6757646583046
 20
395.1301451281484
 30
0.0
 40
32.5
 41
0.0
 71
     5
 72
     1
  1
\A1;65
  7
VOEST
 11
0.0000000000000001
 21
1.0
 31
0.0
 73
     1
 44
1.0
1001
ACAD
1000
MTEXTBEGIN
1070
    73
1070
     1
1070
    44
1040
1.0
1070
    74
1070
     0
1000
MTEXTEND
  0
POINT
  5
3662
330
1675
100
AcDbEntity
  8
DEFPOINTS
 62
     0
100
AcDbPoint
 10
192.3874388588561
 20
427.6301451281478
 30
0.0
  0
POINT
  5
3663
330
1675
100
AcDbEntity
  8
DEFPOINTS
 62
     0
100
AcDbPoint
 10
423.1052458632941
 20
362.6301451281489
 30
0.0
  0
POINT
  5
3664
330
1675
100
AcDbEntity
  8
DEFPOINTS
 62
     0
100
AcDbPoint
 10
515.0193867592597
 20
362.6301451281489
 30
0.0
  0
ENDBLK
  5
1680
330
1675
100
AcDbEntity
  8
0
100
AcDbBlockEnd
  0
BLOCK
  5
1742
330
1738
100
AcDbEntity
  8
0
100
AcDbBlockBegin
  2
*D1
 70
     1
 10
0.0
 20
0.0
 30
0.0
  3
*D1
  1

  0
LINE
  5
344B
330
1738
100
AcDbEntity
  8
0
 62
     0
370
    -2
100
AcDbLine
 10
488.105245863294
 20
362.6301451281489
 30
0.0
 11
547.5193867592596
 21
362.6301451281489
 31
0.0
  0
LINE
  5
344C
330
1738
100
AcDbEntity
  8
0
 62
     0
370
    -2
100
AcDbLine
 10
488.105245863294
 20
-322.369854871852
 30
0.0
 11
547.5193867592594
 21
-322.369854871852
 31
0.0
  0
LINE
  5
344D
330
1738
100
AcDbEntity
  8
0
 62
     0
370
    -2
100
AcDbLine
 10
515.0193867592596
 20
330.1301451281489
 30
0.0
 11
515.0193867592594
 21
-289.869854871852
 31
0.0
  0
SOLID
  5
344E
330
1738
100
AcDbEntity
  8
0
 62
     0
100
AcDbTrace
 10
509.6027200925929
 20
330.1301451281489
 30
0.0
 11
520.4360534259262
 21
330.1301451281489
 31
0.0
 12
515.0193867592596
 22
362.6301451281489
 32
0.0
 13
515.0193867592596
 23
362.6301451281489
 33
0.0
  0
SOLID
  5
344F
330
1738
100
AcDbEntity
  8
0
 62
     0
100
AcDbTrace
 10
509.6027200925927
 20
-289.869854871852
 30
0.0
 11
520.436053425926
 21
-289.869854871852
 31
0.0
 12
515.0193867592594
 22
-322.369854871852
 32
0.0
 13
515.0193867592594
 23
-322.369854871852
 33
0.0
  0
MTEXT
  5
3450
330
1738
100
AcDbEntity
  8
0
 62
     0
100
AcDbMText
 10
488.6757646583046
 20
20.13014512814854
 30
0.0
 40
32.5
 41
0.0
 71
     5
 72
     1
  1
\A1;685
  7
VOEST
 11
0.0000000000000001
 21
1.0
 31
0.0
 73
     1
 44
1.0
1001
ACAD
1000
MTEXTBEGIN
1070
    73
1070
     1
1070
    44
1040
1.0
1070
    74
1070
     0
1000
MTEXTEND
  0
POINT
  5
3451
330
1738
100
AcDbEntity
  8
DEFPOINTS
 62
     0
100
AcDbPoint
 10
423.105245863294
 20
362.6301451281489
 30
0.0
  0
POINT
  5
3452
330
1738
100
AcDbEntity
  8
DEFPOINTS
 62
     0
100
AcDbPoint
 10
423.105245863294
 20
-322.369854871852
 30
0.0
  0
POINT
  5
3453
330
1738
100
AcDbEntity
  8
DEFPOINTS
 62
     0
100
AcDbPoint
 10
515.0193867592594
 20
-322.369854871852
 30
0.0
  0
ENDBLK
  5
1743
330
1738
100
AcDbEntity
  8
0
100
AcDbBlockEnd
  0
BLOCK
  5
1877
330
186D
100
AcDbEntity
  8
0
100
AcDbBlockBegin
  2
*D2
 70
     1
 10
0.0
 20
0.0
 30
0.0
  3
*D2
  1

  0
LINE
  5
3665
330
186D
100
AcDbEntity
  8
0
 62
     0
370
    -2
100
AcDbLine
 10
127.3874388588561
 20
427.6301451281478
 30
0.0
 11
-169.6191023717512
 21
427.6301451281479
 31
0.0
  0
LINE
  5
3666
330
186D
100
AcDbEntity
  8
0
 62
     0
370
    -2
100
AcDbLine
 10
-65.0
 20
-322.3698548718521
 30
0.0
 11
-169.6191023717514
 21
-322.3698548718521
 31
0.0
  0
LINE
  5
3667
330
186D
100
AcDbEntity
  8
0
 62
     0
370
    -2
100
AcDbLine
 10
-137.1191023717513
 20
395.130145128148
 30
0.0
 11
-137.1191023717514
 21
-289.869854871852
 31
0.0
  0
SOLID
  5
3668
330
186D
100
AcDbEntity
  8
0
 62
     0
100
AcDbTrace
 10
-142.5357690384179
 20
395.130145128148
 30
0.0
 11
-131.7024357050846
 21
395.130145128148
 31
0.0
 12
-137.1191023717513
 22
427.6301451281479
 32
0.0
 13
-137.1191023717513
 23
427.6301451281479
 33
0.0
  0
SOLID
  5
3669
330
186D
100
AcDbEntity
  8
0
 62
     0
100
AcDbTrace
 10
-142.5357690384181
 20
-289.869854871852
 30
0.0
 11
-131.7024357050847
 21
-289.869854871852
 31
0.0
 12
-137.1191023717514
 22
-322.3698548718521
 32
0.0
 13
-137.1191023717514
 23
-322.3698548718521
 33
0.0
  0
MTEXT
  5
366A
330
186D
100
AcDbEntity
  8
0
 62
     0
100
AcDbMText
 10
-163.4627244727063
 20
52.63014512814789
 30
0.0
 40
32.5
 41
0.0
 71
     5
 72
     1
  1
\A1;750±40
  7
VOEST
 11
0.0000000000000001
 21
1.0
 31
0.0
 73
     1
 44
1.0
1001
ACAD
1000
MTEXTBEGIN
1070
    73
1070
     1
1070
    44
1040
1.0
1070
    74
1070
     0
1000
MTEXTEND
  0
POINT
  5
366B
330
186D
100
AcDbEntity
  8
DEFPOINTS
 62
     0
100
AcDbPoint
 10
192.3874388588561
 20
427.6301451281478
 30
0.0
  0
POINT
  5
366C
330
186D
100
AcDbEntity
  8
DEFPOINTS
 62
     0
100
AcDbPoint
 10
0.0
 20
-322.3698548718521
 30
0.0
  0
POINT
  5
366D
330
186D
100
AcDbEntity
  8
DEFPOINTS
 62
     0
100
AcDbPoint
 10
-137.1191023717514
 20
-322.3698548718521
 30
0.0
  0
ENDBLK
  5
1878
330
186D
100
AcDbEntity
  8
0
100
AcDbBlockEnd
  0
BLOCK
  5
18B3
330
18A9
100
AcDbEntity
  8
0
100
AcDbBlockBegin
  2
*D3
 70
     1
 10
0.0
 20
0.0
 30
0.0
  3
*D3
  1

  0
LINE
  5
3415
330
18A9
100
AcDbEntity
  8
0
 62
     0
370
    -2
100
AcDbLine
 10
123.1052458632952
 20
305.1787126547307
 30
0.0
 11
123.1052458632952
 21
-10.04096117643439
 31
0.0
  0
LINE
  5
3416
330
18A9
100
AcDbEntity
  8
0
 62
     0
370
    -2
100
AcDbLine
 10
283.1052458632937
 20
32.63014512814943
 30
0.0
 11
283.1052458632937
 21
54.95903882356561
 31
0.0
  0
LINE
  5
3417
330
18A9
100
AcDbEntity
  8
0
 62
     0
370
    -2
100
AcDbLine
 10
155.6052458632952
 20
22.45903882356561
 30
0.0
 11
250.6052458632937
 21
22.45903882356561
 31
0.0
  0
SOLID
  5
3418
330
18A9
100
AcDbEntity
  8
0
 62
     0
100
AcDbTrace
 10
155.6052458632952
 20
27.87570549023227
 30
0.0
 11
155.6052458632952
 21
17.04237215689894
 31
0.0
 12
123.1052458632952
 22
22.45903882356561
 32
0.0
 13
123.1052458632952
 23
22.45903882356561
 33
0.0
  0
SOLID
  5
3419
330
18A9
100
AcDbEntity
  8
0
 62
     0
100
AcDbTrace
 10
250.6052458632937
 20
27.87570549023227
 30
0.0
 11
250.6052458632937
 21
17.04237215689894
 31
0.0
 12
283.1052458632937
 22
22.45903882356561
 32
0.0
 13
283.1052458632937
 23
22.45903882356561
 33
0.0
  0
MTEXT
  5
341A
330
18A9
100
AcDbEntity
  8
0
 62
     0
100
AcDbMText
 10
203.1052458632945
 20
48.80266092452059
 30
0.0
 40
32.5
 41
0.0
 71
     5
 72
     1
  1
\A1;160
  7
VOEST
 73
     1
 44
1.0
1001
ACAD
1000
MTEXTBEGIN
1070
    73
1070
     1
1070
    44
1040
1.0
1070
    74
1070
     0
1000
MTEXTEND
  0
POINT
  5
341B
330
18A9
100
AcDbEntity
  8
DEFPOINTS
 62
     0
100
AcDbPoint
 10
123.1052458632952
 20
370.1787126547307
 30
0.0
  0
POINT
  5
341C
330
18A9
100
AcDbEntity
  8
DEFPOINTS
 62
     0
100
AcDbPoint
 10
283.1052458632937
 20
-32.36985487185058
 30
0.0
  0
POINT
  5
341D
330
18A9
100
AcDbEntity
  8
DEFPOINTS
 62
     0
100
AcDbPoint
 10
283.1052458632937
 20
22.45903882356561
 30
0.0
  0
ENDBLK
  5
18B4
330
18A9
100
AcDbEntity
  8
0
100
AcDbBlockEnd
  0
BLOCK
  5
28BF
330
28B5
100
AcDbEntity
  8
0
100
AcDbBlockBegin
  2
*D4
 70
     1
 10
0.0
 20
0.0
 30
0.0
  3
*D4
  1

  0
LINE
  5
36D2
330
28B5
100
AcDbEntity
  8
0
 62
     0
370
    -2
100
AcDbLine
 10
2229.338576675829
 20
-1655.065926001119
 30
0.0
 11
2229.338576675829
 21
-1300.618160864222
 31
0.0
  0
LINE
  5
36D3
330
28B5
100
AcDbEntity
  8
0
 62
     0
370
    -2
100
AcDbLine
 10
-1570.661423324171
 20
-1655.065926001119
 30
0.0
 11
-1570.661423324171
 21
-1300.618160864222
 31
0.0
  0
LINE
  5
36D4
330
28B5
100
AcDbEntity
  8
0
 62
     0
370
    -2
100
AcDbLine
 10
2104.338576675829
 20
-1425.618160864222
 30
0.0
 11
-1445.661423324171
 21
-1425.618160864222
 31
0.0
  0
SOLID
  5
36D5
330
28B5
100
AcDbEntity
  8
0
 62
     0
100
AcDbTrace
 10
2104.338576675829
 20
-1404.784827530888
 30
0.0
 11
2104.338576675829
 21
-1446.451494197555
 31
0.0
 12
2229.338576675829
 22
-1425.618160864222
 32
0.0
 13
2229.338576675829
 23
-1425.618160864222
 33
0.0
  0
SOLID
  5
36D6
330
28B5
100
AcDbEntity
  8
0
 62
     0
100
AcDbTrace
 10
-1445.661423324171
 20
-1404.784827530888
 30
0.0
 11
-1445.661423324171
 21
-1446.451494197555
 31
0.0
 12
-1570.661423324171
 22
-1425.618160864222
 32
0.0
 13
-1570.661423324171
 23
-1425.618160864222
 33
0.0
  0
MTEXT
  5
36D7
330
28B5
100
AcDbEntity
  8
0
 62
     0
100
AcDbMText
 10
329.3385766758293
 20
-1324.29653739901
 30
0.0
 40
125.0
 41
0.0
 71
     5
 72
     1
  1
\A1;3800±9
  7
VOEST
 73
     1
 44
1.0
1001
ACAD
1000
MTEXTBEGIN
1070
    73
1070
     1
1070
    44
1040
1.0
1070
    74
1070
     0
1000
MTEXTEND
  0
POINT
  5
36D8
330
28B5
100
AcDbEntity
  8
DEFPOINTS
 62
     0
100
AcDbPoint
 10
2229.338576675829
 20
-1705.06592600112
 30
0.0
  0
POINT
  5
36D9
330
28B5
100
AcDbEntity
  8
DEFPOINTS
 62
     0
100
AcDbPoint
 10
-1570.661423324171
 20
-1705.06592600112
 30
0.0
  0
POINT
  5
36DA
330
28B5
100
AcDbEntity
  8
DEFPOINTS
 62
     0
100
AcDbPoint
 10
-1570.661423324171
 20
-1425.618160864222
 30
0.0
  0
ENDBLK
  5
28C0
330
28B5
100
AcDbEntity
  8
0
100
AcDbBlockEnd
  0
BLOCK
  5
3568
330
355E
100
AcDbEntity
  8
0
100
AcDbBlockBegin
  2
*D5
 70
     1
 10
0.0
 20
0.0
 30
0.0
  3
*D5
  1

  0
LINE
  5
366E
330
355E
100
AcDbEntity
  8
0
 62
     0
370
    -2
100
AcDbLine
 10
423.1052458632941
 20
377.9936214819245
 30
0.0
 11
423.1052458632941
 21
542.6184294089835
 31
0.0
  0
LINE
  5
366F
330
355E
100
AcDbEntity
  8
0
 62
     0
370
    -2
100
AcDbLine
 10
123.1052458632952
 20
435.1787126547306
 30
0.0
 11
123.1052458632953
 21
542.6184294089835
 31
0.0
  0
LINE
  5
3670
330
355E
100
AcDbEntity
  8
0
 62
     0
370
    -2
100
AcDbLine
 10
390.6052458632942
 20
510.1184294089835
 30
0.0
 11
155.6052458632953
 21
510.1184294089835
 31
0.0
  0
SOLID
  5
3671
330
355E
100
AcDbEntity
  8
0
 62
     0
100
AcDbTrace
 10
390.6052458632942
 20
515.5350960756501
 30
0.0
 11
390.6052458632942
 21
504.7017627423167
 31
0.0
 12
423.1052458632941
 22
510.1184294089835
 32
0.0
 13
423.1052458632941
 23
510.1184294089835
 33
0.0
  0
SOLID
  5
3672
330
355E
100
AcDbEntity
  8
0
 62
     0
100
AcDbTrace
 10
155.6052458632953
 20
515.5350960756501
 30
0.0
 11
155.6052458632953
 21
504.7017627423167
 31
0.0
 12
123.1052458632953
 22
510.1184294089835
 32
0.0
 13
123.1052458632953
 23
510.1184294089835
 33
0.0
  0
MTEXT
  5
3673
330
355E
100
AcDbEntity
  8
0
 62
     0
100
AcDbMText
 10
273.1052458632947
 20
536.4620515099385
 30
0.0
 40
32.5
 41
0.0
 71
     5
 72
     1
  1
\A1;300
  7
VOEST
 73
     1
 44
1.0
1001
ACAD
1000
MTEXTBEGIN
1070
    73
1070
     1
1070
    44
1040
1.0
1070
    74
1070
     0
1000
MTEXTEND
  0
POINT
  5
3674
330
355E
100
AcDbEntity
  8
DEFPOINTS
 62
     0
100
AcDbPoint
 10
423.1052458632941
 20
312.9936214819245
 30
0.0
  0
POINT
  5
3675
330
355E
100
AcDbEntity
  8
DEFPOINTS
 62
     0
100
AcDbPoint
 10
123.1052458632952
 20
370.1787126547307
 30
0.0
  0
POINT
  5
3676
330
355E
100
AcDbEntity
  8
DEFPOINTS
 62
     0
100
AcDbPoint
 10
123.1052458632953
 20
510.1184294089835
 30
0.0
  0
ENDBLK
  5
3569
330
355E
100
AcDbEntity
  8
0
100
AcDbBlockEnd
  0
BLOCK
  5
3589
330
357F
100
AcDbEntity
  8
0
100
AcDbBlockBegin
  2
*D6
 70
     1
 10
0.0
 20
0.0
 30
0.0
  3
*D6
  1

  0
LINE
  5
3596
330
357F
100
AcDbEntity
  8
0
 62
     0
370
    -2
100
AcDbLine
 10
283.1052458632937
 20
-32.36985487185058
 30
0.0
 11
283.1052458632937
 21
-10.04096117643434
 31
0.0
  0
LINE
  5
3597
330
357F
100
AcDbEntity
  8
0
 62
     0
370
    -2
100
AcDbLine
 10
423.1052458632939
 20
-32.36985487185066
 30
0.0
 11
423.1052458632939
 21
-10.04096117643434
 31
0.0
  0
LINE
  5
3598
330
357F
100
AcDbEntity
  8
0
 62
     0
370
    -2
100
AcDbLine
 10
315.6052458632937
 20
22.45903882356566
 30
0.0
 11
390.605245863294
 21
22.45903882356566
 31
0.0
  0
SOLID
  5
3599
330
357F
100
AcDbEntity
  8
0
 62
     0
100
AcDbTrace
 10
315.6052458632937
 20
27.87570549023232
 30
0.0
 11
315.6052458632937
 21
17.04237215689899
 31
0.0
 12
283.1052458632937
 22
22.45903882356566
 32
0.0
 13
283.1052458632937
 23
22.45903882356566
 33
0.0
  0
SOLID
  5
359A
330
357F
100
AcDbEntity
  8
0
 62
     0
100
AcDbTrace
 10
390.605245863294
 20
27.87570549023232
 30
0.0
 11
390.605245863294
 21
17.04237215689899
 31
0.0
 12
423.1052458632939
 22
22.45903882356566
 32
0.0
 13
423.1052458632939
 23
22.45903882356566
 33
0.0
  0
MTEXT
  5
359B
330
357F
100
AcDbEntity
  8
0
 62
     0
100
AcDbMText
 10
353.1052458632938
 20
48.80266092452064
 30
0.0
 40
32.5
 41
0.0
 71
     5
 72
     1
  1
\A1;140
  7
VOEST
 73
     1
 44
1.0
1001
ACAD
1000
MTEXTBEGIN
1070
    73
1070
     1
1070
    44
1040
1.0
1070
    74
1070
     0
1000
MTEXTEND
  0
POINT
  5
359C
330
357F
100
AcDbEntity
  8
DEFPOINTS
 62
     0
100
AcDbPoint
 10
283.1052458632937
 20
32.63014512814943
 30
0.0
  0
POINT
  5
359D
330
357F
100
AcDbEntity
  8
DEFPOINTS
 62
     0
100
AcDbPoint
 10
423.1052458632939
 20
32.63014512814935
 30
0.0
  0
POINT
  5
359E
330
357F
100
AcDbEntity
  8
DEFPOINTS
 62
     0
100
AcDbPoint
 10
423.1052458632939
 20
22.45903882356566
 30
0.0
  0
ENDBLK
  5
358A
330
357F
100
AcDbEntity
  8
0
100
AcDbBlockEnd
  0
ENDSEC
  0
SECTION
  2
ENTITIES
  0
LINE
  5
85F
330
1F
100
AcDbEntity
  8
18
  6
STRICHLINIE
 48
0.3
100
AcDbLine
 10
288.105245863294
 20
-62.36985487185075
 30
0.0
 11
283.1052458632939
 21
-62.36985487185069
 31
0.0
  0
LINE
  5
860
102
{ACAD_REACTORS
330
18BF
102
}
330
1F
100
AcDbEntity
  8
18
  6
STRICHLINIE
 48
0.3
100
AcDbLine
 10
288.1052458632935
 20
-32.36985487185052
 30
0.0
 11
283.1052458632937
 21
-32.36985487185058
 31
0.0
  0
ARC
  5
861
330
1F
100
AcDbEntity
  8
25
100
AcDbCircle
 10
388.5548962259427
 20
291.6301451281488
 30
0.0
 40
8.999999999999976
100
AcDbArc
 50
360.0
 51
179.9999999999999
  0
ARC
  5
862
330
1F
100
AcDbEntity
  8
25
100
AcDbCircle
 10
388.5548962259427
 20
273.6301451281489
 30
0.0
 40
8.999999999999984
100
AcDbArc
 50
179.9999999999999
 51
360.0
  0
LINE
  5
863
330
1F
100
AcDbEntity
  8
25
100
AcDbLine
 10
379.5548962259427
 20
221.6301451281493
 30
0.0
 11
379.5548962259427
 21
203.6301451281491
 31
0.0
  0
LINE
  5
864
330
1F
100
AcDbEntity
  8
25
100
AcDbLine
 10
397.5548962259427
 20
221.6301451281493
 30
0.0
 11
397.5548962259427
 21
203.6301451281491
 31
0.0
  0
ARC
  5
865
330
1F
100
AcDbEntity
  8
25
100
AcDbCircle
 10
388.5548962259427
 20
203.6301451281491
 30
0.0
 40
8.999999999999984
100
AcDbArc
 50
179.9999999999999
 51
360.0
  0
ARC
  5
866
330
1F
100
AcDbEntity
  8
25
100
AcDbCircle
 10
388.5548962259427
 20
221.6301451281493
 30
0.0
 40
8.999999999999976
100
AcDbArc
 50
360.0
 51
179.9999999999999
  0
LINE
  5
867
330
1F
100
AcDbEntity
  8
25
100
AcDbLine
 10
379.5548962259427
 20
291.6301451281488
 30
0.0
 11
379.5548962259427
 21
273.6301451281489
 31
0.0
  0
LINE
  5
868
330
1F
100
AcDbEntity
  8
25
100
AcDbLine
 10
397.5548962259427
 20
291.6301451281488
 30
0.0
 11
397.5548962259427
 21
273.6301451281489
 31
0.0
  0
LINE
  5
86F
102
{ACAD_REACTORS
330
174E
102
}
330
1F
100
AcDbEntity
  8
25
100
AcDbLine
 10
423.1052458632941
 20
362.6301451281488
 30
0.0
 11
283.1052458632941
 21
362.630145128149
 31
0.0
  0
LINE
  5
872
102
{ACAD_REACTORS
330
174E
102
}
330
1F
100
AcDbEntity
  8
25
100
AcDbLine
 10
423.1052458632935
 20
-877.2257491200294
 30
0.0
 11
423.1052458632937
 21
-457.1278289772401
 31
0.0
  0
LINE
  5
873
330
1F
100
AcDbEntity
  8
25
100
AcDbLine
 10
283.1052458632936
 20
-877.2257491200297
 30
0.0
 11
283.1052458632937
 21
-504.4558497978536
 31
0.0
  0
LINE
  5
1271
330
1F
100
AcDbEntity
  8
18
  6
STRICHLINIE
 48
0.09
100
AcDbLine
 10
196.2045260524343
 20
260.1114544714646
 30
0.0
 11
219.819969359928
 21
262.5935375807584
 31
0.0
  0
DIMENSION
  5
1674
330
1F
100
AcDbEntity
  8
0
100
AcDbDimension
  2
*D0
 10
515.0193867592597
 20
362.6301451281489
 30
0.0
 11
488.6757646583046
 21
395.1301451281484
 31
0.0
 70
    32
 71
     5
 42
64.99999999999886
  3
TYPENBLATT_M10
100
AcDbAlignedDimension
 13
192.3874388588561
 23
427.6301451281478
 33
0.0
 14
423.1052458632941
 24
362.6301451281489
 34
0.0
 50
90.0
100
AcDbRotatedDimension
1001
ACAD
1000
DSTYLE
1002
{
1070
    40
1040
130.0
1002
}
  0
HATCH
  5
1735
330
1F
100
AcDbEntity
  8
18
  6
STRICHLINIE
 48
0.3
100
AcDbHatch
 10
0.0
 20
0.0
 30
0.0
210
0.0
220
0.0
230
1.0
  2
EARTH
 70
     0
 71
     0
 91
        3
 92
        7
 72
     0
 73
     1
 93
        4
 10
-254.0488327762815
 20
-322.3698548718521
 10
-254.0488327762814
 20
-391.0902436315937
 10
440.8787322617154
 20
-391.0902436315937
 10
440.8787322617154
 20
-322.3698548718521
 97
        0
 92
        7
 72
     0
 73
     1
 93
        4
 10
575.8787322617117
 20
-391.0902436315919
 10
575.878732261712
 20
-322.3698548718521
 10
445.8787322617119
 20
-322.3698548718521
 10
445.8787322617117
 20
-391.0902436315937
 97
        0
 92
        7
 72
     0
 73
     1
 93
        4
 10
713.2063758652638
 20
-391.0902436315937
 10
713.2063758652638
 20
-322.3698548718521
 10
580.8787322617147
 20
-322.3698548718521
 10
580.8787322617147
 20
-391.0902436315937
 97
        0
 75
     0
 76
     1
 52
45.0
 41
7.0
 77
     0
 78
     6
 53
45.0
 43
185.0402930871296
 44
6898.550810526214
 45
0.0000000000000071
 46
62.86179284748406
 79
     2
 49
44.44999999999999
 49
-44.44999999999999
 53
45.0
 43
173.2537069282263
 44
6910.337396685118
 45
0.0000000000000071
 46
62.86179284748406
 79
     2
 49
44.44999999999999
 49
-44.44999999999999
 53
45.0
 43
161.467120769323
 44
6922.123982844022
 45
0.0000000000000071
 46
62.86179284748406
 79
     2
 49
44.44999999999999
 49
-44.44999999999999
 53
135.0
 43
161.467120769323
 44
6929.981706949956
 45
-62.86179284748406
 46
0.0000000000000071
 79
     2
 49
44.44999999999999
 49
-44.44999999999999
 53
135.0
 43
173.2537069282263
 44
6941.768293108859
 45
-62.86179284748406
 46
0.0000000000000071
 79
     2
 49
44.44999999999999
 49
-44.44999999999999
 53
135.0
 43
185.0402930871296
 44
6953.554879267763
 45
-62.86179284748406
 46
0.0000000000000071
 79
     2
 49
44.44999999999999
 49
-44.44999999999999
 47
1.559174811946683
 98
        3
 10
301.5890733105425
 20
-353.390240512932
 10
532.4088869696661
 20
-367.4227506461593
 10
633.7825975886608
 20
-365.8637116226291
  0
LINE
  5
1736
102
{ACAD_REACTORS
330
174E
330
1883
102
}
330
1F
100
AcDbEntity
  8
50
100
AcDbLine
 10
-254.0488327762814
 20
-322.3698548718521
 30
0.0
 11
713.2063758652638
 21
-322.3698548718521
 31
0.0
  0
DIMENSION
  5
1737
102
{ACAD_XDICTIONARY
360
1744
102
}
102
{ACAD_REACTORS
330
174E
102
}
330
1F
100
AcDbEntity
  8
0
100
AcDbDimension
  2
*D1
 10
515.0193867592594
 20
-322.369854871852
 30
0.0
 11
488.6757646583046
 21
20.13014512814854
 31
0.0
 70
    32
 71
     5
 42
685.0000000000009
  3
TYPENBLATT_M10
100
AcDbAlignedDimension
 13
423.105245863294
 23
362.6301451281489
 33
0.0
 14
423.105245863294
 24
-322.369854871852
 34
0.0
 50
90.0
100
AcDbRotatedDimension
1001
ACAD
1000
DSTYLE
1002
{
1070
    40
1040
130.0
1002
}
  0
DIMENSION
  5
186C
102
{ACAD_XDICTIONARY
360
1879
102
}
102
{ACAD_REACTORS
330
1883
102
}
330
1F
100
AcDbEntity
  8
0
100
AcDbDimension
  2
*D2
 10
-137.1191023717514
 20
-322.3698548718521
 30
0.0
 11
-163.4627244727063
 21
52.63014512814789
 31
0.0
 70
    32
 71
     5
 42
750.0
  3
TYPENBLATT_M10
100
AcDbAlignedDimension
 13
192.3874388588561
 23
427.6301451281478
 33
0.0
 14
0.0
 24
-322.3698548718521
 34
0.0
 50
90.0
100
AcDbRotatedDimension
1001
ACAD
1000
DSTYLE
1002
{
1070
    40
1040
130.0
1070
    47
1040
40.0
1070
   147
1040
0.075
1070
    48
1040
40.0
1070
    72
1070
     0
1070
    71
1070
     1
1002
}
  0
DIMENSION
  5
18A8
102
{ACAD_XDICTIONARY
360
18B5
102
}
102
{ACAD_REACTORS
330
18BF
102
}
330
1F
100
AcDbEntity
  8
0
100
AcDbDimension
  2
*D3
 10
283.1052458632937
 20
22.45903882356561
 30
0.0
 11
203.1052458632945
 21
48.80266092452059
 31
0.0
 70
    32
 71
     5
 42
159.9999999999984
  3
TYPENBLATT_M10
100
AcDbAlignedDimension
 13
123.1052458632952
 23
370.1787126547307
 33
0.0
 14
283.1052458632937
 24
-32.36985487185058
 34
0.0
100
AcDbRotatedDimension
1001
ACAD
1000
DSTYLE
1002
{
1070
    40
1040
130.0
1002
}
  0
LINE
  5
18CA
330
1F
100
AcDbEntity
  8
25
100
AcDbLine
 10
283.1052458632936
 20
-877.2257491200297
 30
0.0
 11
423.1052458632935
 21
-877.2257491200294
 31
0.0
  0
LINE
  5
2846
330
1F
100
AcDbEntity
  8
25
100
AcDbLine
 10
-1892.069174813973
 20
-1870.065926001116
 30
0.0
 11
2551.183942691699
 21
-1870.065926001116
 31
0.0
  0
LINE
  5
2847
330
1F
100
AcDbEntity
  8
25
100
AcDbLine
 10
-1892.069174813973
 20
-1786.797490538185
 30
0.0
 11
2551.183942691699
 21
-1786.797490538185
 31
0.0
  0
LINE
  5
284E
330
1F
100
AcDbEntity
  8
18
  6
STRICHLINIE
100
AcDbLine
 10
-1410.66142332417
 20
-1786.797490538178
 30
0.0
 11
-1410.66142332417
 21
-1870.065926001116
 31
0.0
  0
LINE
  5
284F
330
1F
100
AcDbEntity
  8
25
100
AcDbLine
 10
-1730.661423324171
 20
-1786.797490538185
 30
0.0
 11
-1730.661423324171
 21
-1870.065926001116
 31
0.0
  0
LINE
  5
2850
330
1F
100
AcDbEntity
  8
25
100
AcDbLine
 10
-1515.661423324171
 20
-1710.065926001116
 30
0.0
 11
-1515.661423324171
 21
-1786.797490538185
 31
0.0
  0
LINE
  5
2851
330
1F
100
AcDbEntity
  8
25
100
AcDbLine
 10
-1625.661423324171
 20
-1710.065926001116
 30
0.0
 11
-1625.661423324171
 21
-1786.797490538185
 31
0.0
  0
LINE
  5
2853
330
1F
100
AcDbEntity
  8
25
100
AcDbLine
 10
-1625.661423324171
 20
-1710.065926001116
 30
0.0
 11
-1515.661423324171
 21
-1710.065926001116
 31
0.0
  0
LINE
  5
2854
330
1F
100
AcDbEntity
  8
25
100
AcDbLine
 10
2174.338576675829
 20
-1710.065926001116
 30
0.0
 11
2284.338576675829
 21
-1710.065926001116
 31
0.0
  0
LINE
  5
2856
330
1F
100
AcDbEntity
  8
25
100
AcDbLine
 10
2174.338576675829
 20
-1710.065926001116
 30
0.0
 11
2174.338576675829
 21
-1786.797490538185
 31
0.0
  0
LINE
  5
2857
330
1F
100
AcDbEntity
  8
25
100
AcDbLine
 10
2284.338576675829
 20
-1710.065926001116
 30
0.0
 11
2284.338576675829
 21
-1786.797490538185
 31
0.0
  0
LINE
  5
2858
330
1F
100
AcDbEntity
  8
25
100
AcDbLine
 10
2069.338576675829
 20
-1786.797490538185
 30
0.0
 11
2069.338576675829
 21
-1870.065926001116
 31
0.0
  0
LINE
  5
2859
330
1F
100
AcDbEntity
  8
18
  6
STRICHLINIE
100
AcDbLine
 10
2389.338576675829
 20
-1786.797490538178
 30
0.0
 11
2389.338576675829
 21
-1870.065926001116
 31
0.0
  0
DIMENSION
  5
28B4
330
1F
100
AcDbEntity
  8
0
100
AcDbDimension
  2
*D4
 10
-1570.661423324171
 20
-1425.618160864222
 30
0.0
 11
329.3385766758293
 21
-1324.29653739901
 31
0.0
 70
    32
 71
     5
 42
3800.0
  3
TYPENBLATT_M50
100
AcDbAlignedDimension
 13
2229.338576675829
 23
-1705.06592600112
 33
0.0
 14
-1570.661423324171
 24
-1705.06592600112
 34
0.0
100
AcDbRotatedDimension
1001
ACAD
1000
DSTYLE
1002
{
1070
    47
1040
9.0
1070
   147
1040
0.075
1070
    48
1040
9.0
1070
    72
1070
     0
1070
    71
1070
     1
1070
    40
1040
500.0
1002
}
  0
LINE
  5
2A81
330
1F
100
AcDbEntity
  8
18
  6
STRICHPUNKT
 48
7.0
100
AcDbLine
 10
233.7792919410858
 20
-507.5650440468743
 30
0.0
 11
470.8957776636525
 21
-427.406087095529
 31
0.0
  0
LINE
  5
2A82
330
1F
100
AcDbEntity
  8
18
  6
STRICHPUNKT
 48
7.0
100
AcDbLine
 10
233.7792919410858
 20
-521.1308481851883
 30
0.0
 11
470.8957776636525
 21
-440.971891233843
 31
0.0
  0
LINE
  5
2A83
102
{ACAD_REACTORS
330
3595
102
}
330
1F
100
AcDbEntity
  8
25
100
AcDbLine
 10
423.1052458632936
 20
-443.562024838926
 30
0.0
 11
423.1052458632941
 21
362.6301451281488
 31
0.0
  0
LINE
  5
2A85
330
1F
100
AcDbEntity
  8
25
100
AcDbLine
 10
283.1052458632937
 20
-490.8900456595396
 30
0.0
 11
283.1052458632941
 21
362.630145128149
 31
0.0
  0
LINE
  5
2ACF
330
1F
100
AcDbEntity
  8
18
  6
STRICHLINIE
 48
0.09
100
AcDbLine
 10
264.0160088635929
 20
271.6301451281489
 30
0.0
 11
302.3259123424941
 21
271.6301451281489
 31
0.0
  0
LINE
  5
2AD0
330
1F
100
AcDbEntity
  8
18
  6
STRICHLINIE
 48
0.09
100
AcDbLine
 10
264.0160088635929
 20
201.6301451281489
 30
0.0
 11
302.3259123424941
 21
201.6301451281489
 31
0.0
  0
DIMENSION
  5
355D
330
1F
100
AcDbEntity
  8
0
100
AcDbDimension
  2
*D5
 10
123.1052458632953
 20
510.1184294089835
 30
0.0
 11
273.1052458632947
 21
536.4620515099385
 31
0.0
 70
    32
 71
     5
 42
299.9999999999989
  3
TYPENBLATT_M10
100
AcDbAlignedDimension
 13
423.1052458632941
 23
312.9936214819245
 33
0.0
 14
123.1052458632952
 24
370.1787126547307
 34
0.0
100
AcDbRotatedDimension
1001
ACAD
1000
DSTYLE
1002
{
1070
    40
1040
130.0
1002
}
  0
DIMENSION
  5
357E
102
{ACAD_XDICTIONARY
360
358B
102
}
102
{ACAD_REACTORS
330
3595
102
}
330
1F
100
AcDbEntity
  8
0
100
AcDbDimension
  2
*D6
 10
423.1052458632939
 20
22.45903882356566
 30
0.0
 11
353.1052458632938
 21
48.80266092452064
 31
0.0
 70
    32
 71
     5
 42
140.0000000000002
  3
TYPENBLATT_M10
100
AcDbAlignedDimension
 13
283.1052458632937
 23
32.63014512814943
 33
0.0
 14
423.1052458632939
 24
32.63014512814935
 34
0.0
100
AcDbRotatedDimension
1001
ACAD
1000
DSTYLE
1002
{
1070
    40
1040
130.0
1002
}
  0
LINE
  5
3646
330
1F
100
AcDbEntity
  8
35
100
AcDbLine
 10
192.3874388588561
 20
427.6301451281478
 30
0.0
 11
130.2403936207095
 21
383.9202784726783
 31
0.0
  0
ARC
  5
3647
330
1F
100
AcDbEntity
  8
35
100
AcDbCircle
 10
139.9052458632954
 20
370.1787126547307
 30
0.0
 40
16.80000000000011
100
AcDbArc
 50
125.1198612229303
 51
185.9999999999992
  0
LINE
  5
3648
330
1F
100
AcDbEntity
  8
35
100
AcDbLine
 10
123.1972780211082
 20
368.4226344718343
 30
0.0
 11
126.2313894886098
 21
339.5549921752885
 31
0.0
  0
ARC
  5
3649
330
1F
100
AcDbEntity
  8
35
100
AcDbCircle
 10
142.9393573307971
 20
341.3110703581846
 30
0.0
 40
16.80000000000024
100
AcDbArc
 50
185.9999999999982
 51
246.6274267980977
  0
LINE
  5
364A
330
1F
100
AcDbEntity
  8
35
100
AcDbLine
 10
136.2746540757218
 20
325.8896005669553
 30
0.0
 11
195.7965595324069
 21
300.1659929980419
 31
0.0
  0
ARC
  5
364B
330
1F
100
AcDbEntity
  8
35
100
AcDbCircle
 10
190.2426401531779
 20
287.3147681720179
 30
0.0
 40
13.99999999999965
100
AcDbArc
 50
5.999999999998872
 51
66.6274267980983
  0
LINE
  5
364C
330
1F
100
AcDbEntity
  8
35
100
AcDbLine
 10
204.1659466883334
 20
288.7781666577648
 30
0.0
 11
207.0590309175223
 21
261.2523089044966
 31
0.0
  0
LINE
  5
364D
330
1F
100
AcDbEntity
  8
35
100
AcDbLine
 10
207.0590309175223
 20
261.2523089044966
 30
0.0
 11
209.9521151467111
 21
233.7264511512292
 31
0.0
  0
ARC
  5
364E
330
1F
100
AcDbEntity
  8
35
100
AcDbCircle
 10
196.0288086115552
 20
232.2630526654822
 30
0.0
 40
14.00000000000005
100
AcDbArc
 50
305.3725732019003
 51
5.999999999999628
  0
LINE
  5
364F
330
1F
100
AcDbEntity
  8
35
100
AcDbLine
 10
204.1332814096748
 20
220.8473827042166
 30
0.0
 11
151.260311139699
 21
183.310597674272
 31
0.0
  0
ARC
  5
3650
330
1F
100
AcDbEntity
  8
35
100
AcDbCircle
 10
160.9856784974424
 20
169.6117937207537
 30
0.0
 40
16.79999999999966
100
AcDbArc
 50
125.3725732019004
 51
185.9999999999999
  0
LINE
  5
3651
330
1F
100
AcDbEntity
  8
35
100
AcDbLine
 10
144.2777106552557
 20
167.8557155378572
 30
0.0
 11
147.3118221227569
 21
138.9880732413113
 31
0.0
  0
ARC
  5
3652
330
1F
100
AcDbEntity
  8
35
100
AcDbCircle
 10
164.019789964944
 20
140.7441514242079
 30
0.0
 40
16.80000000000009
100
AcDbArc
 50
186.0
 51
246.880138777069
  0
LINE
  5
3653
330
1F
100
AcDbEntity
  8
35
100
AcDbLine
 10
157.4231701161047
 20
125.293436017797
 30
0.0
 11
227.2999455902502
 21
95.45983207514451
 31
0.0
  0
LINE
  5
3677
330
1F
100
AcDbEntity
  8
35
100
AcDbLine
 10
283.1052458632939
 20
325.6334132800441
 30
0.0
 11
283.1052458632948
 21
152.6301451281489
 31
0.0
  0
LINE
  5
367F
330
1F
100
AcDbEntity
  8
35
100
AcDbLine
 10
214.5099255223033
 20
217.1487443784221
 30
0.0
 11
206.439418581814
 21
293.9344887405702
 31
0.0
  0
ARC
  5
3680
330
1F
100
AcDbEntity
  8
35
100
AcDbCircle
 10
218.3736813262342
 20
295.1888302997815
 30
0.0
 40
12.00000000000073
100
AcDbArc
 50
120.0000000000026
 51
185.9999999999973
  0
LINE
  5
3681
330
1F
100
AcDbEntity
  8
35
100
AcDbLine
 10
212.3736813262333
 20
305.5811351451952
 30
0.0
 11
265.1052458632939
 21
336.0257181254576
 31
0.0
  0
ARC
  5
3682
330
1F
100
AcDbEntity
  8
35
100
AcDbCircle
 10
271.1052458632938
 20
325.6334132800442
 30
0.0
 40
12.00000000000002
100
AcDbArc
 50
359.9999999999992
 51
119.9999999999996
  0
LINE
  5
3684
330
1F
100
AcDbEntity
  8
18
  6
STRICHLINIE
 48
0.3
100
AcDbLine
 10
290.1052458632942
 20
163.630145128149
 30
0.0
 11
290.1052458632942
 21
283.630145128149
 31
0.0
  0
LINE
  5
3692
330
1F
100
AcDbEntity
  8
18
  6
STRICHLINIE
 48
0.2
100
AcDbLine
 10
423.1052458632934
 20
-701.5943073197636
 30
0.0
 11
423.1052458632934
 21
-682.4914000830794
 31
0.0
  0
ARC
  5
3693
330
1F
100
AcDbEntity
  8
18
  6
STRICHLINIE
 48
0.2
100
AcDbCircle
 10
412.1052458632935
 20
-682.4914000830793
 30
0.0
 40
10.99999999999983
100
AcDbArc
 50
359.9999999999994
 51
95.6031483295316
  0
LINE
  5
3694
330
1F
100
AcDbEntity
  8
18
  6
STRICHLINIE
 48
0.2
100
AcDbLine
 10
411.0312324164155
 20
-671.5439576824124
 30
0.0
 11
293.031232416416
 21
-683.1205051620168
 31
0.0
  0
ARC
  5
3695
330
1F
100
AcDbEntity
  8
18
  6
STRICHLINIE
 48
0.2
100
AcDbCircle
 10
294.105245863294
 20
-694.0679475626843
 30
0.0
 40
11.0000000000004
100
AcDbArc
 50
95.60314832953103
 51
179.9999999999988
  0
LINE
  5
3696
330
1F
100
AcDbEntity
  8
18
  6
STRICHLINIE
 48
0.2
100
AcDbLine
 10
283.1052458632937
 20
-694.0679475626841
 30
0.0
 11
283.1052458632937
 21
-724.0943073197636
 31
0.0
  0
LINE
  5
3697
330
1F
100
AcDbEntity
  8
18
  6
STRICHLINIE
 48
0.2
100
AcDbLine
 10
283.1052458632937
 20
-724.0943073197636
 30
0.0
 11
283.1052458632937
 21
-754.1206670768433
 31
0.0
  0
ARC
  5
3698
330
1F
100
AcDbEntity
  8
18
  6
STRICHLINIE
 48
0.2
100
AcDbCircle
 10
294.1052458632936
 20
-754.1206670768433
 30
0.0
 40
11.0
100
AcDbArc
 50
180.0
 51
264.3968516704681
  0
LINE
  5
3699
330
1F
100
AcDbEntity
  8
18
  6
STRICHLINIE
 48
0.2
100
AcDbLine
 10
293.0312324164155
 20
-765.0681094775104
 30
0.0
 11
411.0312324164159
 21
-776.6446569571148
 31
0.0
  0
ARC
  5
369A
330
1F
100
AcDbEntity
  8
18
  6
STRICHLINIE
 48
0.2
100
AcDbCircle
 10
412.1052458632938
 20
-765.697214556448
 30
0.0
 40
10.99999999999971
100
AcDbArc
 50
264.3968516704695
 51
0.0000000000011843
  0
LINE
  5
369B
330
1F
100
AcDbEntity
  8
18
  6
STRICHLINIE
 48
0.2
100
AcDbLine
 10
423.1052458632934
 20
-765.6972145564477
 30
0.0
 11
423.1052458632934
 21
-746.5943073197638
 31
0.0
  0
LINE
  5
36A8
330
1F
100
AcDbEntity
  8
25
100
AcDbLine
 10
-1593.161423324171
 20
-1570.06592600112
 30
0.0
 11
-1612.264330560858
 21
-1570.06592600112
 31
0.0
  0
ARC
  5
36A9
330
1F
100
AcDbEntity
  8
25
100
AcDbCircle
 10
-1612.264330560855
 20
-1581.065926001117
 30
0.0
 40
10.99999999999772
100
AcDbArc
 50
90.00000000001303
 51
185.6031483295437
  0
LINE
  5
36AA
330
1F
100
AcDbEntity
  8
25
100
AcDbLine
 10
-1623.21177296152
 20
-1582.139939447998
 30
0.0
 11
-1611.635225481914
 21
-1700.139939447998
 31
0.0
  0
ARC
  5
36AB
330
1F
100
AcDbEntity
  8
25
100
AcDbCircle
 10
-1600.687783081249
 20
-1699.065926001122
 30
0.0
 40
10.99999999999741
100
AcDbArc
 50
185.6031483295177
 51
269.9999999999858
  0
LINE
  5
36AC
330
1F
100
AcDbEntity
  8
25
100
AcDbLine
 10
-1600.687783081252
 20
-1710.06592600112
 30
0.0
 11
-1570.661423324171
 21
-1710.06592600112
 31
0.0
  0
LINE
  5
36AD
330
1F
100
AcDbEntity
  8
25
100
AcDbLine
 10
-1570.661423324171
 20
-1710.06592600112
 30
0.0
 11
-1540.63506356709
 21
-1710.06592600112
 31
0.0
  0
ARC
  5
36AE
330
1F
100
AcDbEntity
  8
25
100
AcDbCircle
 10
-1540.635063567089
 20
-1699.065926001118
 30
0.0
 40
11.00000000000136
100
AcDbArc
 50
269.9999999999953
 51
354.3968516704629
  0
LINE
  5
36AF
330
1F
100
AcDbEntity
  8
25
100
AcDbLine
 10
-1529.68762116642
 20
-1700.139939447998
 30
0.0
 11
-1518.111073686821
 21
-1582.139939447998
 31
0.0
  0
ARC
  5
36B0
330
1F
100
AcDbEntity
  8
25
100
AcDbCircle
 10
-1529.058516087486
 20
-1581.065926001117
 30
0.0
 40
10.99999999999767
100
AcDbArc
 50
354.3968516704563
 51
89.99999999998697
  0
LINE
  5
36B1
330
1F
100
AcDbEntity
  8
25
100
AcDbLine
 10
-1529.058516087483
 20
-1570.06592600112
 30
0.0
 11
-1548.161423324163
 21
-1570.06592600112
 31
0.0
  0
LINE
  5
36C7
330
1F
100
AcDbEntity
  8
25
100
AcDbLine
 10
2206.83857667583
 20
-1570.06592600112
 30
0.0
 11
2187.735669439142
 21
-1570.06592600112
 31
0.0
  0
ARC
  5
36C8
330
1F
100
AcDbEntity
  8
25
100
AcDbCircle
 10
2187.735669439144
 20
-1581.065926001117
 30
0.0
 40
10.99999999999772
100
AcDbArc
 50
90.00000000001184
 51
185.6031483295438
  0
LINE
  5
36C9
330
1F
100
AcDbEntity
  8
25
100
AcDbLine
 10
2176.78822703848
 20
-1582.139939447998
 30
0.0
 11
2188.364774518086
 21
-1700.139939447998
 31
0.0
  0
ARC
  5
36CA
330
1F
100
AcDbEntity
  8
25
100
AcDbCircle
 10
2199.312216918751
 20
-1699.065926001122
 30
0.0
 40
10.99999999999741
100
AcDbArc
 50
185.6031483295177
 51
269.9999999999858
  0
LINE
  5
36CB
330
1F
100
AcDbEntity
  8
25
100
AcDbLine
 10
2199.312216918748
 20
-1710.06592600112
 30
0.0
 11
2229.338576675829
 21
-1710.06592600112
 31
0.0
  0
LINE
  5
36CC
330
1F
100
AcDbEntity
  8
25
100
AcDbLine
 10
2229.338576675829
 20
-1710.06592600112
 30
0.0
 11
2259.36493643291
 21
-1710.06592600112
 31
0.0
  0
ARC
  5
36CD
330
1F
100
AcDbEntity
  8
25
100
AcDbCircle
 10
2259.364936432911
 20
-1699.065926001118
 30
0.0
 40
11.00000000000136
100
AcDbArc
 50
269.9999999999953
 51
354.3968516704629
  0
LINE
  5
36CE
330
1F
100
AcDbEntity
  8
25
100
AcDbLine
 10
2270.31237883358
 20
-1700.139939447998
 30
0.0
 11
2281.888926313179
 21
-1582.139939447998
 31
0.0
  0
ARC
  5
36CF
330
1F
100
AcDbEntity
  8
25
100
AcDbCircle
 10
2270.941483912514
 20
-1581.065926001117
 30
0.0
 40
10.99999999999744
100
AcDbArc
 50
354.3968516704561
 51
89.99999999998815
  0
LINE
  5
36D0
330
1F
100
AcDbEntity
  8
25
100
AcDbLine
 10
2270.941483912517
 20
-1570.06592600112
 30
0.0
 11
2251.838576675829
 21
-1570.06592600112
 31
0.0
  0
VIEWPORT
  5
32DC
102
{ACAD_XDICTIONARY
360
3717
102
}
330
32DA
100
AcDbEntity
 67
     1
  8
0
100
AcDbViewport
 10
98.18158054351805
 20
142.9279141426086
 30
0.0
 40
396.6524498386201
 41
299.2427126483892
 68
     1
 69
     1
 12
98.18158054351805
 22
142.9279141426086
 13
0.0
 23
0.0
 14
10.0
 24
10.0
 15
10.0
 25
10.0
 16
0.0
 26
0.0
 36
1.0
 17
0.0
 27
0.0
 37
0.0
 42
50.0
 43
0.0
 44
0.0
 45
299.2427126483892
 50
0.0
 51
0.0
 72
  5000
 90
    32800
  1

281
     0
 71
     1
 74
     0
110
0.0
120
0.0
130
0.0
111
1.0
121
0.0
131
0.0
112
0.0
122
1.0
132
0.0
 79
     0
146
0.0
  0
ENDSEC
  0
SECTION
  2
OBJECTS
  0
DICTIONARY
  5
C
330
0
100
AcDbDictionary
281
     1
  3
ACAD_COLOR
350
6B
  3
ACAD_GROUP
350
D
  3
ACAD_IMAGE_DICT
350
3504
  3
ACAD_IMAGE_VARS
350
3505
  3
ACAD_LAYOUT
350
1A
  3
ACAD_MATERIAL
350
6A
  3
ACAD_MLINESTYLE
350
17
  3
ACAD_PLOTSETTINGS
350
19
  3
ACAD_PLOTSTYLENAME
350
E
  3
ACAD_TABLESTYLE
350
370C
  3
ACDBHEADERROUNDTRIPXREC
350
3714
  3
AcDbVariableDictionary
350
5E
  3
DWGPROPS
350
3713
  0
DICTIONARY
  5
1744
330
1737
100
AcDbDictionary
280
     1
281
     1
  3
ACAD_DIMASSOC
360
174E
  0
DICTIONARY
  5
1879
330
186C
100
AcDbDictionary
280
     1
281
     1
  3
ACAD_DIMASSOC
360
1883
  0
DICTIONARY
  5
18B5
330
18A8
100
AcDbDictionary
280
     1
281
     1
  3
ACAD_DIMASSOC
360
18BF
  0
DICTIONARY
  5
358B
330
357E
100
AcDbDictionary
280
     1
281
     1
  3
ACAD_DIMASSOC
360
3595
  0
DICTIONARY
  5
3717
330
32DC
100
AcDbDictionary
280
     1
281
     1
  3
ACAD_XREC_ROUNDTRIP
360
3718
  0
DICTIONARY
  5
6B
102
{ACAD_REACTORS
330
C
102
}
330
C
100
AcDbDictionary
281
     1
  0
DICTIONARY
  5
D
102
{ACAD_REACTORS
330
C
102
}
330
C
100
AcDbDictionary
281
     1
  0
DICTIONARY
  5
3504
102
{ACAD_REACTORS
330
C
102
}
330
C
100
AcDbDictionary
281
     1
  3
E108 N2V Damm explosion_3D
350
3506
  3
E108 N2V Damm_3D
350
3509
  0
RASTERVARIABLES
  5
3505
102
{ACAD_REACTORS
330
C
102
}
330
C
100
AcDbRasterVariables
 90
        0
 70
     1
 71
     1
 72
     1
  0
DICTIONARY
  5
1A
102
{ACAD_REACTORS
330
C
102
}
330
C
100
AcDbDictionary
281
     1
  3
Layout 1
350
32FE
  3
Model
350
22
  0
DICTIONARY
  5
6A
102
{ACAD_REACTORS
330
C
102
}
330
C
100
AcDbDictionary
281
     1
  0
DICTIONARY
  5
17
102
{ACAD_REACTORS
330
C
102
}
330
C
100
AcDbDictionary
281
     1
  3
Standard
350
18
  0
DICTIONARY
  5
19
102
{ACAD_REACTORS
330
C
102
}
330
C
100
AcDbDictionary
281
     1
  0
ACDBDICTIONARYWDFLT
  5
E
102
{ACAD_REACTORS
330
C
102
}
330
C
100
AcDbDictionary
281
     1
  3
Normal
350
F
100
AcDbDictionaryWithDefault
340
F
  0
DICTIONARY
  5
370C
102
{ACAD_REACTORS
330
C
102
}
330
C
100
AcDbDictionary
281
     1
  3
Standard
350
370D
  0
DICTIONARY
  5
3714
102
{ACAD_REACTORS
330
C
102
}
330
C
100
AcDbDictionary
281
     1
  0
DICTIONARY
  5
5E
102
{ACAD_REACTORS
330
C
102
}
330
C
100
AcDbDictionary
281
     1
  3
CTABLESTYLE
350
3711
  3
DIMASSOC
350
5F
  3
HIDETEXT
350
63
  3
PROJECTNAME
350
370A
  0
XRECORD
  5
3713
102
{ACAD_REACTORS
330
C
102
}
330
C
100
AcDbXrecord
280
     1
  1
DWGPROPS COOKIE
  2

  3

  4

  6

  7

  8

  9

300
=
301
=
302
=
303
=
304
=
305
=
306
=
307
=
308
=
309
=
 40
0.4047283796296297
 41
2453488.543225174
 42
2453710.453431134
  1

 90
        0
  0
DIMASSOC
  5
174E
102
{ACAD_REACTORS
330
1744
102
}
330
1744
100
AcDbDimAssoc
330
1737
 90
        3
 70
     0
 71
     0
  1
AcDbOsnapPointRef
 72
     6
331
872
 73
     2
 91
        0
 40
1.0
 10
0.0
 20
0.0
 30
0.0
332
86F
 74
     2
 92
        0
 75
     0
  1
AcDbOsnapPointRef
 72
     8
331
1736
 73
     2
 91
        0
 40
0.7000779862334366
 10
0.0
 20
0.0
 30
0.0
 75
     1
  1
AcDbOsnapPointRef
 72
     6
331
872
 73
     2
 91
        0
 40
1.0
 10
0.0
 20
0.0
 30
0.0
332
86F
 74
     2
 92
        0
 75
     0
  0
DIMASSOC
  5
1883
102
{ACAD_REACTORS
330
1879
102
}
330
1879
100
AcDbDimAssoc
330
186C
 90
        2
 70
     0
 71
     0
  1
AcDbOsnapPointRef
 72
     8
331
1736
 73
     2
 91
        0
 40
0.46154961756384
 10
0.0
 20
0.0
 30
0.0
 75
     1
  1
AcDbOsnapPointRef
 72
     1
331
0
 73
     2
 91
        9
 40
0.9999999999999998
 10
0.0
 20
0.0
 30
2.000000000000000E+50
 75
     0
  0
DIMASSOC
  5
18BF
102
{ACAD_REACTORS
330
18B5
102
}
330
18B5
100
AcDbDimAssoc
330
18A8
 90
        2
 70
     0
 71
     0
  1
AcDbOsnapPointRef
 72
     1
331
860
 73
     2
 91
        0
 40
1.0
 10
0.0
 20
0.0
 30
2.000000000000000E+50
 75
     0
  0
DIMASSOC
  5
3595
102
{ACAD_REACTORS
330
358B
102
}
330
358B
100
AcDbDimAssoc
330
357E
 90
        2
 70
     0
 71
     0
  1
AcDbOsnapPointRef
 72
     8
331
2A83
 73
     2
 91
        0
 40
0.5906683142141201
 10
0.0
 20
0.0
 30
0.0
 75
     1
  1
AcDbOsnapPointRef
 72
     0
 40
0.0
 10
283.1052458632937
 20
32.63014512814943
 30
0.0
 75
     0
  0
XRECORD
  5
3718
102
{ACAD_REACTORS
330
3717
102
}
330
3717
100
AcDbXrecord
280
     1
102
SHADEPLOT
 70
     0
  0
IMAGEDEF
  5
3506
102
{ACAD_REACTORS
330
3504
102
}
330
3504
100
AcDbRasterImageDef
 90
        0
  1
F:\TB\Leitschienenprospekt\Zeichnungen\Bitmaps\S1\E108 N2V Damm explosion_3D.bmp
 10
1600.0
 20
1280.0
 11
0.4882812609139367
 21
0.4882812609139367
280
     1
281
     2
  0
IMAGEDEF
  5
3509
102
{ACAD_REACTORS
330
3504
102
}
330
3504
100
AcDbRasterImageDef
 90
        0
  1
F:\TB\Leitschienenprospekt\Zeichnungen\Bitmaps\S1\E108 N2V Damm_3D.bmp
 10
1600.0
 20
1280.0
 11
0.4882812609139367
 21
0.4882812609139367
280
     1
281
     2
  0
LAYOUT
  5
32FE
102
{ACAD_XDICTIONARY
360
3719
102
}
102
{ACAD_REACTORS
330
1A
102
}
330
1A
100
AcDbPlotSettings
  1

  2
\\VAKF11\Lexmark Optra R plus lex4
  4
A4
  6

 40
6.805083274841308
 41
5.535083293914794
 42
6.974411010742187
 43
7.14373779296875
 44
209.9733276367187
 45
296.9259948730469
 46
0.0
 47
0.0
 48
0.0
 49
0.0
140
0.0
141
0.0
142
1.0
143
1.0
 70
   690
 72
     1
 73
     0
 74
     5
  7
monochrome.ctb
 75
    16
147
1.0
148
0.0
149
0.0
100
AcDbLayout
  1
Layout 1
 70
     1
 71
     1
 10
-6.805083274841308
 20
-5.535083293914794
 11
203.1682443618775
 21
291.3909115791321
 12
0.0
 22
0.0
 32
0.0
 14
1.000000000000000E+20
 24
1.000000000000000E+20
 34
1.000000000000000E+20
 15
-1.000000000000000E+20
 25
-1.000000000000000E+20
 35
-1.000000000000000E+20
146
0.0
 13
0.0
 23
0.0
 33
0.0
 16
1.0
 26
0.0
 36
0.0
 17
0.0
 27
1.0
 37
0.0
 76
     0
330
32DA
331
32DC
  0
LAYOUT
  5
22
102
{ACAD_XDICTIONARY
360
3715
102
}
102
{ACAD_REACTORS
330
1A
102
}
330
1A
100
AcDbPlotSettings
  1

  2
none_device
  4
ANSI_A_(8.50_x_11.00_Inches)
  6

 40
6.349999904632567
 41
19.04999923706055
 42
6.350006103515625
 43
19.04998779296875
 44
215.8999938964844
 45
279.3999938964844
 46
0.0
 47
0.0
 48
0.0
 49
0.0
140
0.0
141
0.0
142
1.0
143
78.436453180766
 70
 11952
 72
     0
 73
     1
 74
     0
  7

 75
     0
147
0.0127491741332998
148
0.0
149
0.0
100
AcDbLayout
  1
Model
 70
     1
 71
     0
 10
0.0
 20
0.0
 11
12.0
 21
9.0
 12
0.0
 22
0.0
 32
0.0
 14
0.0
 24
0.0
 34
0.0
 15
0.0
 25
0.0
 35
0.0
146
0.0
 13
0.0
 23
0.0
 33
0.0
 16
1.0
 26
0.0
 36
0.0
 17
0.0
 27
1.0
 37
0.0
 76
     0
330
1F
  0
MLINESTYLE
  5
18
102
{ACAD_REACTORS
330
17
102
}
330
17
100
AcDbMlineStyle
  2
STANDARD
 70
     0
  3

 62
   256
 51
90.0
 52
90.0
 71
     2
 49
0.5
 62
   256
  6
BYLAYER
 49
-0.5
 62
   256
  6
BYLAYER
  0
ACDBPLACEHOLDER
  5
F
102
{ACAD_REACTORS
330
E
102
}
330
E
  0
TABLESTYLE
  5
370D
102
{ACAD_REACTORS
330
370C
102
}
330
370C
100
AcDbTableStyle
  3
Standard
 70
     0
 71
     0
 40
1.5
 41
1.5
280
     0
281
     0
  7
Standard
140
4.5
170
     2
 62
     0
 63
     7
283
     0
274
    -2
284
     1
 64
     0
275
    -2
285
     1
 65
     0
276
    -2
286
     1
 66
     0
277
    -2
287
     1
 67
     0
278
    -2
288
     1
 68
     0
279
    -2
289
     1
 69
     0
  7
Standard
140
6.0
170
     5
 62
     0
 63
     7
283
     0
274
    -2
284
     1
 64
     0
275
    -2
285
     1
 65
     0
276
    -2
286
     1
 66
     0
277
    -2
287
     1
 67
     0
278
    -2
288
     1
 68
     0
279
    -2
289
     1
 69
     0
  7
Standard
140
4.5
170
     5
 62
     0
 63
     7
283
     0
274
    -2
284
     1
 64
     0
275
    -2
285
     1
 65
     0
276
    -2
286
     1
 66
     0
277
    -2
287
     1
 67
     0
278
    -2
288
     1
 68
     0
279
    -2
289
     1
 69
     0
  0
DICTIONARYVAR
  5
3711
102
{ACAD_REACTORS
330
5E
102
}
330
5E
100
DictionaryVariables
280
     0
  1
STANDARD
  0
DICTIONARYVAR
  5
5F
102
{ACAD_REACTORS
330
5E
102
}
330
5E
100
DictionaryVariables
280
     0
  1
2
  0
DICTIONARYVAR
  5
63
102
{ACAD_REACTORS
330
5E
102
}
330
5E
100
DictionaryVariables
280
     0
  1
1
  0
DICTIONARYVAR
  5
370A
102
{ACAD_REACTORS
330
5E
102
}
330
5E
100
DictionaryVariables
280
     0
  1

  0
DICTIONARY
  5
3719
330
32FE
100
AcDbDictionary
280
     1
281
     1
  3
ACAD_XREC_ROUNDTRIP
360
371A
  0
DICTIONARY
  5
3715
330
22
100
AcDbDictionary
280
     1
281
     1
  3
ACAD_XREC_ROUNDTRIP
360
3716
  0
XRECORD
  5
371A
102
{ACAD_REACTORS
330
3719
102
}
330
3719
100
AcDbXrecord
280
     1
102
SHADEPLOT
 70
     1
102
SHADEPLOTRESLEVEL
 70
     2
102
SHADEPLOTCUSTOMDPI
 70
   300
  0
XRECORD
  5
3716
102
{ACAD_REACTORS
330
3715
102
}
330
3715
100
AcDbXrecord
280
     1
102
SHADEPLOT
 70
     0
102
SHADEPLOTRESLEVEL
 70
     2
102
SHADEPLOTCUSTOMDPI
 70
   300
  0
ENDSEC
  0
EOF
