  0
SECTION
  2
HEADER
  9
$ACADVER
  1
AC1018
  9
$ACADMAINTVER
 70
   104
  9
$DWGCODEPAGE
  3
ANSI_1252
  9
$LASTSAVEDBY
  1
V498957
  9
$INSBASE
 10
0.0
 20
0.0
 30
0.0
  9
$EXTMIN
 10
15985.95337310163
 20
-5561.987694631302
 30
-0.0015258207003583
  9
$EXTMAX
 10
20871.22326867898
 20
-2842.295060971112
 30
0.0000000349246037
  9
$LIMMIN
 10
-1091.180495341761
 20
-619.6501650024412
  9
$LIMMAX
 10
1056.97244419739
 20
951.0353648293053
  9
$ORTHOMODE
 70
     0
  9
$REGENMODE
 70
     1
  9
$FILLMODE
 70
     1
  9
$QTEXTMODE
 70
     0
  9
$MIRRTEXT
 70
     1
  9
$LTSCALE
 40
1.0
  9
$ATTMODE
 70
     1
  9
$TEXTSIZE
 40
4.0
  9
$TRACEWID
 40
0.05
  9
$TEXTSTYLE
  7
AN150
  9
$CLAYER
  8
FENSTER
  9
$CELTYPE
  6
BYLAYER
  9
$CECOLOR
 62
   256
  9
$CELTSCALE
 40
1.0
  9
$DISPSILH
 70
     0
  9
$DIMSCALE
 40
100.0
  9
$DIMASZ
 40
0.25
  9
$DIMEXO
 40
0.5
  9
$DIMDLI
 40
0.5
  9
$DIMRND
 40
0.0
  9
$DIMDLE
 40
0.0
  9
$DIMEXE
 40
0.25
  9
$DIMTP
 40
0.0
  9
$DIMTM
 40
0.0
  9
$DIMTXT
 40
0.25
  9
$DIMCEN
 40
0.09
  9
$DIMTSZ
 40
0.0
  9
$DIMTOL
 70
     0
  9
$DIMLIM
 70
     0
  9
$DIMTIH
 70
     0
  9
$DIMTOH
 70
     0
  9
$DIMSE1
 70
     0
  9
$DIMSE2
 70
     0
  9
$DIMTAD
 70
     1
  9
$DIMZIN
 70
     0
  9
$DIMBLK
  1

  9
$DIMASO
 70
     1
  9
$DIMSHO
 70
     1
  9
$DIMPOST
  1

  9
$DIMAPOST
  1

  9
$DIMALT
 70
     0
  9
$DIMALTD
 70
     2
  9
$DIMALTF
 40
25.4
  9
$DIMLFAC
 40
1.0
  9
$DIMTOFL
 70
     0
  9
$DIMTVP
 40
0.0
  9
$DIMTIX
 70
     0
  9
$DIMSOXD
 70
     0
  9
$DIMSAH
 70
     0
  9
$DIMBLK1
  1

  9
$DIMBLK2
  1

  9
$DIMSTYLE
  2
TYPENBLATT_M10
  9
$DIMCLRD
 70
     0
  9
$DIMCLRE
 70
     0
  9
$DIMCLRT
 70
     0
  9
$DIMTFAC
 40
1.0
  9
$DIMGAP
 40
0.075
  9
$DIMJUST
 70
     0
  9
$DIMSD1
 70
     0
  9
$DIMSD2
 70
     0
  9
$DIMTOLJ
 70
     1
  9
$DIMTZIN
 70
     0
  9
$DIMALTZ
 70
     0
  9
$DIMALTTZ
 70
     0
  9
$DIMUPT
 70
     0
  9
$DIMDEC
 70
     0
  9
$DIMTDEC
 70
     4
  9
$DIMALTU
 70
     2
  9
$DIMALTTD
 70
     2
  9
$DIMTXSTY
  7
VOEST
  9
$DIMAUNIT
 70
     0
  9
$DIMADEC
 70
     0
  9
$DIMALTRND
 40
0.0
  9
$DIMAZIN
 70
     0
  9
$DIMDSEP
 70
    46
  9
$DIMATFIT
 70
     3
  9
$DIMFRAC
 70
     0
  9
$DIMLDRBLK
  1

  9
$DIMLUNIT
 70
     2
  9
$DIMLWD
 70
    -2
  9
$DIMLWE
 70
    -2
  9
$DIMTMOVE
 70
     0
  9
$LUNITS
 70
     2
  9
$LUPREC
 70
     4
  9
$SKETCHINC
 40
0.1
  9
$FILLETRAD
 40
0.0
  9
$AUNITS
 70
     0
  9
$AUPREC
 70
     4
  9
$MENU
  1
acad
  9
$ELEVATION
 40
0.0
  9
$PELEVATION
 40
0.0
  9
$THICKNESS
 40
0.0
  9
$LIMCHECK
 70
     0
  9
$CHAMFERA
 40
0.0
  9
$CHAMFERB
 40
0.0
  9
$CHAMFERC
 40
1.0
  9
$CHAMFERD
 40
0.0
  9
$SKPOLY
 70
     0
  9
$TDCREATE
 40
2451353.459995197
  9
$TDUCREATE
 40
2451353.376661864
  9
$TDUPDATE
 40
2454964.359457535
  9
$TDUUPDATE
 40
2454964.276124202
  9
$TDINDWG
 40
3.6787150694
  9
$TDUSRTIMER
 40
3.6787150694
  9
$USRTIMER
 70
     1
  9
$ANGBASE
 50
0.0
  9
$ANGDIR
 70
     0
  9
$PDMODE
 70
     0
  9
$PDSIZE
 40
0.0
  9
$PLINEWID
 40
0.0
  9
$SPLFRAME
 70
     0
  9
$SPLINETYPE
 70
     6
  9
$SPLINESEGS
 70
    50
  9
$HANDSEED
  5
676D
  9
$SURFTAB1
 70
     6
  9
$SURFTAB2
 70
     6
  9
$SURFTYPE
 70
     6
  9
$SURFU
 70
     6
  9
$SURFV
 70
     6
  9
$UCSBASE
  2

  9
$UCSNAME
  2

  9
$UCSORG
 10
0.0
 20
0.0
 30
0.0
  9
$UCSXDIR
 10
1.0
 20
0.0
 30
0.0
  9
$UCSYDIR
 10
0.0
 20
1.0
 30
0.0
  9
$UCSORTHOREF
  2

  9
$UCSORTHOVIEW
 70
     0
  9
$UCSORGTOP
 10
0.0
 20
0.0
 30
0.0
  9
$UCSORGBOTTOM
 10
0.0
 20
0.0
 30
0.0
  9
$UCSORGLEFT
 10
0.0
 20
0.0
 30
0.0
  9
$UCSORGRIGHT
 10
0.0
 20
0.0
 30
0.0
  9
$UCSORGFRONT
 10
0.0
 20
0.0
 30
0.0
  9
$UCSORGBACK
 10
0.0
 20
0.0
 30
0.0
  9
$PUCSBASE
  2

  9
$PUCSNAME
  2

  9
$PUCSORG
 10
0.0
 20
0.0
 30
0.0
  9
$PUCSXDIR
 10
1.0
 20
0.0
 30
0.0
  9
$PUCSYDIR
 10
0.0
 20
1.0
 30
0.0
  9
$PUCSORTHOREF
  2

  9
$PUCSORTHOVIEW
 70
     0
  9
$PUCSORGTOP
 10
0.0
 20
0.0
 30
0.0
  9
$PUCSORGBOTTOM
 10
0.0
 20
0.0
 30
0.0
  9
$PUCSORGLEFT
 10
0.0
 20
0.0
 30
0.0
  9
$PUCSORGRIGHT
 10
0.0
 20
0.0
 30
0.0
  9
$PUCSORGFRONT
 10
0.0
 20
0.0
 30
0.0
  9
$PUCSORGBACK
 10
0.0
 20
0.0
 30
0.0
  9
$USERI1
 70
     0
  9
$USERI2
 70
     0
  9
$USERI3
 70
     0
  9
$USERI4
 70
     0
  9
$USERI5
 70
     0
  9
$USERR1
 40
0.0
  9
$USERR2
 40
0.0
  9
$USERR3
 40
0.0
  9
$USERR4
 40
0.0
  9
$USERR5
 40
0.0
  9
$WORLDVIEW
 70
     1
  9
$SHADEDGE
 70
     3
  9
$SHADEDIF
 70
    70
  9
$TILEMODE
 70
     1
  9
$MAXACTVP
 70
    48
  9
$PINSBASE
 10
0.0
 20
0.0
 30
0.0
  9
$PLIMCHECK
 70
     0
  9
$PEXTMIN
 10
1.000000000000000E+20
 20
1.000000000000000E+20
 30
1.000000000000000E+20
  9
$PEXTMAX
 10
-1.000000000000000E+20
 20
-1.000000000000000E+20
 30
-1.000000000000000E+20
  9
$PLIMMIN
 10
-0.1979161059762549
 20
-0.2679166643638311
  9
$PLIMMAX
 10
11.4920836921752
 20
7.99874977802667
  9
$UNITMODE
 70
     0
  9
$VISRETAIN
 70
     1
  9
$PLINEGEN
 70
     0
  9
$PSLTSCALE
 70
     1
  9
$TREEDEPTH
 70
  3020
  9
$CMLSTYLE
  2
STANDARD
  9
$CMLJUST
 70
     0
  9
$CMLSCALE
 40
1.0
  9
$PROXYGRAPHICS
 70
     1
  9
$MEASUREMENT
 70
     0
  9
$CELWEIGHT
370
    -1
  9
$ENDCAPS
280
     0
  9
$JOINSTYLE
280
     0
  9
$LWDISPLAY
290
     0
  9
$INSUNITS
 70
     0
  9
$HYPERLINKBASE
  1

  9
$STYLESHEET
  1
monochrome.ctb
  9
$XEDIT
290
     1
  9
$CEPSNTYPE
380
     0
  9
$PSTYLEMODE
290
     1
  9
$FINGERPRINTGUID
  2
{9534987B-55C5-11D5-8B32-0050046A49B2}
  9
$VERSIONGUID
  2
{5B42507B-C983-4AA2-AA6E-CB7B3E7AF71F}
  9
$EXTNAMES
290
     1
  9
$PSVPSCALE
 40
0.0
  9
$OLESTARTUP
290
     0
  9
$SORTENTS
280
    96
  9
$INDEXCTL
280
     0
  9
$HIDETEXT
280
     0
  9
$XCLIPFRAME
290
     0
  9
$HALOGAP
280
     0
  9
$OBSCOLOR
 70
   257
  9
$OBSLTYPE
280
     0
  9
$INTERSECTIONDISPLAY
280
     0
  9
$INTERSECTIONCOLOR
 70
   257
  9
$DIMASSOC
280
     1
  9
$PROJECTNAME
  1

  0
ENDSEC
  0
SECTION
  2
CLASSES
  0
CLASS
  1
DICTIONARYVAR
  2
AcDbDictionaryVar
  3
ObjectDBX Classes
 90
        0
 91
        4
280
     0
281
     0
  0
CLASS
  1
ACDBDICTIONARYWDFLT
  2
AcDbDictionaryWithDefault
  3
ObjectDBX Classes
 90
        0
 91
        1
280
     0
281
     0
  0
CLASS
  1
RASTERVARIABLES
  2
AcDbRasterVariables
  3
ISM
 90
        0
 91
        1
280
     0
281
     0
  0
CLASS
  1
IMAGEDEF
  2
AcDbRasterImageDef
  3
ISM
 90
        0
 91
        2
280
     0
281
     0
  0
CLASS
  1
IMAGEDEF_REACTOR
  2
AcDbRasterImageDefReactor
  3
ISM
 90
        1
 91
        0
280
     0
281
     0
  0
CLASS
  1
IMAGE
  2
AcDbRasterImage
  3
ISM
 90
     2175
 91
        0
280
     0
281
     1
  0
CLASS
  1
DIMASSOC
  2
AcDbDimAssoc
  3
"AcDbDimAssoc|Product Desc:     AcDim ARX App For Dimension|Company:          Autodesk, Inc.|WEB Address:      www.autodesk.com"
 90
        0
 91
        4
280
     0
281
     0
  0
CLASS
  1
TABLESTYLE
  2
AcDbTableStyle
  3
ObjectDBX Classes
 90
     4095
 91
        1
280
     0
281
     0
  0
CLASS
  1
SORTENTSTABLE
  2
AcDbSortentsTable
  3
ObjectDBX Classes
 90
        0
 91
        1
280
     0
281
     0
  0
CLASS
  1
MATERIAL
  2
AcDbMaterial
  3
ObjectDBX Classes
 90
     1153
 91
        3
280
     0
281
     0
  0
CLASS
  1
VISUALSTYLE
  2
AcDbVisualStyle
  3
ObjectDBX Classes
 90
     4095
 91
       16
280
     0
281
     0
  0
CLASS
  1
EXACXREFPANELOBJECT
  2
ExAcXREFPanelObject
  3
EXAC_ESW
 90
     1025
 91
        0
280
     0
281
     0
  0
CLASS
  1
NPOCOLLECTION
  2
AcDbImpNonPersistentObjectsCollection
  3
ObjectDBX Classes
 90
     1153
 91
        0
280
     0
281
     0
  0
CLASS
  1
SCALE
  2
AcDbScale
  3
ObjectDBX Classes
 90
     1153
 91
       33
280
     0
281
     0
  0
CLASS
  1
MLEADERSTYLE
  2
AcDbMLeaderStyle
  3
ACDB_MLEADERSTYLE_CLASS
 90
     4095
 91
        1
280
     0
281
     0
  0
CLASS
  1
CELLSTYLEMAP
  2
AcDbCellStyleMap
  3
ObjectDBX Classes
 90
     1152
 91
        3
280
     0
281
     0
  0
ENDSEC
  0
SECTION
  2
TABLES
  0
TABLE
  2
VPORT
  5
8
102
{ACAD_XDICTIONARY
360
5191
102
}
330
0
100
AcDbSymbolTable
 70
     1
  0
VPORT
  5
503B
330
8
100
AcDbSymbolTableRecord
100
AcDbViewportTableRecord
  2
*Active
 70
     0
 10
0.0
 20
0.0
 11
1.0
 21
1.0
 12
18428.5883208903
 22
-4202.141377801207
 13
0.0
 23
0.0
 14
0.5
 24
0.5
 15
0.5
 25
0.5
 16
0.0
 26
0.0
 36
1.0
 17
0.0
 27
0.0
 37
0.0
 40
2741.869541717568
 41
1.788313120176405
 42
50.0
 43
0.0
 44
0.0
 50
0.0
 51
0.0
 71
     0
 72
   100
 73
     1
 74
     1
 75
     0
 76
     0
 77
     0
 78
     0
281
     0
 65
     1
110
0.0
120
0.0
130
0.0
111
1.0
121
0.0
131
0.0
112
0.0
122
1.0
132
0.0
 79
     0
146
0.0
  0
ENDTAB
  0
TABLE
  2
LTYPE
  5
5
330
0
100
AcDbSymbolTable
 70
     3
  0
LTYPE
  5
12
330
5
100
AcDbSymbolTableRecord
100
AcDbLinetypeTableRecord
  2
BYBLOCK
 70
     0
  3

 72
    65
 73
     0
 40
0.0
  0
LTYPE
  5
13
330
5
100
AcDbSymbolTableRecord
100
AcDbLinetypeTableRecord
  2
BYLAYER
 70
     0
  3

 72
    65
 73
     0
 40
0.0
  0
LTYPE
  5
14
330
5
100
AcDbSymbolTableRecord
100
AcDbLinetypeTableRecord
  2
CONTINUOUS
 70
     0
  3
Solid line
 72
    65
 73
     0
 40
0.0
  0
LTYPE
  5
222
330
5
100
AcDbSymbolTableRecord
100
AcDbLinetypeTableRecord
  2
STRICHPUNKT
 70
     0
  3
Strichpunkt __ . __ . __ . __ . __ . __ . __ . 
 72
    65
 73
     4
 40
25.4
 49
12.7
 74
     0
 49
-6.349999999999999
 74
     0
 49
0.0
 74
     0
 49
-6.349999999999999
 74
     0
  0
LTYPE
  5
223
330
5
100
AcDbSymbolTableRecord
100
AcDbLinetypeTableRecord
  2
STRICHLINIE
 70
     0
  3
Strichlinie __ __ __ __ __ __ __ __ __ __ __ __
 72
    65
 73
     2
 40
19.05
 49
12.7
 74
     0
 49
-6.349999999999999
 74
     0
  0
ENDTAB
  0
TABLE
  2
LAYER
  5
2
102
{ACAD_XDICTIONARY
360
421D
102
}
330
0
100
AcDbSymbolTable
 70
    18
  0
LAYER
  5
E
102
{ACAD_XDICTIONARY
360
577B
102
}
330
2
100
AcDbSymbolTableRecord
100
AcDbLayerTableRecord
  2
0
 70
     0
 62
     7
  6
CONTINUOUS
370
    -3
390
16EB
  0
LAYER
  5
4A
102
{ACAD_XDICTIONARY
360
577D
102
}
330
2
100
AcDbSymbolTableRecord
100
AcDbLayerTableRecord
  2
HILFSLINIEN
 70
     0
 62
    -3
  6
CONTINUOUS
290
     0
370
    -3
390
16EB
  0
LAYER
  5
12F
102
{ACAD_XDICTIONARY
360
577F
102
}
330
2
100
AcDbSymbolTableRecord
100
AcDbLayerTableRecord
  2
25
 70
     0
 62
     7
  6
CONTINUOUS
370
    -3
390
16EB
  0
LAYER
  5
1DA
102
{ACAD_XDICTIONARY
360
5781
102
}
330
2
100
AcDbSymbolTableRecord
100
AcDbLayerTableRecord
  2
35
 70
     0
 62
     2
  6
CONTINUOUS
370
    -3
390
16EB
  0
LAYER
  5
224
102
{ACAD_XDICTIONARY
360
5783
102
}
330
2
100
AcDbSymbolTableRecord
100
AcDbLayerTableRecord
  2
KOTIERUNG
 70
     0
 62
     7
  6
CONTINUOUS
370
    -3
390
16EB
  0
LAYER
  5
225
330
2
100
AcDbSymbolTableRecord
100
AcDbLayerTableRecord
  2
DEFPOINTS
 70
     0
 62
     7
  6
CONTINUOUS
290
     0
370
    -3
390
16EB
  0
LAYER
  5
226
102
{ACAD_XDICTIONARY
360
5785
102
}
330
2
100
AcDbSymbolTableRecord
100
AcDbLayerTableRecord
  2
18
 70
     0
 62
     1
  6
CONTINUOUS
370
    -3
390
16EB
  0
LAYER
  5
425
102
{ACAD_XDICTIONARY
360
5787
102
}
330
2
100
AcDbSymbolTableRecord
100
AcDbLayerTableRecord
  2
50
 70
     0
 62
    33
  6
CONTINUOUS
370
    -3
390
16EB
  0
LAYER
  5
471
102
{ACAD_XDICTIONARY
360
5789
102
}
330
2
100
AcDbSymbolTableRecord
100
AcDbLayerTableRecord
  2
FENSTER
 70
     0
 62
     4
  6
CONTINUOUS
290
     0
370
    -3
390
16EB
  0
LAYER
  5
474
102
{ACAD_XDICTIONARY
360
578B
102
}
330
2
100
AcDbSymbolTableRecord
100
AcDbLayerTableRecord
  2
A4-BLATT
 70
     0
 62
     6
  6
CONTINUOUS
290
     0
370
    -3
390
16EB
  0
LAYER
  5
12F9
102
{ACAD_XDICTIONARY
360
578D
102
}
330
2
100
AcDbSymbolTableRecord
100
AcDbLayerTableRecord
  2
BLATTHILFSLINIEN
 70
     0
 62
   252
  6
CONTINUOUS
290
     0
370
    -3
390
16EB
  0
LAYER
  5
14E1
102
{ACAD_XDICTIONARY
360
578F
102
}
330
2
100
AcDbSymbolTableRecord
100
AcDbLayerTableRecord
  2
BESCHRIFTUNGM
 70
     0
 62
     7
  6
CONTINUOUS
290
     0
370
    -3
390
16EB
  0
LAYER
  5
14EF
102
{ACAD_XDICTIONARY
360
5791
102
}
330
2
100
AcDbSymbolTableRecord
100
AcDbLayerTableRecord
  2
BLATTTEXT
 70
     0
 62
     7
  6
CONTINUOUS
370
    -3
390
16EB
  0
LAYER
  5
18AE
102
{ACAD_XDICTIONARY
360
5793
102
}
330
2
100
AcDbSymbolTableRecord
100
AcDbLayerTableRecord
  2
LOGO
 70
     0
 62
     7
  6
CONTINUOUS
370
    -3
390
16EB
  0
LAYER
  5
1A60
102
{ACAD_XDICTIONARY
360
5795
102
}
330
2
100
AcDbSymbolTableRecord
100
AcDbLayerTableRecord
  2
70
 70
     0
 62
     5
  6
CONTINUOUS
370
    -3
390
16EB
  0
LAYER
  5
1A61
102
{ACAD_XDICTIONARY
360
5797
102
}
330
2
100
AcDbSymbolTableRecord
100
AcDbLayerTableRecord
  2
PLANKOPF
 70
     0
 62
     7
  6
CONTINUOUS
370
    -3
390
16EB
  0
LAYER
  5
1D2D
102
{ACAD_XDICTIONARY
360
5799
102
}
330
2
100
AcDbSymbolTableRecord
100
AcDbLayerTableRecord
  2
Dämpfungsbügel
 70
     0
 62
     2
  6
CONTINUOUS
370
    -3
390
16EB
  0
LAYER
  5
1D2E
102
{ACAD_XDICTIONARY
360
579B
102
}
330
2
100
AcDbSymbolTableRecord
100
AcDbLayerTableRecord
  2
LOCHBILD
 70
     0
 62
     2
  6
CONTINUOUS
370
    -3
390
16EB
  0
ENDTAB
  0
TABLE
  2
STYLE
  5
3
330
0
100
AcDbSymbolTable
 70
    12
  0
STYLE
  5
F
330
3
100
AcDbSymbolTableRecord
100
AcDbTextStyleTableRecord
  2
STANDARD
 70
     0
 40
0.0
 41
1.0
 50
0.0
 71
     0
 42
25.0
  3
ARIALN.TTF
  4

1001
ACAD
1000
Arial Narrow
1071
       34
  0
STYLE
  5
428
330
3
100
AcDbSymbolTableRecord
100
AcDbTextStyleTableRecord
  2
VOEST
 70
     0
 40
0.0
 41
1.0
 50
0.0
 71
     0
 42
4.0
  3
ARIALN.TTF
  4

1001
ACAD
1000
Arial Narrow
1071
       34
  0
STYLE
  5
14E5
330
3
100
AcDbSymbolTableRecord
100
AcDbTextStyleTableRecord
  2
ARIALFETT
 70
     0
 40
0.0
 41
1.0
 50
0.0
 71
     0
 42
4.0
  3
ARIALN.TTF
  4

1001
ACAD
1000
Arial Narrow
1071
       34
  0
STYLE
  5
16D3
330
3
100
AcDbSymbolTableRecord
100
AcDbTextStyleTableRecord
  2
VOESTB
 70
     0
 40
0.0
 41
1.0
 50
0.0
 71
     0
 42
4.0
  3
ARIALNB.TTF
  4

1001
ACAD
1000
Arial Narrow
1071
 33554466
  0
STYLE
  5
18AF
330
3
100
AcDbSymbolTableRecord
100
AcDbTextStyleTableRecord
  2
LOGO
 70
     0
 40
0.0
 41
1.0
 50
0.0
 71
     0
 42
3.0
  3
ariblk.TTF
  4

1001
ACAD
1000
Arial Black
1071
       34
  0
STYLE
  5
1A62
330
3
100
AcDbSymbolTableRecord
100
AcDbTextStyleTableRecord
  2
Stil1
 70
     0
 40
0.0
 41
1.175
 50
0.0
 71
     0
 42
6.158564712355089
  3
swissb.ttf
  4

1001
ACAD
1000
Swis721 BT
1071
 33554466
  0
STYLE
  5
1A63
330
3
100
AcDbSymbolTableRecord
100
AcDbTextStyleTableRecord
  2
Stil2
 70
     0
 40
0.0
 41
1.175
 50
0.0
 71
     0
 42
6.158564712355089
  3
swissel.ttf
  4

1001
ACAD
1000
Swis721 LtEx BT
1071
       34
  0
STYLE
  5
1A75
330
3
100
AcDbSymbolTableRecord
100
AcDbTextStyleTableRecord
  2
AN150
 70
     0
 40
0.0
 41
1.5
 50
0.0
 71
     0
 42
4.0
  3
ARIALN.TTF
  4

1001
ACAD
1000
Arial Narrow
1071
       34
  0
STYLE
  5
3ED7
330
3
100
AcDbSymbolTableRecord
100
AcDbTextStyleTableRecord
  2
LOGO1
 70
     0
 40
0.0
 41
1.175
 50
0.0
 71
     0
 42
6.158564712355089
  3
swissb.ttf
  4

1001
ACAD
1000
Swis721 BT
1071
 33554466
  0
STYLE
  5
3ED8
330
3
100
AcDbSymbolTableRecord
100
AcDbTextStyleTableRecord
  2
LOGO3
 70
     0
 40
0.0
 41
1.175
 50
0.0
 71
     0
 42
6.158564712355089
  3
swissel.ttf
  4

1001
ACAD
1000
Swis721 LtEx BT
1071
       34
  0
STYLE
  5
3ED9
330
3
100
AcDbSymbolTableRecord
100
AcDbTextStyleTableRecord
  2
LOGO2
 70
     0
 40
0.0
 41
1.175
 50
0.0
 71
     0
 42
6.158564712355089
  3
swiss.ttf
  4

1001
ACAD
1000
Swis721 BT
1071
       34
  0
STYLE
  5
4C3B
330
3
100
AcDbSymbolTableRecord
100
AcDbTextStyleTableRecord
  2
STYLE1
 70
     0
 40
0.0
 41
1.0
 50
0.0
 71
     0
 42
15.0
  3
ARIALN.TTF
  4

1001
ACAD
1000
Arial Narrow
1071
       34
  0
ENDTAB
  0
TABLE
  2
VIEW
  5
6
330
0
100
AcDbSymbolTable
 70
     0
  0
ENDTAB
  0
TABLE
  2
UCS
  5
7
330
0
100
AcDbSymbolTable
 70
     0
  0
ENDTAB
  0
TABLE
  2
APPID
  5
9
330
0
100
AcDbSymbolTable
 70
     8
  0
APPID
  5
10
330
9
100
AcDbSymbolTableRecord
100
AcDbRegAppTableRecord
  2
ACAD
 70
     0
  0
APPID
  5
24
330
9
100
AcDbSymbolTableRecord
100
AcDbRegAppTableRecord
  2
CONTENTTABDATA
 70
     0
  0
APPID
  5
25
330
9
100
AcDbSymbolTableRecord
100
AcDbRegAppTableRecord
  2
CONTENTCURRENTTAB
 70
     0
  0
APPID
  5
116
330
9
100
AcDbSymbolTableRecord
100
AcDbRegAppTableRecord
  2
CONTENTBLOCKICON
 70
     0
  0
APPID
  5
117
330
9
100
AcDbSymbolTableRecord
100
AcDbRegAppTableRecord
  2
CONTENTBLOCKDESCRIPTION
 70
     0
  0
APPID
  5
42BE
330
9
100
AcDbSymbolTableRecord
100
AcDbRegAppTableRecord
  2
ACAD_PSEXT
 70
     0
  0
APPID
  5
54C0
330
9
100
AcDbSymbolTableRecord
100
AcDbRegAppTableRecord
  2
ACAD_MLEADERVER
 70
     0
  0
APPID
  5
5A9A
330
9
100
AcDbSymbolTableRecord
100
AcDbRegAppTableRecord
  2
ACAD_EXEMPT_FROM_CAD_STANDARDS
 70
     0
  0
ENDTAB
  0
TABLE
  2
DIMSTYLE
  5
A
330
0
100
AcDbSymbolTable
 70
    12
100
AcDbDimStyleTable
 71
     2
340
EF9
340
1D2F
  0
DIMSTYLE
105
1D
330
A
100
AcDbSymbolTableRecord
100
AcDbDimStyleTableRecord
  2
STANDARD
 70
     0
340
F
  0
DIMSTYLE
105
B80
330
A
100
AcDbSymbolTableRecord
100
AcDbDimStyleTableRecord
  2
TYPENBLATT
 70
     0
 40
100.0
 41
0.25
 42
0.5
 43
0.5
 44
0.25
 73
     0
 74
     0
140
0.25
147
0.125
271
     0
340
428
  0
DIMSTYLE
105
EF9
330
A
100
AcDbSymbolTableRecord
100
AcDbDimStyleTableRecord
  2
TYPENBLATT_M10
 70
     0
 40
100.0
 41
0.25
 42
0.5
 43
0.5
 44
0.25
 73
     0
 74
     0
 77
     1
140
0.25
147
0.075
271
     0
340
428
  0
DIMSTYLE
105
EFA
330
A
100
AcDbSymbolTableRecord
100
AcDbDimStyleTableRecord
  2
TYPENBLATT_M50
 70
     0
 40
500.0
 41
0.25
 42
0.1
 43
0.5
 44
0.25
 73
     0
 74
     0
 77
     1
140
0.25
147
0.075
271
     0
340
428
  0
DIMSTYLE
105
10C6
330
A
100
AcDbSymbolTableRecord
100
AcDbDimStyleTableRecord
  2
TYPENBLATT_BESCHR
 70
     0
 40
100.0
 41
0.25
 42
0.5
 43
0.25
 44
0.25
 73
     0
 74
     0
140
0.25
141
0.0
147
0.075
271
     0
340
428
  0
DIMSTYLE
105
1A64
330
A
100
AcDbSymbolTableRecord
100
AcDbDimStyleTableRecord
  2
STIL10
 70
     0
 41
25.0
 42
25.0
 43
100.0
 44
20.0
 73
     0
 74
     0
140
25.0
147
5.0
271
     0
340
428
  0
DIMSTYLE
105
1A65
330
A
100
AcDbSymbolTableRecord
100
AcDbDimStyleTableRecord
  2
STIL5
 70
     0
 40
0.35
 41
25.0
 42
25.0
 43
100.0
 44
20.0
 47
2.0
 48
2.0
 73
     0
 74
     0
140
25.0
147
5.0
271
     0
272
     0
340
428
  0
DIMSTYLE
105
1A66
330
A
100
AcDbSymbolTableRecord
100
AcDbDimStyleTableRecord
  2
STIL5Tol
 70
     0
 40
0.5
 41
25.0
 42
25.0
 43
100.0
 44
20.0
 47
2.0
 48
2.0
 71
     1
 73
     0
 74
     0
140
25.0
147
5.0
271
     0
272
     0
340
428
  0
DIMSTYLE
105
1A67
330
A
100
AcDbSymbolTableRecord
100
AcDbDimStyleTableRecord
  2
STIL2
 70
     0
 40
0.2
 41
35.0
 42
35.0
 43
75.0
 44
17.5
 47
2.0
 48
1.0
 73
     0
 74
     0
140
35.0
146
0.75
147
5.0
271
     0
272
     0
340
428
  0
DIMSTYLE
105
1D2F
102
{ACAD_REACTORS
330
641E
330
6421
330
6432
330
658F
330
6592
330
6595
330
6598
330
6599
330
659A
330
659B
102
}
330
A
100
AcDbSymbolTableRecord
100
AcDbDimStyleTableRecord
  2
ISO-25
 70
     0
 40
10.0
 41
2.5
 42
0.625
 43
3.75
 44
1.25
 73
     0
 74
     0
 77
     1
 78
     8
140
2.5
141
2.5
143
0.03937007874016
147
0.625
171
     3
172
     1
271
     2
272
     2
274
     3
278
    44
283
     0
284
     8
340
F
  0
DIMSTYLE
105
414A
330
A
100
AcDbSymbolTableRecord
100
AcDbDimStyleTableRecord
  2
STIL2.5
 70
     0
 40
2.5
 41
5.0
 42
1.0
 43
1.0
 44
1.0
 73
     0
 74
     0
140
3.5
147
1.0
271
     0
272
     0
340
428
341
4146
  0
DIMSTYLE
105
4C3C
330
A
100
AcDbSymbolTableRecord
100
AcDbDimStyleTableRecord
  2
VAKF
 70
     0
 40
2.0
 41
20.0
 42
20.0
 43
60.0
 44
10.0
 73
     0
 74
     0
140
25.0
147
2.0
179
     2
271
     2
272
     2
340
F
  0
ENDTAB
  0
TABLE
  2
BLOCK_RECORD
  5
1
330
0
100
AcDbSymbolTable
 70
    72
  0
BLOCK_RECORD
  5
18
102
{ACAD_XDICTIONARY
360
572B
102
}
330
1
100
AcDbSymbolTableRecord
100
AcDbBlockTableRecord
  2
*MODEL_SPACE
340
16EE
  0
BLOCK_RECORD
  5
6297
330
1
100
AcDbSymbolTableRecord
100
AcDbBlockTableRecord
  2
*Paper_Space
340
6298
  0
BLOCK_RECORD
  5
38B9
330
1
100
AcDbSymbolTableRecord
100
AcDbBlockTableRecord
  2
*D0
340
0
  0
BLOCK_RECORD
  5
38C5
330
1
100
AcDbSymbolTableRecord
100
AcDbBlockTableRecord
  2
*D1
340
0
  0
BLOCK_RECORD
  5
38D1
330
1
100
AcDbSymbolTableRecord
100
AcDbBlockTableRecord
  2
*D2
340
0
  0
BLOCK_RECORD
  5
38DE
330
1
100
AcDbSymbolTableRecord
100
AcDbBlockTableRecord
  2
*D3
340
0
  0
BLOCK_RECORD
  5
390F
330
1
100
AcDbSymbolTableRecord
100
AcDbBlockTableRecord
  2
*D4
340
0
  0
BLOCK_RECORD
  5
3ECD
330
1
100
AcDbSymbolTableRecord
100
AcDbBlockTableRecord
  2
VOESTALPINE LOGO
340
0
310
2800000020000000200000000100080000000000000400000000000000000000000000000000000000000000000080000080000000808000800000008000800080800000C0C0C000C0DCC000F0CAA6000020400000206000002080000020A0000020C0000020E00000400000004020000040400000406000004080000040A0
310
000040C0000040E00000600000006020000060400000606000006080000060A0000060C0000060E00000800000008020000080400000806000008080000080A0000080C0000080E00000A0000000A0200000A0400000A0600000A0800000A0A00000A0C00000A0E00000C0000000C0200000C0400000C0600000C0800000C0
310
A00000C0C00000C0E00000E0000000E0200000E0400000E0600000E0800000E0A00000E0C00000E0E00040000000400020004000400040006000400080004000A0004000C0004000E00040200000402020004020400040206000402080004020A0004020C0004020E000404000004040200040404000404060004040800040
310
40A0004040C0004040E00040600000406020004060400040606000406080004060A0004060C0004060E00040800000408020004080400040806000408080004080A0004080C0004080E00040A0000040A0200040A0400040A0600040A0800040A0A00040A0C00040A0E00040C0000040C0200040C0400040C0600040C08000
310
40C0A00040C0C00040C0E00040E0000040E0200040E0400040E0600040E0800040E0A00040E0C00040E0E00080000000800020008000400080006000800080008000A0008000C0008000E00080200000802020008020400080206000802080008020A0008020C0008020E00080400000804020008040400080406000804080
310
008040A0008040C0008040E00080600000806020008060400080606000806080008060A0008060C0008060E00080800000808020008080400080806000808080008080A0008080C0008080E00080A0000080A0200080A0400080A0600080A0800080A0A00080A0C00080A0E00080C0000080C0200080C0400080C0600080C0
310
800080C0A00080C0C00080C0E00080E0000080E0200080E0400080E0600080E0800080E0A00080E0C00080E0E000C0000000C0002000C0004000C0006000C0008000C000A000C000C000C000E000C0200000C0202000C0204000C0206000C0208000C020A000C020C000C020E000C0400000C0402000C0404000C0406000C0
310
408000C040A000C040C000C040E000C0600000C0602000C0604000C0606000C0608000C060A000C060C000C060E000C0800000C0802000C0804000C0806000C0808000C080A000C080C000C080E000C0A00000C0A02000C0A04000C0A06000C0A08000C0A0A000C0A0C000C0A0E000C0C00000C0C02000C0C04000C0C06000
310
C0C08000C0C0A000F0FBFF00A4A0A000808080000000FF0000FF000000FFFF00FF000000FF00FF00FFFF0000FFFFFF0000000000000000000000000000000000000000000000000000000000000000000000000000000000000000000000000000000000000000000000000000000000000000000000000000000000000000
310
00000000000000000000000000000000000000000000000000000000000000000000000000000000000000000000000000000000000000000000000000000000000000000000000000000000000000000000000000000000000000000000000000000000000000000000000000000000000000000000000000000000000000
310
00000000000000000000000000000000000000000000000000000000000000000000000000000000000000000000000000000000000000000000000000000000000000000000000000000000000000000000000000000000000000000000000000000000000000000000000000000000000000000000000000000000000000
310
000000000000000000000000000000000000000000000000000000000000000000000000000000000000000000000000000000000000000000000000000000000000000000000000000000000000000000000000000000000000000000000000000000000000000000000000000000000000000000FFFFFFFFFFFFFFFFFFFF
310
FFFFFFFFFFFFFFFFFFFFFFFFFF000000000000000000FFFF00FF00FF00FF00FFA2A2A2A2A2A2A2A2A200000000000000000000000000FFFFFFFFFFFFFFFFFFFFA2A2A2A2A2A2A2A2A2A20000000000000000000000FFFFFFFFFFFFFFFFFFFFFFA2A2A2A2A2A2A2A2A2A2000000000000000000000000000000000000000000
310
00000000000000000000000000000000000000000000000000000000000000000000000000000000000000000000000000000000000000000000000000000000000000000000000000000000000000000000000000000000000000000000000000000000000000000000000000000000000000000000000000000000000000
310
00000000000000000000000000000000000000000000000000000000000000000000000000000000000000000000000000000000000000000000000000000000000000000000000000000000000000000000000000000000000000000000000000000000000000000000000000000000000000000000000000000000000000
310
00000000000000000000000000000000000000000000000000000000000000000000000000000000000000000000000000000000000000000000000000000000000000000000000000000000000000000000000000000000000000000000000000000000000000000000000000000000000000000000000000000000000000
310
0000000000000000000000000000000000000000000000000000000000000000000000000000000000000000000000000000000000000000
102
{BLKREFS
331
3FBE
102
}
1001
ACAD
1000
DesignCenter Data
1002
{
1070
     1
1070
     4
1002
}
  0
BLOCK_RECORD
  5
3ED3
330
1
100
AcDbSymbolTableRecord
100
AcDbBlockTableRecord
  2
LOGO ACAD
340
0
1001
ACAD
1000
DesignCenter Data
1002
{
1070
     1
1070
     4
1002
}
  0
BLOCK_RECORD
  5
4146
330
1
100
AcDbSymbolTableRecord
100
AcDbBlockTableRecord
  2
_DotSmall
340
0
  0
BLOCK_RECORD
  5
64DF
330
1
100
AcDbSymbolTableRecord
100
AcDbBlockTableRecord
  2
*D62
340
0
  0
BLOCK_RECORD
  5
64EB
330
1
100
AcDbSymbolTableRecord
100
AcDbBlockTableRecord
  2
*D63
340
0
  0
BLOCK_RECORD
  5
64F7
330
1
100
AcDbSymbolTableRecord
100
AcDbBlockTableRecord
  2
*D64
340
0
  0
BLOCK_RECORD
  5
659C
330
1
100
AcDbSymbolTableRecord
100
AcDbBlockTableRecord
  2
*D65
340
0
  0
BLOCK_RECORD
  5
65A8
330
1
100
AcDbSymbolTableRecord
100
AcDbBlockTableRecord
  2
*D66
340
0
  0
BLOCK_RECORD
  5
65B4
330
1
100
AcDbSymbolTableRecord
100
AcDbBlockTableRecord
  2
*D67
340
0
  0
BLOCK_RECORD
  5
65C0
330
1
100
AcDbSymbolTableRecord
100
AcDbBlockTableRecord
  2
*D68
340
0
  0
BLOCK_RECORD
  5
65CC
330
1
100
AcDbSymbolTableRecord
100
AcDbBlockTableRecord
  2
*D69
340
0
  0
BLOCK_RECORD
  5
65D8
330
1
100
AcDbSymbolTableRecord
100
AcDbBlockTableRecord
  2
*D70
340
0
  0
BLOCK_RECORD
  5
65E4
330
1
100
AcDbSymbolTableRecord
100
AcDbBlockTableRecord
  2
*D71
340
0
  0
ENDTAB
  0
ENDSEC
  0
SECTION
  2
BLOCKS
  0
BLOCK
  5
19
330
18
100
AcDbEntity
  8
0
100
AcDbBlockBegin
  2
*MODEL_SPACE
 70
     0
 10
0.0
 20
0.0
 30
0.0
  3
*MODEL_SPACE
  1

  0
ENDBLK
  5
1A
330
18
100
AcDbEntity
  8
0
100
AcDbBlockEnd
  0
BLOCK
  5
6299
330
6297
100
AcDbEntity
 67
     1
  8
0
100
AcDbBlockBegin
  2
*Paper_Space
 70
     0
 10
0.0
 20
0.0
 30
0.0
  3
*Paper_Space
  1

  0
ENDBLK
  5
629A
330
6297
100
AcDbEntity
 67
     1
  8
0
100
AcDbBlockEnd
  0
BLOCK
  5
38C3
330
38B9
100
AcDbEntity
  8
0
100
AcDbBlockBegin
  2
*D0
 70
     1
 10
0.0
 20
0.0
 30
0.0
  3
*D0
  1

  0
LINE
  5
613E
330
38B9
100
AcDbEntity
  8
KOTIERUNG
 62
     0
 48
0.05
370
    -2
100
AcDbLine
 10
18405.88910602716
 20
-37681.98132568843
 30
0.0
 11
18405.88910602716
 21
-36173.17245357482
 31
0.0
  0
LINE
  5
613F
330
38B9
100
AcDbEntity
  8
KOTIERUNG
 62
     0
 48
0.05
370
    -2
100
AcDbLine
 10
9616.215206815077
 20
-36673.17245357482
 30
0.0
 11
10936.56461259231
 21
-36673.17245357482
 31
0.0
  0
LINE
  5
6140
330
38B9
100
AcDbEntity
  8
KOTIERUNG
 62
     0
 48
0.05
370
    -2
100
AcDbLine
 10
17905.88910602715
 20
-36673.17245357482
 30
0.0
 11
16766.23719103706
 21
-36673.17245357482
 31
0.0
  0
SOLID
  5
6141
330
38B9
100
AcDbEntity
  8
KOTIERUNG
 62
     0
 48
0.05
100
AcDbTrace
 10
9616.215206815077
 20
-36589.83912024148
 30
0.0
 11
9616.215206815077
 21
-36756.50578690815
 31
0.0
 12
9116.215206815075
 22
-36673.17245357482
 32
0.0
 13
9116.215206815075
 23
-36673.17245357482
 33
0.0
  0
SOLID
  5
6142
330
38B9
100
AcDbEntity
  8
KOTIERUNG
 62
     0
 48
0.05
100
AcDbTrace
 10
17905.88910602715
 20
-36589.83912024148
 30
0.0
 11
17905.88910602715
 21
-36756.50578690815
 31
0.0
 12
18405.88910602716
 22
-36673.17245357482
 32
0.0
 13
18405.88910602716
 23
-36673.17245357482
 33
0.0
  0
MTEXT
  5
6143
330
38B9
100
AcDbEntity
  8
KOTIERUNG
 62
     0
 48
0.05
100
AcDbMText
 10
13851.40090181469
 20
-36673.17245357482
 30
0.0
 40
500.0
 41
0.0
 71
     5
 72
     1
  1
\A1;56,00 m / 3 = 18,67 m
  7
VOEST
 73
     1
 44
1.0
  0
POINT
  5
6144
330
38B9
100
AcDbEntity
  8
DEFPOINTS
 62
     0
 48
0.05
100
AcDbPoint
 10
9116.215206815075
 20
-37855.68136497119
 30
0.0
  0
POINT
  5
6145
330
38B9
100
AcDbEntity
  8
DEFPOINTS
 62
     0
 48
0.05
100
AcDbPoint
 10
18405.88910602716
 20
-38081.98132568843
 30
0.0
  0
POINT
  5
6146
330
38B9
100
AcDbEntity
  8
DEFPOINTS
 62
     0
 48
0.05
100
AcDbPoint
 10
18405.88910602716
 20
-36673.17245357482
 30
0.0
  0
ENDBLK
  5
38C4
330
38B9
100
AcDbEntity
  8
0
100
AcDbBlockEnd
  0
BLOCK
  5
38CF
330
38C5
100
AcDbEntity
  8
0
100
AcDbBlockBegin
  2
*D1
 70
     1
 10
0.0
 20
0.0
 30
0.0
  3
*D1
  1

  0
LINE
  5
6147
330
38C5
100
AcDbEntity
  8
KOTIERUNG
 62
     0
 48
0.05
370
    -2
100
AcDbLine
 10
31498.98668979321
 20
-37687.94956679808
 30
0.0
 11
31498.98668979321
 21
-35174.85077856851
 31
0.0
  0
LINE
  5
6148
330
38C5
100
AcDbEntity
  8
KOTIERUNG
 62
     0
 48
0.05
370
    -2
100
AcDbLine
 10
26614.51527153591
 20
-35674.85077856852
 30
0.0
 11
26114.51527153592
 21
-35674.85077856852
 31
0.0
  0
LINE
  5
6149
330
38C5
100
AcDbEntity
  8
KOTIERUNG
 62
     0
 48
0.05
370
    -2
100
AcDbLine
 10
31998.98668979321
 20
-35674.85077856852
 30
0.0
 11
32498.98668979321
 21
-35674.85077856852
 31
0.0
  0
SOLID
  5
614A
330
38C5
100
AcDbEntity
  8
KOTIERUNG
 62
     0
 48
0.05
100
AcDbTrace
 10
26614.51527153591
 20
-35591.51744523518
 30
0.0
 11
26614.51527153591
 21
-35758.18411190185
 31
0.0
 12
27114.51527153592
 22
-35674.85077856852
 32
0.0
 13
27114.51527153592
 23
-35674.85077856852
 33
0.0
  0
SOLID
  5
614B
330
38C5
100
AcDbEntity
  8
KOTIERUNG
 62
     0
 48
0.05
100
AcDbTrace
 10
31998.98668979321
 20
-35591.51744523518
 30
0.0
 11
31998.98668979321
 21
-35758.18411190185
 31
0.0
 12
31498.98668979321
 22
-35674.85077856852
 32
0.0
 13
31498.98668979321
 23
-35674.85077856852
 33
0.0
  0
MTEXT
  5
614C
330
38C5
100
AcDbEntity
  8
KOTIERUNG
 62
     0
 48
0.05
100
AcDbMText
 10
29306.75098066456
 20
-35674.85077856852
 30
0.0
 40
500.0
 41
0.0
 71
     5
 72
     1
  1
\A1;Absenkung\P~ 4,40 m
  7
VOEST
 73
     1
 44
1.0
  0
POINT
  5
614D
330
38C5
100
AcDbEntity
  8
DEFPOINTS
 62
     0
 48
0.05
100
AcDbPoint
 10
27114.51527153592
 20
-37855.68136497119
 30
0.0
  0
POINT
  5
614E
330
38C5
100
AcDbEntity
  8
DEFPOINTS
 62
     0
 48
0.05
100
AcDbPoint
 10
31498.98668979321
 20
-38087.94956679808
 30
0.0
  0
POINT
  5
614F
330
38C5
100
AcDbEntity
  8
DEFPOINTS
 62
     0
 48
0.05
100
AcDbPoint
 10
31498.98668979321
 20
-35674.85077856852
 30
0.0
  0
ENDBLK
  5
38D0
330
38C5
100
AcDbEntity
  8
0
100
AcDbBlockEnd
  0
BLOCK
  5
38DC
330
38D1
100
AcDbEntity
  8
0
100
AcDbBlockBegin
  2
*D2
 70
     1
 10
0.0
 20
0.0
 30
0.0
  3
*D2
  1

  0
LINE
  5
6150
330
38D1
100
AcDbEntity
  8
KOTIERUNG
 62
     0
 48
0.05
370
    -2
100
AcDbLine
 10
9116.215206815075
 20
-37455.68136497119
 30
0.0
 11
9116.215206815075
 21
-35174.66883715548
 31
0.0
  0
LINE
  5
6151
330
38D1
100
AcDbEntity
  8
KOTIERUNG
 62
     0
 48
0.05
370
    -2
100
AcDbLine
 10
27114.51527153592
 20
-37455.68136497119
 30
0.0
 11
27114.51527153592
 21
-35174.66883715548
 31
0.0
  0
LINE
  5
6152
330
38D1
100
AcDbEntity
  8
KOTIERUNG
 62
     0
 48
0.05
370
    -2
100
AcDbLine
 10
9616.215206815077
 20
-35674.66883715549
 30
0.0
 11
14582.65530499265
 21
-35674.66883715549
 31
0.0
  0
LINE
  5
6153
330
38D1
100
AcDbEntity
  8
KOTIERUNG
 62
     0
 48
0.05
370
    -2
100
AcDbLine
 10
26614.51527153591
 20
-35674.66883715549
 30
0.0
 11
20501.00455465159
 21
-35674.66883715549
 31
0.0
  0
SOLID
  5
6154
330
38D1
100
AcDbEntity
  8
KOTIERUNG
 62
     0
 48
0.05
100
AcDbTrace
 10
9616.215206815077
 20
-35591.33550382215
 30
0.0
 11
9616.215206815077
 21
-35758.00217048882
 31
0.0
 12
9116.215206815075
 22
-35674.66883715549
 32
0.0
 13
9116.215206815075
 23
-35674.66883715549
 33
0.0
  0
SOLID
  5
6155
330
38D1
100
AcDbEntity
  8
KOTIERUNG
 62
     0
 48
0.05
100
AcDbTrace
 10
26614.51527153591
 20
-35591.33550382215
 30
0.0
 11
26614.51527153591
 21
-35758.00217048882
 31
0.0
 12
27114.51527153592
 22
-35674.66883715549
 32
0.0
 13
27114.51527153592
 23
-35674.66883715549
 33
0.0
  0
MTEXT
  5
6156
330
38D1
100
AcDbEntity
  8
KOTIERUNG
 62
     0
 48
0.05
100
AcDbMText
 10
17541.82992982212
 20
-35674.66883715549
 30
0.0
 40
500.0
 41
0.0
 71
     5
 72
     1
  1
\A1;14 x 4,00 m = 56,00 m
  7
VOEST
 73
     1
 44
1.0
  0
POINT
  5
6157
330
38D1
100
AcDbEntity
  8
DEFPOINTS
 62
     0
 48
0.05
100
AcDbPoint
 10
9116.215206815075
 20
-37855.68136497119
 30
0.0
  0
POINT
  5
6158
330
38D1
100
AcDbEntity
  8
DEFPOINTS
 62
     0
 48
0.05
100
AcDbPoint
 10
27114.51527153592
 20
-37855.68136497119
 30
0.0
  0
POINT
  5
6159
330
38D1
100
AcDbEntity
  8
DEFPOINTS
 62
     0
 48
0.05
100
AcDbPoint
 10
27114.51527153592
 20
-35674.66883715549
 30
0.0
  0
ENDBLK
  5
38DD
330
38D1
100
AcDbEntity
  8
0
100
AcDbBlockEnd
  0
BLOCK
  5
38E8
330
38DE
100
AcDbEntity
  8
0
100
AcDbBlockBegin
  2
*D3
 70
     1
 10
0.0
 20
0.0
 30
0.0
  3
*D3
  1

  0
LINE
  5
615A
330
38DE
100
AcDbEntity
  8
KOTIERUNG
 62
     0
 48
0.05
370
    -2
100
AcDbLine
 10
-2916.051032776704
 20
-37681.98132568843
 30
0.0
 11
-2916.051032776704
 21
-35174.66883715548
 31
0.0
  0
LINE
  5
615B
330
38DE
100
AcDbEntity
  8
KOTIERUNG
 62
     0
 48
0.05
370
    -2
100
AcDbLine
 10
8616.215206815075
 20
-35674.66883715549
 30
0.0
 11
4663.451800525325
 21
-35674.66883715549
 31
0.0
  0
LINE
  5
615C
330
38DE
100
AcDbEntity
  8
KOTIERUNG
 62
     0
 48
0.05
370
    -2
100
AcDbLine
 10
-2416.051032776704
 20
-35674.66883715549
 30
0.0
 11
1536.712373513046
 21
-35674.66883715549
 31
0.0
  0
SOLID
  5
615D
330
38DE
100
AcDbEntity
  8
KOTIERUNG
 62
     0
 48
0.05
100
AcDbTrace
 10
8616.215206815075
 20
-35591.33550382215
 30
0.0
 11
8616.215206815075
 21
-35758.00217048882
 31
0.0
 12
9116.215206815075
 22
-35674.66883715549
 32
0.0
 13
9116.215206815075
 23
-35674.66883715549
 33
0.0
  0
SOLID
  5
615E
330
38DE
100
AcDbEntity
  8
KOTIERUNG
 62
     0
 48
0.05
100
AcDbTrace
 10
-2416.051032776704
 20
-35591.33550382215
 30
0.0
 11
-2416.051032776704
 21
-35758.00217048882
 31
0.0
 12
-2916.051032776704
 22
-35674.66883715549
 32
0.0
 13
-2916.051032776704
 23
-35674.66883715549
 33
0.0
  0
MTEXT
  5
615F
330
38DE
100
AcDbEntity
  8
KOTIERUNG
 62
     0
 48
0.05
100
AcDbMText
 10
3100.082087019186
 20
-35674.66883715549
 30
0.0
 40
500.0
 41
0.0
 71
     5
 72
     1
  1
\A1;Absenkung\P~ 12,00 m
  7
VOEST
 73
     1
 44
1.0
  0
POINT
  5
6160
330
38DE
100
AcDbEntity
  8
DEFPOINTS
 62
     0
 48
0.05
100
AcDbPoint
 10
9116.215206815075
 20
-37855.68136497119
 30
0.0
  0
POINT
  5
6161
330
38DE
100
AcDbEntity
  8
DEFPOINTS
 62
     0
 48
0.05
100
AcDbPoint
 10
-2916.051032776704
 20
-38081.98132568843
 30
0.0
  0
POINT
  5
6162
330
38DE
100
AcDbEntity
  8
DEFPOINTS
 62
     0
 48
0.05
100
AcDbPoint
 10
-2916.051032776704
 20
-35674.66883715549
 30
0.0
  0
ENDBLK
  5
38E9
330
38DE
100
AcDbEntity
  8
0
100
AcDbBlockEnd
  0
BLOCK
  5
391B
330
390F
100
AcDbEntity
  8
0
100
AcDbBlockBegin
  2
*D4
 70
     1
 10
0.0
 20
0.0
 30
0.0
  3
*D4
  1

  0
LINE
  5
612B
330
390F
100
AcDbEntity
  8
KOTIERUNG
 62
     0
 48
0.05
370
    -2
100
AcDbLine
 10
13023.87562100464
 20
-38175.68132568842
 30
0.0
 11
12653.98181969745
 21
-38175.68132568842
 31
0.0
  0
ARC
  5
612C
330
390F
100
AcDbEntity
  8
KOTIERUNG
 62
     0
 48
0.05
370
    -2
100
AcDbCircle
 10
22060.64460623093
 20
-38175.68132568842
 30
0.0
 40
8906.662786533484
100
AcDbArc
 50
183.2168785930428
 51
186.2855293120969
  0
ARC
  5
612D
330
390F
100
AcDbEntity
  8
KOTIERUNG
 62
     0
 48
0.05
370
    -2
100
AcDbCircle
 10
22060.64460623093
 20
-38175.68132568842
 30
0.0
 40
8906.662786533484
100
AcDbArc
 50
193.7144706879031
 51
196.7831214069572
  0
SOLID
  5
612E
330
390F
100
AcDbEntity
  8
KOTIERUNG
 62
     0
 48
0.05
100
AcDbTrace
 10
13084.71575765579
 20
-38677.82339432407
 30
0.0
 11
13251.31675624258
 21
-38673.14524857349
 31
0.0
 12
13153.98181969745
 22
-38175.68132568842
 32
0.0
 13
13153.98181969745
 23
-38175.68132568842
 33
0.0
  0
SOLID
  5
612F
330
390F
100
AcDbEntity
  8
KOTIERUNG
 62
     0
 48
0.05
100
AcDbTrace
 10
13612.44154930858
 20
-40721.18572210193
 30
0.0
 11
13454.28780024091
 21
-40773.770600476
 31
0.0
 12
13691.11930989696
 22
-41221.939408492
 32
0.0
 13
13691.11930989696
 23
-41221.939408492
 33
0.0
  0
MTEXT
  5
6130
102
{ACAD_XDICTIONARY
360
674F
102
}
330
390F
100
AcDbEntity
  8
KOTIERUNG
 62
     0
 48
0.05
100
AcDbMText
 10
13289.29404058743
 20
-39722.30708766383
 30
0.0
 40
500.0
 41
0.0
 71
     5
 72
     1
  1
\A1;20\U+00B0
  7
VOEST
 11
0.1736481776669302
 21
-0.9848077530122081
 31
0.0
 73
     1
 44
1.0
  0
POINT
  5
6131
330
390F
100
AcDbEntity
  8
DEFPOINTS
 62
     0
 48
0.05
100
AcDbPoint
 10
13214.20548717314
 20
-39209.68176370783
 30
0.0
  0
POINT
  5
6132
330
390F
100
AcDbEntity
  8
DEFPOINTS
 62
     0
 48
0.05
100
AcDbPoint
 10
14023.87562100464
 20
-38175.68132568841
 30
0.0
  0
POINT
  5
6133
330
390F
100
AcDbEntity
  8
DEFPOINTS
 62
     0
 48
0.05
100
AcDbPoint
 10
22060.64460623098
 20
-38175.68132568841
 30
0.0
  0
POINT
  5
6134
330
390F
100
AcDbEntity
  8
DEFPOINTS
 62
     0
 48
0.05
100
AcDbPoint
 10
1365.578752220393
 20
-45708.06929272713
 30
0.0
  0
POINT
  5
6135
330
390F
100
AcDbEntity
  8
DEFPOINTS
 62
     0
 48
0.05
100
AcDbPoint
 10
19736.15321403856
 20
-38175.68132568842
 30
0.0
  0
ENDBLK
  5
391C
330
390F
100
AcDbEntity
  8
0
100
AcDbBlockEnd
  0
BLOCK
  5
3ECE
330
3ECD
100
AcDbEntity
  8
0
100
AcDbBlockBegin
  2
VOESTALPINE LOGO
 70
     0
 10
0.0
 20
0.0
 30
0.0
  3
VOESTALPINE LOGO
  1

  0
TEXT
  5
3ECF
330
3ECD
100
AcDbEntity
  8
0
 62
   155
100
AcDbText
 10
-2.022376810040597
 20
1.345163130846486
 30
0.0
 40
4.761899999999999
  1
alpine
 41
1.29
  7
LOGO2
100
AcDbText
  0
TEXT
  5
3ED0
330
3ECD
100
AcDbEntity
  8
0
 62
     7
100
AcDbText
 10
-24.96332103124969
 20
-3.319987708589252
 30
0.0
 40
2.050802049214244
  1
KREMS FINALTECHNIK GMBH
 41
1.219999999999999
  7
LOGO3
100
AcDbText
  0
TEXT
  5
3ED1
330
3ECD
100
AcDbEntity
  8
0
 62
     7
100
AcDbText
 10
-25.59751279130563
 20
1.29203428188444
 30
0.0
 40
4.761899999999999
  1
voest
 41
1.379999999999999
  7
LOGO1
100
AcDbText
  0
ENDBLK
  5
3ED2
330
3ECD
100
AcDbEntity
  8
0
100
AcDbBlockEnd
  0
BLOCK
  5
3ED4
330
3ED3
100
AcDbEntity
  8
0
100
AcDbBlockBegin
  2
LOGO ACAD
 70
     0
 10
0.0
 20
0.0
 30
0.0
  3
LOGO ACAD
  1

  0
INSERT
  5
3FBE
330
3ED3
100
AcDbEntity
  8
0
100
AcDbBlockReference
  2
VOESTALPINE LOGO
 10
25.66052293085149
 20
-5.598002378525222
 30
0.0
  0
ENDBLK
  5
3ED6
330
3ED3
100
AcDbEntity
  8
0
100
AcDbBlockEnd
  0
BLOCK
  5
4147
330
4146
100
AcDbEntity
  8
0
100
AcDbBlockBegin
  2
_DotSmall
 70
     0
 10
0.0
 20
0.0
 30
0.0
  3
_DotSmall
  1

  0
LWPOLYLINE
  5
4148
330
4146
100
AcDbEntity
  8
0
 62
     0
100
AcDbPolyline
 90
        2
 70
     1
 43
0.5
 10
-0.0625
 20
0.0
 42
1.0
 10
0.0625
 20
0.0
 42
1.0
  0
ENDBLK
  5
4149
330
4146
100
AcDbEntity
  8
0
100
AcDbBlockEnd
  0
BLOCK
  5
64E0
330
64DF
100
AcDbEntity
  8
0
100
AcDbBlockBegin
  2
*D62
 70
     1
 10
0.0
 20
0.0
 30
0.0
  3
*D62
  1

  0
LINE
  5
6663
330
64DF
100
AcDbEntity
  8
KOTIERUNG
 62
     0
370
    -2
100
AcDbLine
 10
20443.91193149053
 20
-5362.444168983931
 30
0.0
 11
20443.91193149053
 21
-4893.978891588371
 31
0.0
  0
LINE
  5
6664
330
64DF
100
AcDbEntity
  8
KOTIERUNG
 62
     0
370
    -2
100
AcDbLine
 10
16443.91193149053
 20
-5362.444168983931
 30
0.0
 11
16443.91193149053
 21
-4893.978891588371
 31
0.0
  0
LINE
  5
6665
330
64DF
100
AcDbEntity
  8
KOTIERUNG
 62
     0
370
    -2
100
AcDbLine
 10
20318.91193149053
 20
-4956.478891588371
 30
0.0
 11
16568.91193149053
 21
-4956.478891588371
 31
0.0
  0
SOLID
  5
6666
330
64DF
100
AcDbEntity
  8
KOTIERUNG
 62
     0
100
AcDbTrace
 10
20318.91193149053
 20
-4935.645558255038
 30
0.0
 11
20318.91193149053
 21
-4977.312224921703
 31
0.0
 12
20443.91193149053
 22
-4956.478891588371
 32
0.0
 13
20443.91193149053
 23
-4956.478891588371
 33
0.0
  0
SOLID
  5
6667
330
64DF
100
AcDbEntity
  8
KOTIERUNG
 62
     0
100
AcDbTrace
 10
16568.91193149053
 20
-4935.645558255038
 30
0.0
 11
16568.91193149053
 21
-4977.312224921703
 31
0.0
 12
16443.91193149053
 22
-4956.478891588371
 32
0.0
 13
16443.91193149053
 23
-4956.478891588371
 33
0.0
  0
MTEXT
  5
6668
102
{ACAD_XDICTIONARY
360
676B
102
}
330
64DF
100
AcDbEntity
  8
KOTIERUNG
 62
     0
100
AcDbMText
 10
18443.91193149053
 20
-4861.407268123159
 30
0.0
 40
125.0
 41
0.0
 71
     5
 72
     1
  1
\A1;4000{\H93.750000;\U+00B17}
 73
     1
 44
1.0
  0
POINT
  5
6669
330
64DF
100
AcDbEntity
  8
DEFPOINTS
 62
     0
100
AcDbPoint
 10
20443.91193149053
 20
-5393.694168983931
 30
0.0
  0
POINT
  5
666A
330
64DF
100
AcDbEntity
  8
DEFPOINTS
 62
     0
100
AcDbPoint
 10
16443.91193149053
 20
-5393.694168983931
 30
0.0
  0
POINT
  5
666B
330
64DF
100
AcDbEntity
  8
DEFPOINTS
 62
     0
100
AcDbPoint
 10
16443.91193149053
 20
-4956.478891588371
 30
0.0
  0
ENDBLK
  5
64E1
330
64DF
100
AcDbEntity
  8
0
100
AcDbBlockEnd
  0
BLOCK
  5
64EC
330
64EB
100
AcDbEntity
  8
0
100
AcDbBlockBegin
  2
*D63
 70
     1
 10
0.0
 20
0.0
 30
0.0
  3
*D63
  1

  0
LINE
  5
666C
330
64EB
100
AcDbEntity
  8
KOTIERUNG
 62
     0
370
    -2
100
AcDbLine
 10
20443.91193149053
 20
-5362.444168983931
 30
0.0
 11
20443.91193149053
 21
-5153.471359683407
 31
0.0
  0
LINE
  5
666D
330
64EB
100
AcDbEntity
  8
KOTIERUNG
 62
     0
370
    -2
100
AcDbLine
 10
18443.91193149053
 20
-5362.444168983931
 30
0.0
 11
18443.91193149053
 21
-5153.471359683407
 31
0.0
  0
LINE
  5
666E
330
64EB
100
AcDbEntity
  8
KOTIERUNG
 62
     0
370
    -2
100
AcDbLine
 10
20318.91193149053
 20
-5215.971359683407
 30
0.0
 11
18568.91193149053
 21
-5215.971359683407
 31
0.0
  0
SOLID
  5
666F
330
64EB
100
AcDbEntity
  8
KOTIERUNG
 62
     0
100
AcDbTrace
 10
20318.91193149053
 20
-5195.138026350073
 30
0.0
 11
20318.91193149053
 21
-5236.80469301674
 31
0.0
 12
20443.91193149053
 22
-5215.971359683407
 32
0.0
 13
20443.91193149053
 23
-5215.971359683407
 33
0.0
  0
SOLID
  5
6670
330
64EB
100
AcDbEntity
  8
KOTIERUNG
 62
     0
100
AcDbTrace
 10
18568.91193149053
 20
-5195.138026350073
 30
0.0
 11
18568.91193149053
 21
-5236.80469301674
 31
0.0
 12
18443.91193149053
 22
-5215.971359683407
 32
0.0
 13
18443.91193149053
 23
-5215.971359683407
 33
0.0
  0
MTEXT
  5
6671
330
64EB
100
AcDbEntity
  8
KOTIERUNG
 62
     0
100
AcDbMText
 10
19443.91193149053
 20
-5120.899736218195
 30
0.0
 40
125.0
 41
0.0
 71
     5
 72
     1
  1
2000
 73
     1
 44
1.0
  0
POINT
  5
6672
330
64EB
100
AcDbEntity
  8
DEFPOINTS
 62
     0
100
AcDbPoint
 10
20443.91193149053
 20
-5393.694168983931
 30
0.0
  0
POINT
  5
6673
330
64EB
100
AcDbEntity
  8
DEFPOINTS
 62
     0
100
AcDbPoint
 10
18443.91193149053
 20
-5393.694168983931
 30
0.0
  0
POINT
  5
6674
330
64EB
100
AcDbEntity
  8
DEFPOINTS
 62
     0
100
AcDbPoint
 10
18443.91193149053
 20
-5215.971359683407
 30
0.0
  0
ENDBLK
  5
64ED
330
64EB
100
AcDbEntity
  8
0
100
AcDbBlockEnd
  0
BLOCK
  5
64F8
330
64F7
100
AcDbEntity
  8
0
100
AcDbBlockBegin
  2
*D64
 70
     1
 10
0.0
 20
0.0
 30
0.0
  3
*D64
  1

  0
LINE
  5
6675
330
64F7
100
AcDbEntity
  8
KOTIERUNG
 62
     0
370
    -2
100
AcDbLine
 10
18443.91193149053
 20
-5362.444168983931
 30
0.0
 11
18443.91193149053
 21
-5153.471359683407
 31
0.0
  0
LINE
  5
6676
330
64F7
100
AcDbEntity
  8
KOTIERUNG
 62
     0
370
    -2
100
AcDbLine
 10
16443.91193149053
 20
-5362.444168983931
 30
0.0
 11
16443.91193149053
 21
-5153.471359683407
 31
0.0
  0
LINE
  5
6677
330
64F7
100
AcDbEntity
  8
KOTIERUNG
 62
     0
370
    -2
100
AcDbLine
 10
18318.91193149053
 20
-5215.971359683407
 30
0.0
 11
16568.91193149053
 21
-5215.971359683407
 31
0.0
  0
SOLID
  5
6678
330
64F7
100
AcDbEntity
  8
KOTIERUNG
 62
     0
100
AcDbTrace
 10
18318.91193149053
 20
-5195.138026350073
 30
0.0
 11
18318.91193149053
 21
-5236.80469301674
 31
0.0
 12
18443.91193149053
 22
-5215.971359683407
 32
0.0
 13
18443.91193149053
 23
-5215.971359683407
 33
0.0
  0
SOLID
  5
6679
330
64F7
100
AcDbEntity
  8
KOTIERUNG
 62
     0
100
AcDbTrace
 10
16568.91193149053
 20
-5195.138026350073
 30
0.0
 11
16568.91193149053
 21
-5236.80469301674
 31
0.0
 12
16443.91193149053
 22
-5215.971359683407
 32
0.0
 13
16443.91193149053
 23
-5215.971359683407
 33
0.0
  0
MTEXT
  5
667A
330
64F7
100
AcDbEntity
  8
KOTIERUNG
 62
     0
100
AcDbMText
 10
17443.91193149053
 20
-5120.899736218195
 30
0.0
 40
125.0
 41
0.0
 71
     5
 72
     1
  1
2000
 73
     1
 44
1.0
  0
POINT
  5
667B
330
64F7
100
AcDbEntity
  8
DEFPOINTS
 62
     0
100
AcDbPoint
 10
18443.91193149053
 20
-5393.694168983931
 30
0.0
  0
POINT
  5
667C
330
64F7
100
AcDbEntity
  8
DEFPOINTS
 62
     0
100
AcDbPoint
 10
16443.91193149053
 20
-5393.694168983931
 30
0.0
  0
POINT
  5
667D
330
64F7
100
AcDbEntity
  8
DEFPOINTS
 62
     0
100
AcDbPoint
 10
16443.91193149053
 20
-5215.971359683407
 30
0.0
  0
ENDBLK
  5
64F9
330
64F7
100
AcDbEntity
  8
0
100
AcDbBlockEnd
  0
BLOCK
  5
659D
330
659C
100
AcDbEntity
  8
0
100
AcDbBlockBegin
  2
*D65
 70
     1
 10
0.0
 20
0.0
 30
0.0
  3
*D65
  1

  0
LINE
  5
65F0
330
659C
100
AcDbEntity
  8
KOTIERUNG
 62
     0
370
    -2
100
AcDbLine
 10
18325.40308997712
 20
-2981.946132100871
 30
0.0
 11
18102.53963761495
 21
-2981.946132100871
 31
0.0
  0
LINE
  5
65F1
330
659C
100
AcDbEntity
  8
KOTIERUNG
 62
     0
370
    -2
100
AcDbLine
 10
18036.59598388639
 20
-3851.946132100871
 30
0.0
 11
18140.03963761495
 21
-3851.946132100871
 31
0.0
  0
LINE
  5
65F2
330
659C
100
AcDbEntity
  8
KOTIERUNG
 62
     0
370
    -2
100
AcDbLine
 10
18121.28963761495
 20
-3019.446132100871
 30
0.0
 11
18121.28963761495
 21
-3814.446132100871
 31
0.0
  0
SOLID
  5
65F3
330
659C
100
AcDbEntity
  8
KOTIERUNG
 62
     0
100
AcDbTrace
 10
18115.03963761495
 20
-3019.446132100871
 30
0.0
 11
18127.53963761495
 21
-3019.446132100871
 31
0.0
 12
18121.28963761495
 22
-2981.946132100871
 32
0.0
 13
18121.28963761495
 23
-2981.946132100871
 33
0.0
  0
SOLID
  5
65F4
330
659C
100
AcDbEntity
  8
KOTIERUNG
 62
     0
100
AcDbTrace
 10
18115.03963761495
 20
-3814.446132100871
 30
0.0
 11
18127.53963761495
 21
-3814.446132100871
 31
0.0
 12
18121.28963761495
 22
-3851.946132100871
 32
0.0
 13
18121.28963761495
 23
-3851.946132100871
 33
0.0
  0
MTEXT
  5
65F5
102
{ACAD_XDICTIONARY
360
6769
102
}
330
659C
100
AcDbEntity
  8
KOTIERUNG
 62
     0
100
AcDbMText
 10
18092.76815057539
 20
-3310.718522006762
 30
0.0
 40
37.5
 41
0.0
 71
     5
 72
     1
  1
\A1;870{\H28.125000;\U+00B140}
 11
0.0000000000000001
 21
1.0
 31
0.0
 73
     1
 44
1.0
  0
POINT
  5
65F6
330
659C
100
AcDbEntity
  8
DEFPOINTS
 62
     0
100
AcDbPoint
 10
18334.77808997712
 20
-2981.946132100871
 30
0.0
  0
POINT
  5
65F7
330
659C
100
AcDbEntity
  8
DEFPOINTS
 62
     0
100
AcDbPoint
 10
18027.22098388639
 20
-3851.946132100871
 30
0.0
  0
POINT
  5
65F8
330
659C
100
AcDbEntity
  8
DEFPOINTS
 62
     0
100
AcDbPoint
 10
18121.28963761495
 20
-3851.946132100871
 30
0.0
  0
ENDBLK
  5
659E
330
659C
100
AcDbEntity
  8
0
100
AcDbBlockEnd
  0
BLOCK
  5
65A9
330
65A8
100
AcDbEntity
  8
0
100
AcDbBlockBegin
  2
*D66
 70
     1
 10
0.0
 20
0.0
 30
0.0
  3
*D66
  1

  0
LINE
  5
65F9
330
65A8
100
AcDbEntity
  8
KOTIERUNG
 62
     0
370
    -2
100
AcDbLine
 10
18242.86856231001
 20
-3346.317137857147
 30
0.0
 11
18242.86856231001
 21
-3539.849972788157
 31
0.0
  0
LINE
  5
65FA
330
65A8
100
AcDbEntity
  8
KOTIERUNG
 62
     0
370
    -2
100
AcDbLine
 10
18392.86856231001
 20
-3388.439585727283
 30
0.0
 11
18392.86856231001
 21
-3539.849972788157
 31
0.0
  0
LINE
  5
65FB
330
65A8
100
AcDbEntity
  8
KOTIERUNG
 62
     0
370
    -2
100
AcDbLine
 10
18280.36856231002
 20
-3521.099972788157
 30
0.0
 11
18355.36856231001
 21
-3521.099972788157
 31
0.0
  0
SOLID
  5
65FC
330
65A8
100
AcDbEntity
  8
KOTIERUNG
 62
     0
100
AcDbTrace
 10
18280.36856231002
 20
-3514.849972788157
 30
0.0
 11
18280.36856231002
 21
-3527.349972788157
 31
0.0
 12
18242.86856231001
 22
-3521.099972788157
 32
0.0
 13
18242.86856231001
 23
-3521.099972788157
 33
0.0
  0
SOLID
  5
65FD
330
65A8
100
AcDbEntity
  8
KOTIERUNG
 62
     0
100
AcDbTrace
 10
18355.36856231001
 20
-3514.849972788157
 30
0.0
 11
18355.36856231001
 21
-3527.349972788157
 31
0.0
 12
18392.86856231001
 22
-3521.099972788157
 32
0.0
 13
18392.86856231001
 23
-3521.099972788157
 33
0.0
  0
MTEXT
  5
65FE
330
65A8
100
AcDbEntity
  8
KOTIERUNG
 62
     0
100
AcDbMText
 10
18317.86856231001
 20
-3492.578485748594
 30
0.0
 40
37.5
 41
0.0
 71
     5
 72
     1
  1
150
 73
     1
 44
1.0
  0
POINT
  5
65FF
330
65A8
100
AcDbEntity
  8
DEFPOINTS
 62
     0
100
AcDbPoint
 10
18242.86856231001
 20
-3336.942137857147
 30
0.0
  0
POINT
  5
6600
330
65A8
100
AcDbEntity
  8
DEFPOINTS
 62
     0
100
AcDbPoint
 10
18392.86856231001
 20
-3379.064585727283
 30
0.0
  0
POINT
  5
6601
330
65A8
100
AcDbEntity
  8
DEFPOINTS
 62
     0
100
AcDbPoint
 10
18392.86856231001
 20
-3521.099972788157
 30
0.0
  0
ENDBLK
  5
65AA
330
65A8
100
AcDbEntity
  8
0
100
AcDbBlockEnd
  0
BLOCK
  5
65B5
330
65B4
100
AcDbEntity
  8
0
100
AcDbBlockBegin
  2
*D67
 70
     1
 10
0.0
 20
0.0
 30
0.0
  3
*D67
  1

  0
LINE
  5
6602
330
65B4
100
AcDbEntity
  8
KOTIERUNG
 62
     0
370
    -2
100
AcDbLine
 10
18542.24356231001
 20
-3851.946132100871
 30
0.0
 11
18654.53146510245
 21
-3851.946132100871
 31
0.0
  0
LINE
  5
6603
330
65B4
100
AcDbEntity
  8
KOTIERUNG
 62
     0
370
    -2
100
AcDbLine
 10
18542.24356231001
 20
-4403.558039344425
 30
0.0
 11
18654.53146510245
 21
-4403.558039344425
 31
0.0
  0
LINE
  5
6604
330
65B4
100
AcDbEntity
  8
KOTIERUNG
 62
     0
370
    -2
100
AcDbLine
 10
18635.78146510245
 20
-3889.446132100871
 30
0.0
 11
18635.78146510245
 21
-4366.058039344426
 31
0.0
  0
SOLID
  5
6605
330
65B4
100
AcDbEntity
  8
KOTIERUNG
 62
     0
100
AcDbTrace
 10
18629.53146510245
 20
-3889.446132100871
 30
0.0
 11
18642.03146510245
 21
-3889.446132100871
 31
0.0
 12
18635.78146510245
 22
-3851.946132100871
 32
0.0
 13
18635.78146510245
 23
-3851.946132100871
 33
0.0
  0
SOLID
  5
6606
330
65B4
100
AcDbEntity
  8
KOTIERUNG
 62
     0
100
AcDbTrace
 10
18629.53146510245
 20
-4366.058039344426
 30
0.0
 11
18642.03146510245
 21
-4366.058039344426
 31
0.0
 12
18635.78146510245
 22
-4403.558039344425
 32
0.0
 13
18635.78146510245
 23
-4403.558039344425
 33
0.0
  0
MTEXT
  5
6607
330
65B4
100
AcDbEntity
  8
KOTIERUNG
 62
     0
100
AcDbMText
 10
18607.25997806289
 20
-4127.752085722645
 30
0.0
 40
37.5
 41
0.0
 71
     5
 72
     1
  1
930
 11
0.0000000000000001
 21
1.0
 31
0.0
 73
     1
 44
1.0
  0
POINT
  5
6608
330
65B4
100
AcDbEntity
  8
DEFPOINTS
 62
     0
100
AcDbPoint
 10
18532.86856231001
 20
-3851.946132100871
 30
0.0
  0
POINT
  5
6609
330
65B4
100
AcDbEntity
  8
DEFPOINTS
 62
     0
100
AcDbPoint
 10
18532.86856231001
 20
-4403.558039344425
 30
0.0
  0
POINT
  5
660A
330
65B4
100
AcDbEntity
  8
DEFPOINTS
 62
     0
100
AcDbPoint
 10
18635.78146510245
 20
-4403.558039344425
 30
0.0
  0
ENDBLK
  5
65B6
330
65B4
100
AcDbEntity
  8
0
100
AcDbBlockEnd
  0
BLOCK
  5
65C1
330
65C0
100
AcDbEntity
  8
0
100
AcDbBlockBegin
  2
*D68
 70
     1
 10
0.0
 20
0.0
 30
0.0
  3
*D68
  1

  0
LINE
  5
660B
330
65C0
100
AcDbEntity
  8
KOTIERUNG
 62
     0
370
    -2
100
AcDbLine
 10
18392.86856231001
 20
-3381.276894499218
 30
0.0
 11
18392.86856231001
 21
-3539.849972788157
 31
0.0
  0
LINE
  5
660C
330
65C0
100
AcDbEntity
  8
KOTIERUNG
 62
     0
370
    -2
100
AcDbLine
 10
18532.86856231001
 20
-3381.276894499218
 30
0.0
 11
18532.86856231001
 21
-3539.849972788157
 31
0.0
  0
LINE
  5
660D
330
65C0
100
AcDbEntity
  8
KOTIERUNG
 62
     0
370
    -2
100
AcDbLine
 10
18430.36856231001
 20
-3521.099972788157
 30
0.0
 11
18495.36856231001
 21
-3521.099972788157
 31
0.0
  0
SOLID
  5
660E
330
65C0
100
AcDbEntity
  8
KOTIERUNG
 62
     0
100
AcDbTrace
 10
18430.36856231001
 20
-3514.849972788157
 30
0.0
 11
18430.36856231001
 21
-3527.349972788157
 31
0.0
 12
18392.86856231001
 22
-3521.099972788157
 32
0.0
 13
18392.86856231001
 23
-3521.099972788157
 33
0.0
  0
SOLID
  5
660F
330
65C0
100
AcDbEntity
  8
KOTIERUNG
 62
     0
100
AcDbTrace
 10
18495.36856231001
 20
-3514.849972788157
 30
0.0
 11
18495.36856231001
 21
-3527.349972788157
 31
0.0
 12
18532.86856231001
 22
-3521.099972788157
 32
0.0
 13
18532.86856231001
 23
-3521.099972788157
 33
0.0
  0
MTEXT
  5
6610
330
65C0
100
AcDbEntity
  8
KOTIERUNG
 62
     0
100
AcDbMText
 10
18462.86856231001
 20
-3492.578485748594
 30
0.0
 40
37.5
 41
0.0
 71
     5
 72
     1
  1
140
 73
     1
 44
1.0
  0
POINT
  5
6611
330
65C0
100
AcDbEntity
  8
DEFPOINTS
 62
     0
100
AcDbPoint
 10
18392.86856231001
 20
-3371.901894499218
 30
0.0
  0
POINT
  5
6612
330
65C0
100
AcDbEntity
  8
DEFPOINTS
 62
     0
100
AcDbPoint
 10
18532.86856231001
 20
-3371.901894499218
 30
0.0
  0
POINT
  5
6613
330
65C0
100
AcDbEntity
  8
DEFPOINTS
 62
     0
100
AcDbPoint
 10
18532.86856231001
 20
-3521.099972788157
 30
0.0
  0
ENDBLK
  5
65C2
330
65C0
100
AcDbEntity
  8
0
100
AcDbBlockEnd
  0
BLOCK
  5
65CD
330
65CC
100
AcDbEntity
  8
0
100
AcDbBlockBegin
  2
*D69
 70
     1
 10
0.0
 20
0.0
 30
0.0
  3
*D69
  1

  0
LINE
  5
6614
330
65CC
100
AcDbEntity
  8
KOTIERUNG
 62
     0
370
    -2
100
AcDbLine
 10
18242.86856231001
 20
-3067.567137857146
 30
0.0
 11
18242.86856231001
 21
-2882.931582294667
 31
0.0
  0
LINE
  5
6615
330
65CC
100
AcDbEntity
  8
KOTIERUNG
 62
     0
370
    -2
100
AcDbLine
 10
18532.86856231001
 20
-3072.571132100871
 30
0.0
 11
18532.86856231001
 21
-2882.931582294667
 31
0.0
  0
LINE
  5
6616
330
65CC
100
AcDbEntity
  8
KOTIERUNG
 62
     0
370
    -2
100
AcDbLine
 10
18280.36856231002
 20
-2901.681582294667
 30
0.0
 11
18495.36856231001
 21
-2901.681582294667
 31
0.0
  0
SOLID
  5
6617
330
65CC
100
AcDbEntity
  8
KOTIERUNG
 62
     0
100
AcDbTrace
 10
18280.36856231002
 20
-2895.431582294667
 30
0.0
 11
18280.36856231002
 21
-2907.931582294667
 31
0.0
 12
18242.86856231001
 22
-2901.681582294667
 32
0.0
 13
18242.86856231001
 23
-2901.681582294667
 33
0.0
  0
SOLID
  5
6618
330
65CC
100
AcDbEntity
  8
KOTIERUNG
 62
     0
100
AcDbTrace
 10
18495.36856231001
 20
-2895.431582294667
 30
0.0
 11
18495.36856231001
 21
-2907.931582294667
 31
0.0
 12
18532.86856231001
 22
-2901.681582294667
 32
0.0
 13
18532.86856231001
 23
-2901.681582294667
 33
0.0
  0
MTEXT
  5
6619
330
65CC
100
AcDbEntity
  8
KOTIERUNG
 62
     0
100
AcDbMText
 10
18397.70225434859
 20
-2873.160095255103
 30
0.0
 40
37.5
 41
0.0
 71
     5
 72
     1
  1
290
 73
     1
 44
1.0
  0
POINT
  5
661A
330
65CC
100
AcDbEntity
  8
DEFPOINTS
 62
     0
100
AcDbPoint
 10
18242.86856231001
 20
-3076.942137857146
 30
0.0
  0
POINT
  5
661B
330
65CC
100
AcDbEntity
  8
DEFPOINTS
 62
     0
100
AcDbPoint
 10
18532.86856231001
 20
-3081.946132100871
 30
0.0
  0
POINT
  5
661C
330
65CC
100
AcDbEntity
  8
DEFPOINTS
 62
     0
100
AcDbPoint
 10
18532.86856231001
 20
-2901.681582294667
 30
0.0
  0
ENDBLK
  5
65CE
330
65CC
100
AcDbEntity
  8
0
100
AcDbBlockEnd
  0
BLOCK
  5
65D9
330
65D8
100
AcDbEntity
  8
0
100
AcDbBlockBegin
  2
*D70
 70
     1
 10
0.0
 20
0.0
 30
0.0
  3
*D70
  1

  0
LINE
  5
661D
330
65D8
100
AcDbEntity
  8
KOTIERUNG
 62
     0
370
    -2
100
AcDbLine
 10
18542.24356231001
 20
-3081.946132100871
 30
0.0
 11
18654.53146510245
 21
-3081.946132100871
 31
0.0
  0
LINE
  5
661E
330
65D8
100
AcDbEntity
  8
KOTIERUNG
 62
     0
370
    -2
100
AcDbLine
 10
18344.15308997712
 20
-2981.946132100871
 30
0.0
 11
18654.53146510245
 21
-2981.946132100871
 31
0.0
  0
LINE
  5
661F
330
65D8
100
AcDbEntity
  8
KOTIERUNG
 62
     0
370
    -2
100
AcDbLine
 10
18635.78146510245
 20
-3044.446132100871
 30
0.0
 11
18635.78146510245
 21
-3019.446132100871
 31
0.0
  0
SOLID
  5
6620
330
65D8
100
AcDbEntity
  8
KOTIERUNG
 62
     0
100
AcDbTrace
 10
18629.53146510245
 20
-3044.446132100871
 30
0.0
 11
18642.03146510245
 21
-3044.446132100871
 31
0.0
 12
18635.78146510245
 22
-3081.946132100871
 32
0.0
 13
18635.78146510245
 23
-3081.946132100871
 33
0.0
  0
SOLID
  5
6621
330
65D8
100
AcDbEntity
  8
KOTIERUNG
 62
     0
100
AcDbTrace
 10
18629.53146510245
 20
-3019.446132100871
 30
0.0
 11
18642.03146510245
 21
-3019.446132100871
 31
0.0
 12
18635.78146510245
 22
-2981.946132100871
 32
0.0
 13
18635.78146510245
 23
-2981.946132100871
 33
0.0
  0
MTEXT
  5
6622
330
65D8
100
AcDbEntity
  8
KOTIERUNG
 62
     0
100
AcDbMText
 10
18607.25997806289
 20
-3031.946132100868
 30
0.0
 40
37.5
 41
0.0
 71
     5
 72
     1
  1
100
 11
0.0000000000000001
 21
1.0
 31
0.0
 73
     1
 44
1.0
  0
POINT
  5
6623
330
65D8
100
AcDbEntity
  8
DEFPOINTS
 62
     0
100
AcDbPoint
 10
18532.86856231001
 20
-3081.946132100871
 30
0.0
  0
POINT
  5
6624
330
65D8
100
AcDbEntity
  8
DEFPOINTS
 62
     0
100
AcDbPoint
 10
18334.77808997712
 20
-2981.946132100871
 30
0.0
  0
POINT
  5
6625
330
65D8
100
AcDbEntity
  8
DEFPOINTS
 62
     0
100
AcDbPoint
 10
18635.78146510245
 20
-2981.946132100871
 30
0.0
  0
ENDBLK
  5
65DA
330
65D8
100
AcDbEntity
  8
0
100
AcDbBlockEnd
  0
BLOCK
  5
65E5
330
65E4
100
AcDbEntity
  8
0
100
AcDbBlockBegin
  2
*D71
 70
     1
 10
0.0
 20
0.0
 30
0.0
  3
*D71
  1

  0
LINE
  5
6626
330
65E4
100
AcDbEntity
  8
KOTIERUNG
 62
     0
370
    -2
100
AcDbLine
 10
18542.24356231001
 20
-3081.946132100871
 30
0.0
 11
18654.53146510245
 21
-3081.946132100871
 31
0.0
  0
LINE
  5
6627
330
65E4
100
AcDbEntity
  8
KOTIERUNG
 62
     0
370
    -2
100
AcDbLine
 10
18542.24356231
 20
-3851.946132100871
 30
0.0
 11
18654.53146510245
 21
-3851.946132100871
 31
0.0
  0
LINE
  5
6628
330
65E4
100
AcDbEntity
  8
KOTIERUNG
 62
     0
370
    -2
100
AcDbLine
 10
18635.78146510245
 20
-3119.446132100871
 30
0.0
 11
18635.78146510245
 21
-3814.446132100871
 31
0.0
  0
SOLID
  5
6629
330
65E4
100
AcDbEntity
  8
KOTIERUNG
 62
     0
100
AcDbTrace
 10
18629.53146510245
 20
-3119.446132100871
 30
0.0
 11
18642.03146510245
 21
-3119.446132100871
 31
0.0
 12
18635.78146510245
 22
-3081.946132100871
 32
0.0
 13
18635.78146510245
 23
-3081.946132100871
 33
0.0
  0
SOLID
  5
662A
330
65E4
100
AcDbEntity
  8
KOTIERUNG
 62
     0
100
AcDbTrace
 10
18629.53146510245
 20
-3814.446132100871
 30
0.0
 11
18642.03146510245
 21
-3814.446132100871
 31
0.0
 12
18635.78146510245
 22
-3851.946132100871
 32
0.0
 13
18635.78146510245
 23
-3851.946132100871
 33
0.0
  0
MTEXT
  5
662B
330
65E4
100
AcDbEntity
  8
KOTIERUNG
 62
     0
100
AcDbMText
 10
18607.25997806289
 20
-3466.946132100868
 30
0.0
 40
37.5
 41
0.0
 71
     5
 72
     1
  1
770
 11
0.0000000000000001
 21
1.0
 31
0.0
 73
     1
 44
1.0
  0
POINT
  5
662C
330
65E4
100
AcDbEntity
  8
DEFPOINTS
 62
     0
100
AcDbPoint
 10
18532.86856231001
 20
-3081.946132100871
 30
0.0
  0
POINT
  5
662D
330
65E4
100
AcDbEntity
  8
DEFPOINTS
 62
     0
100
AcDbPoint
 10
18532.86856231001
 20
-3851.946132100871
 30
0.0
  0
POINT
  5
662E
330
65E4
100
AcDbEntity
  8
DEFPOINTS
 62
     0
100
AcDbPoint
 10
18635.78146510245
 20
-3851.946132100871
 30
0.0
  0
ENDBLK
  5
65E6
330
65E4
100
AcDbEntity
  8
0
100
AcDbBlockEnd
  0
ENDSEC
  0
SECTION
  2
ENTITIES
  0
MTEXT
  5
10E0
330
18
100
AcDbEntity
  8
KOTIERUNG
100
AcDbMText
 10
7495.698312492914
 20
470.9395909145314
 30
0.0
 40
25.0
 41
0.0
 71
     4
 72
     1
  1
\A1;
  7
VOEST
 73
     1
 44
1.0
  0
LINE
  5
63F5
330
18
100
AcDbEntity
  8
18
  6
STRICHLINIE
 48
0.3
100
AcDbLine
 10
18399.86856231001
 20
-3157.446132100871
 30
0.0
 11
18399.86856231001
 21
-3277.446132100872
 31
0.0
  0
LINE
  5
63F8
330
18
100
AcDbEntity
  8
LOCHBILD
100
AcDbLine
 10
18392.86856231001
 20
-4004.547908358239
 30
0.0
 11
18392.86856231001
 21
-4403.945335788288
 31
0.0
  0
LINE
  5
63F9
330
18
100
AcDbEntity
  8
LOCHBILD
100
AcDbLine
 10
18532.86856231001
 20
-3982.153866323104
 30
0.0
 11
18532.86856231001
 21
-4403.945335788288
 31
0.0
  0
LINE
  5
63FA
330
18
100
AcDbEntity
  8
18
  6
STRICHPUNKT
 48
5.0
100
AcDbLine
 10
18380.97551365249
 20
-4006.450290012246
 30
0.0
 11
18544.76161096753
 21
-3980.251484669082
 31
0.0
  0
LINE
  5
63FB
330
18
100
AcDbEntity
  8
18
  6
STRICHPUNKT
 48
5.0
100
AcDbLine
 10
18380.97551365249
 20
-4000.452236778335
 30
0.0
 11
18544.76161096753
 21
-3974.253431435187
 31
0.0
  0
LINE
  5
63FC
330
18
100
AcDbEntity
  8
50
100
AcDbLine
 10
17697.94099727201
 20
-3852.333428544735
 30
0.0
 11
18665.19620591355
 21
-3852.333428544735
 31
0.0
  0
LINE
  5
63FD
330
18
100
AcDbEntity
  8
18
  6
STRICHPUNKT
 48
10.0
100
AcDbLine
 10
18418.97257354517
 20
-3193.446132100871
 30
0.0
 11
18358.95618795862
 21
-3193.446132100871
 31
0.0
  0
LINE
  5
63FE
330
18
100
AcDbEntity
  8
18
  6
STRICHPUNKT
 48
10.0
100
AcDbLine
 10
18418.97257354516
 20
-3263.446132100872
 30
0.0
 11
18358.95618795862
 21
-3263.446132100872
 31
0.0
  0
LINE
  5
63FF
330
18
100
AcDbEntity
  8
LOCHBILD
100
AcDbLine
 10
18483.42276100777
 20
-3222.946132100871
 30
0.0
 11
18483.42276100777
 21
-3240.946132100872
 31
0.0
  0
LINE
  5
6400
330
18
100
AcDbEntity
  8
LOCHBILD
100
AcDbLine
 10
18501.33675766341
 20
-3222.946132100871
 30
0.0
 11
18501.33675766341
 21
-3240.946132100872
 31
0.0
  0
ARC
  5
6401
330
18
100
AcDbEntity
  8
LOCHBILD
100
AcDbCircle
 10
18492.37975933559
 20
-3222.903233158904
 30
0.0
 40
8.957101058030296
100
AcDbArc
 50
359.7255878100611
 51
180.2744121899388
  0
ARC
  5
6402
330
18
100
AcDbEntity
  8
LOCHBILD
100
AcDbCircle
 10
18492.37975933559
 20
-3240.989031042838
 30
0.0
 40
8.957101058030524
100
AcDbArc
 50
179.7255878100612
 51
0.2744121899388393
  0
LINE
  5
6403
330
18
100
AcDbEntity
  8
LOCHBILD
100
AcDbLine
 10
18483.91094893817
 20
-3222.946132100871
 30
0.0
 11
18483.91094893817
 21
-3240.946132100872
 31
0.0
  0
ARC
  5
6404
330
18
100
AcDbEntity
  8
LOCHBILD
100
AcDbCircle
 10
18492.86794726599
 20
-3222.903233158904
 30
0.0
 40
8.957101058030296
100
AcDbArc
 50
91.56158622530018
 51
180.2744121899388
  0
ARC
  5
6405
330
18
100
AcDbEntity
  8
LOCHBILD
100
AcDbCircle
 10
18492.86794726599
 20
-3240.989031042838
 30
0.0
 40
8.957101058030524
100
AcDbArc
 50
179.7255878100612
 51
268.4384137746998
  0
ARC
  5
6406
330
18
100
AcDbEntity
  8
LOCHBILD
100
AcDbCircle
 10
18492.86794726599
 20
-3170.989031042838
 30
0.0
 40
8.957101058030524
100
AcDbArc
 50
179.7255878100612
 51
268.4384137746998
  0
ARC
  5
6407
330
18
100
AcDbEntity
  8
LOCHBILD
100
AcDbCircle
 10
18492.86794726599
 20
-3152.903233158904
 30
0.0
 40
8.957101058030296
100
AcDbArc
 50
91.56158622530018
 51
180.2744121899388
  0
LINE
  5
6408
330
18
100
AcDbEntity
  8
LOCHBILD
100
AcDbLine
 10
18483.91094893817
 20
-3152.946132100872
 30
0.0
 11
18483.91094893817
 21
-3170.946132100871
 31
0.0
  0
ARC
  5
6409
330
18
100
AcDbEntity
  8
LOCHBILD
100
AcDbCircle
 10
18492.37975933559
 20
-3170.989031042838
 30
0.0
 40
8.957101058030524
100
AcDbArc
 50
179.7255878100612
 51
0.2744121899388393
  0
ARC
  5
640A
330
18
100
AcDbEntity
  8
LOCHBILD
100
AcDbCircle
 10
18492.37975933559
 20
-3152.903233158904
 30
0.0
 40
8.957101058030296
100
AcDbArc
 50
359.7255878100611
 51
180.2744121899388
  0
LINE
  5
640B
330
18
100
AcDbEntity
  8
LOCHBILD
100
AcDbLine
 10
18501.33675766341
 20
-3152.946132100872
 30
0.0
 11
18501.33675766341
 21
-3170.946132100871
 31
0.0
  0
LINE
  5
640C
330
18
100
AcDbEntity
  8
LOCHBILD
100
AcDbLine
 10
18483.42276100777
 20
-3152.946132100872
 30
0.0
 11
18483.42276100777
 21
-3170.946132100871
 31
0.0
  0
LINE
  5
640D
330
18
100
AcDbEntity
  8
LOCHBILD
100
AcDbLine
 10
18392.86856231001
 20
-4403.945335788288
 30
0.0
 11
18532.86856231001
 21
-4403.945335788288
 31
0.0
  0
LINE
  5
640E
330
18
100
AcDbEntity
  8
LOCHBILD
100
AcDbLine
 10
18532.86856231001
 20
-3081.946132100871
 30
0.0
 11
18532.86856231001
 21
-3976.155813089187
 31
0.0
  0
LINE
  5
640F
330
18
100
AcDbEntity
  8
LOCHBILD
100
AcDbLine
 10
18392.86856231001
 20
-3081.946132100871
 30
0.0
 11
18392.86856231001
 21
-3998.549855124315
 31
0.0
  0
LINE
  5
6410
330
18
100
AcDbEntity
  8
LOCHBILD
100
AcDbLine
 10
18392.86856231001
 20
-3081.946132100871
 30
0.0
 11
18532.86856231001
 21
-3081.946132100871
 31
0.0
  0
HATCH
  5
6411
330
18
100
AcDbEntity
  8
18
  6
STRICHLINIE
 48
0.3
100
AcDbHatch
 10
0.0
 20
0.0
 30
0.0
210
0.0
220
0.0
230
1.0
  2
EARTH
 70
     0
 71
     0
 91
        3
 92
        7
 72
     0
 73
     1
 93
        4
 10
17697.94099727201
 20
-3852.333428544735
 10
17697.94099727201
 20
-3921.053817304477
 10
18392.86856231001
 20
-3921.053817304477
 10
18392.86856231001
 20
-3852.333428544735
 97
        0
 92
        7
 72
     0
 73
     1
 93
        4
 10
18527.86856231001
 20
-3921.053817304477
 10
18527.86856231001
 20
-3852.333428544735
 10
18397.86856231001
 20
-3852.333428544735
 10
18397.86856231001
 20
-3921.053817304477
 97
        0
 92
        7
 72
     0
 73
     1
 93
        4
 10
18665.19620591356
 20
-3921.053817304477
 10
18665.19620591356
 20
-3852.333428544735
 10
18532.86856231001
 20
-3852.333428544735
 10
18532.86856231001
 20
-3921.053817304477
 97
        0
 75
     0
 76
     1
 52
45.0
 41
7.0
 77
     0
 78
     6
 53
45.0
 43
18137.03012313542
 44
3368.587236853331
 45
0.0000000000000071
 46
62.86179284748406
 79
     2
 49
44.44999999999999
 49
-44.44999999999999
 53
45.0
 43
18125.24353697652
 44
3380.373823012233
 45
0.0000000000000071
 46
62.86179284748406
 79
     2
 49
44.44999999999999
 49
-44.44999999999999
 53
45.0
 43
18113.45695081762
 44
3392.160409171135
 45
0.0000000000000071
 46
62.86179284748406
 79
     2
 49
44.44999999999999
 49
-44.44999999999999
 53
135.0
 43
18113.45695081762
 44
3400.018133277074
 45
-62.86179284748406
 46
0.0000000000000071
 79
     2
 49
44.44999999999999
 49
-44.44999999999999
 53
135.0
 43
18125.24353697652
 44
3411.804719435976
 45
-62.86179284748406
 46
0.0000000000000071
 79
     2
 49
44.44999999999999
 49
-44.44999999999999
 53
135.0
 43
18137.03012313542
 44
3423.591305594877
 45
-62.86179284748406
 46
0.0000000000000071
 79
     2
 49
44.44999999999999
 49
-44.44999999999999
 47
1.559174811946683
 98
        3
 10
18253.57890335883
 20
-3883.353814185816
 10
18484.39871701796
 20
-3897.386324319043
 10
18585.77242763695
 20
-3895.827285295513
  0
LINE
  5
641C
330
18
100
AcDbEntity
  8
25
100
AcDbLine
 10
20867.57611539894
 20
-5464.994168983942
 30
0.0
 11
15988.60067970944
 21
-5464.994168983942
 31
0.0
  0
LINE
  5
641D
330
18
100
AcDbEntity
  8
25
100
AcDbLine
 10
20869.1583942305
 20
-5558.694168983938
 30
0.0
 11
15988.60067970944
 21
-5558.694168983925
 31
0.0
  0
DIMENSION
  5
641E
102
{ACAD_XDICTIONARY
360
641F
102
}
102
{ACAD_REACTORS
330
6420
102
}
330
18
100
AcDbEntity
  8
KOTIERUNG
100
AcDbDimension
  2
*D62
 10
16443.91193149053
 20
-4956.478891588371
 30
0.0
 11
18443.91193149053
 21
-4861.407268123159
 31
0.0
 70
    32
 71
     5
 42
4000.0
  3
ISO-25
100
AcDbAlignedDimension
 13
20443.91193149053
 23
-5393.694168983931
 33
0.0
 14
16443.91193149053
 24
-5393.694168983931
 34
0.0
 50
180.0
100
AcDbRotatedDimension
1001
ACAD
1000
DSTYLE
1002
{
1070
    40
1040
50.0
1070
    47
1040
7.0
1070
    48
1040
7.0
1070
    71
1070
     1
1070
   146
1040
0.75
1070
   283
1070
     1
1002
}
  0
DIMENSION
  5
6421
102
{ACAD_XDICTIONARY
360
6422
102
}
102
{ACAD_REACTORS
330
6423
102
}
330
18
100
AcDbEntity
  8
KOTIERUNG
100
AcDbDimension
  2
*D63
 10
18443.91193149053
 20
-5215.971359683407
 30
0.0
 11
19443.91193149053
 21
-5120.899736218195
 31
0.0
 70
    32
 71
     5
 42
2000.0
  3
ISO-25
100
AcDbAlignedDimension
 13
20443.91193149053
 23
-5393.694168983931
 33
0.0
 14
18443.91193149053
 24
-5393.694168983931
 34
0.0
 50
180.0
100
AcDbRotatedDimension
1001
ACAD
1000
DSTYLE
1002
{
1070
    40
1040
50.0
1002
}
  0
LINE
  5
6426
330
18
100
AcDbEntity
  8
25
100
AcDbLine
 10
20303.91193149053
 20
-5464.994168983942
 30
0.0
 11
20303.91193149053
 21
-5558.694168983938
 31
0.0
  0
DIMENSION
  5
6432
102
{ACAD_XDICTIONARY
360
6433
102
}
102
{ACAD_REACTORS
330
6434
102
}
330
18
100
AcDbEntity
  8
KOTIERUNG
100
AcDbDimension
  2
*D64
 10
16443.91193149053
 20
-5215.971359683407
 30
0.0
 11
17443.91193149053
 21
-5120.899736218195
 31
0.0
 70
    32
 71
     5
 42
2000.0
  3
ISO-25
100
AcDbAlignedDimension
 13
18443.91193149053
 23
-5393.694168983931
 33
0.0
 14
16443.91193149053
 24
-5393.694168983931
 34
0.0
 50
180.0
100
AcDbRotatedDimension
1001
ACAD
1000
DSTYLE
1002
{
1070
    40
1040
50.0
1002
}
  0
LINE
  5
6438
102
{ACAD_REACTORS
330
6423
330
6434
102
}
330
18
100
AcDbEntity
  8
18
  6
STRICHPUNKT
 48
0.2
100
AcDbLine
 10
18443.91193149053
 20
-5393.694168983931
 30
0.0
 11
18443.91193149053
 21
-5418.694168983932
 31
0.0
  0
LINE
  5
643B
330
18
100
AcDbEntity
  8
25
100
AcDbLine
 10
16303.91193149053
 20
-5464.994168983942
 30
0.0
 11
16303.91193149053
 21
-5558.694168983938
 31
0.0
  0
LINE
  5
643D
102
{ACAD_REACTORS
330
6420
330
6434
102
}
330
18
100
AcDbEntity
  8
18
  6
STRICHPUNKT
 48
0.2
100
AcDbLine
 10
16443.91193149053
 20
-5393.694168983931
 30
0.0
 11
16443.91193149053
 21
-5418.694168983932
 31
0.0
  0
LINE
  5
643F
330
18
100
AcDbEntity
  8
18
  6
STRICHLINIE
 48
0.075
100
AcDbLine
 10
20503.91193149053
 20
-5464.994168983942
 30
0.0
 11
20503.91193149053
 21
-5558.694168983938
 31
0.0
  0
LINE
  5
6440
330
18
100
AcDbEntity
  8
18
  6
STRICHLINIE
 48
0.075
100
AcDbLine
 10
16503.91193149053
 20
-5464.994168983942
 30
0.0
 11
16503.91193149053
 21
-5558.694168983924
 31
0.0
  0
LINE
  5
6441
330
18
100
AcDbEntity
  8
25
100
AcDbLine
 10
16466.41193149053
 20
-5268.694168983931
 30
0.0
 11
16485.51483872722
 21
-5268.694168983931
 31
0.0
  0
ARC
  5
6442
330
18
100
AcDbEntity
  8
25
100
AcDbCircle
 10
16485.51483872721
 20
-5279.694168983931
 30
0.0
 40
11.0
100
AcDbArc
 50
354.396851670455
 51
90.0
  0
LINE
  5
6443
330
18
100
AcDbEntity
  8
25
100
AcDbLine
 10
16496.46228112788
 20
-5280.768182430811
 30
0.0
 11
16484.88573364828
 21
-5398.768182430811
 31
0.0
  0
ARC
  5
6444
330
18
100
AcDbEntity
  8
25
100
AcDbCircle
 10
16473.93829124761
 20
-5397.694168983933
 30
0.0
 40
10.99999999999858
100
AcDbArc
 50
270.0
 51
354.396851670455
  0
LINE
  5
6445
330
18
100
AcDbEntity
  8
25
100
AcDbLine
 10
16473.93829124761
 20
-5408.694168983931
 30
0.0
 11
16443.91193149053
 21
-5408.694168983931
 31
0.0
  0
LINE
  5
6446
330
18
100
AcDbEntity
  8
25
100
AcDbLine
 10
16443.91193149053
 20
-5408.694168983931
 30
0.0
 11
16413.88557173345
 21
-5408.694168983931
 31
0.0
  0
ARC
  5
6447
330
18
100
AcDbEntity
  8
25
100
AcDbCircle
 10
16413.88557173345
 20
-5397.694168983933
 30
0.0
 40
10.99999999999818
100
AcDbArc
 50
185.603148329545
 51
270.0
  0
LINE
  5
6448
330
18
100
AcDbEntity
  8
25
100
AcDbLine
 10
16402.93812933279
 20
-5398.768182430811
 30
0.0
 11
16391.36158185318
 21
-5280.768182430811
 31
0.0
  0
ARC
  5
6449
330
18
100
AcDbEntity
  8
25
100
AcDbCircle
 10
16402.30902425385
 20
-5279.694168983931
 30
0.0
 40
11.00000000000057
100
AcDbArc
 50
90.0
 51
185.603148329545
  0
LINE
  5
644A
330
18
100
AcDbEntity
  8
25
100
AcDbLine
 10
16402.30902425385
 20
-5268.694168983931
 30
0.0
 11
16421.41193149053
 21
-5268.694168983931
 31
0.0
  0
LINE
  5
644B
330
18
100
AcDbEntity
  8
25
100
AcDbLine
 10
18466.41193149053
 20
-5268.694168983931
 30
0.0
 11
18485.51483872722
 21
-5268.694168983931
 31
0.0
  0
ARC
  5
644C
330
18
100
AcDbEntity
  8
25
100
AcDbCircle
 10
18485.51483872722
 20
-5279.694168983931
 30
0.0
 40
11.0
100
AcDbArc
 50
354.396851670455
 51
90.0
  0
LINE
  5
644D
330
18
100
AcDbEntity
  8
25
100
AcDbLine
 10
18496.46228112788
 20
-5280.768182430811
 30
0.0
 11
18484.88573364828
 21
-5398.768182430811
 31
0.0
  0
ARC
  5
644E
330
18
100
AcDbEntity
  8
25
100
AcDbCircle
 10
18473.93829124761
 20
-5397.694168983933
 30
0.0
 40
10.99999999999858
100
AcDbArc
 50
270.0
 51
354.396851670455
  0
LINE
  5
644F
330
18
100
AcDbEntity
  8
25
100
AcDbLine
 10
18473.93829124761
 20
-5408.694168983931
 30
0.0
 11
18443.91193149053
 21
-5408.694168983931
 31
0.0
  0
LINE
  5
6450
330
18
100
AcDbEntity
  8
25
100
AcDbLine
 10
18443.91193149053
 20
-5408.694168983931
 30
0.0
 11
18413.88557173345
 21
-5408.694168983931
 31
0.0
  0
ARC
  5
6451
330
18
100
AcDbEntity
  8
25
100
AcDbCircle
 10
18413.88557173345
 20
-5397.694168983933
 30
0.0
 40
10.99999999999818
100
AcDbArc
 50
185.603148329545
 51
270.0
  0
LINE
  5
6452
330
18
100
AcDbEntity
  8
25
100
AcDbLine
 10
18402.93812933279
 20
-5398.768182430811
 30
0.0
 11
18391.36158185318
 21
-5280.768182430811
 31
0.0
  0
ARC
  5
6453
330
18
100
AcDbEntity
  8
25
100
AcDbCircle
 10
18402.30902425385
 20
-5279.694168983931
 30
0.0
 40
10.99999999999876
100
AcDbArc
 50
90.0
 51
185.603148329545
  0
LINE
  5
6454
330
18
100
AcDbEntity
  8
25
100
AcDbLine
 10
18402.30902425385
 20
-5268.694168983931
 30
0.0
 11
18421.41193149053
 21
-5268.694168983931
 31
0.0
  0
LINE
  5
6455
330
18
100
AcDbEntity
  8
18
  6
STRICHLINIE
 48
0.3
100
AcDbLine
 10
18532.86856231001
 20
-4123.256067362643
 30
0.0
 11
18532.86856231001
 21
-4104.153160125963
 31
0.0
  0
ARC
  5
6456
330
18
100
AcDbEntity
  8
18
  6
STRICHLINIE
 48
0.3
100
AcDbCircle
 10
18521.86856231001
 20
-4104.153160125963
 30
0.0
 40
11.0
100
AcDbArc
 50
0.0
 51
95.60314832959766
  0
LINE
  5
6457
330
18
100
AcDbEntity
  8
18
  6
STRICHLINIE
 48
0.3
100
AcDbLine
 10
18520.79454886313
 20
-4093.205717725293
 30
0.0
 11
18402.79454886313
 21
-4104.782265204899
 31
0.0
  0
ARC
  5
6458
330
18
100
AcDbEntity
  8
18
  6
STRICHLINIE
 48
0.3
100
AcDbCircle
 10
18403.86856231001
 20
-4115.729707605567
 30
0.0
 40
11.00000000000057
100
AcDbArc
 50
95.60314832959766
 51
180.0
  0
LINE
  5
6459
330
18
100
AcDbEntity
  8
18
  6
STRICHLINIE
 48
0.3
100
AcDbLine
 10
18392.86856231001
 20
-4115.729707605569
 30
0.0
 11
18392.86856231001
 21
-4145.756067362643
 31
0.0
  0
LINE
  5
645A
330
18
100
AcDbEntity
  8
18
  6
STRICHLINIE
 48
0.3
100
AcDbLine
 10
18392.86856231001
 20
-4145.756067362643
 30
0.0
 11
18392.86856231001
 21
-4175.782427119724
 31
0.0
  0
ARC
  5
645B
330
18
100
AcDbEntity
  8
18
  6
STRICHLINIE
 48
0.3
100
AcDbCircle
 10
18403.86856231001
 20
-4175.782427119726
 30
0.0
 40
11.0
100
AcDbArc
 50
180.0
 51
264.3968516704023
  0
LINE
  5
645C
330
18
100
AcDbEntity
  8
18
  6
STRICHLINIE
 48
0.3
100
AcDbLine
 10
18402.79454886313
 20
-4186.729869520394
 30
0.0
 11
18520.79454886313
 21
-4198.306417
 31
0.0
  0
ARC
  5
645D
330
18
100
AcDbEntity
  8
18
  6
STRICHLINIE
 48
0.3
100
AcDbCircle
 10
18521.86856231001
 20
-4187.35897459933
 30
0.0
 40
11.00000000000238
100
AcDbArc
 50
264.3968516704023
 51
0.0
  0
LINE
  5
645E
330
18
100
AcDbEntity
  8
18
  6
STRICHLINIE
 48
0.3
100
AcDbLine
 10
18532.86856231001
 20
-4187.35897459933
 30
0.0
 11
18532.86856231001
 21
-4168.256067362643
 31
0.0
  0
LINE
  5
6466
330
18
100
AcDbEntity
  8
35
100
AcDbLine
 10
18392.86856231001
 20
-3084.446132100871
 30
0.0
 11
18392.86856231001
 21
-3319.446132100871
 31
0.0
  0
ARC
  5
6581
330
18
100
AcDbEntity
  8
35
100
AcDbCircle
 10
18284.46379847646
 20
-3208.145696001269
 30
0.0
 40
50.00000000000728
100
AcDbArc
 50
0.0
 51
46.66713383832462
  0
LINE
  5
6582
330
18
100
AcDbEntity
  8
35
100
AcDbLine
 10
18318.77558383002
 20
-3171.77673415395
 30
0.0
 11
18260.3933060017
 21
-3116.696795559429
 31
0.0
  0
ARC
  5
6583
330
18
100
AcDbEntity
  8
35
100
AcDbCircle
 10
18296.76379847646
 20
-3078.145696001269
 30
0.0
 40
53.00000000000143
100
AcDbArc
 50
126.6427783643293
 51
226.6671338383246
  0
LINE
  5
6584
330
18
100
AcDbEntity
  8
35
100
AcDbLine
 10
18265.13212059528
 20
-3035.619974908957
 30
0.0
 11
18335.67332614357
 21
-2983.149690244994
 31
0.0
  0
LINE
  5
6585
330
18
100
AcDbEntity
  8
35
100
AcDbLine
 10
18335.67332614357
 20
-3433.141701757544
 30
0.0
 11
18265.13212059528
 21
-3380.67141709358
 31
0.0
  0
ARC
  5
6586
330
18
100
AcDbEntity
  8
35
100
AcDbCircle
 10
18296.76379847646
 20
-3338.145696001272
 30
0.0
 40
52.99999999999894
100
AcDbArc
 50
133.3328661616753
 51
233.3572216356706
  0
LINE
  5
6587
330
18
100
AcDbEntity
  8
35
100
AcDbLine
 10
18260.3933060017
 20
-3299.594596443115
 30
0.0
 11
18318.77558383002
 21
-3244.514657848587
 31
0.0
  0
ARC
  5
6588
330
18
100
AcDbEntity
  8
35
100
AcDbCircle
 10
18284.46379847647
 20
-3208.145696001273
 30
0.0
 40
49.99999999999601
100
AcDbArc
 50
313.3328661616754
 51
0.0
  0
LINE
  5
6589
330
18
100
AcDbEntity
  8
35
100
AcDbLine
 10
18270.18116671959
 20
-3032.002353155421
 30
0.0
 11
18310.02735676172
 21
-3002.363776411026
 31
0.0
  0
ARC
  5
658A
330
18
100
AcDbEntity
  8
35
100
AcDbCircle
 10
18339.86856231001
 20
-3042.482381215089
 30
0.0
 40
50.00000000000007
100
AcDbArc
 50
0.0
 51
126.6427783643293
  0
LINE
  5
658B
330
18
100
AcDbEntity
  8
35
100
AcDbLine
 10
18389.86856231001
 20
-3042.482381215089
 30
0.0
 11
18389.86856231001
 21
-3207.442137857156
 31
0.0
  0
LINE
  5
658C
330
18
100
AcDbEntity
  8
35
100
AcDbLine
 10
18270.18116671959
 20
-3382.881922558892
 30
0.0
 11
18310.02735676172
 21
-3412.520499303287
 31
0.0
  0
ARC
  5
658D
330
18
100
AcDbEntity
  8
35
100
AcDbCircle
 10
18339.86856231001
 20
-3372.401894499223
 30
0.0
 40
50.00000000000007
100
AcDbArc
 50
233.3572216356706
 51
0.0
  0
LINE
  5
658E
330
18
100
AcDbEntity
  8
35
100
AcDbLine
 10
18389.86856231001
 20
-3372.401894499223
 30
0.0
 11
18389.86856231001
 21
-3207.442137857156
 31
0.0
  0
DIMENSION
  5
658F
330
18
100
AcDbEntity
  8
KOTIERUNG
100
AcDbDimension
  2
*D69
 10
18532.86856231001
 20
-2901.681582294667
 30
0.0
 11
18397.70225434859
 21
-2901.681582294667
 31
0.0
 70
   160
  1
<>
 71
     5
 42
289.9999999999927
  3
ISO-25
100
AcDbAlignedDimension
 13
18242.86856231001
 23
-3076.942137857146
 33
0.0
 14
18532.86856231001
 24
-3081.946132100871
 34
0.0
100
AcDbRotatedDimension
1001
ACAD
1000
DSTYLE
1002
{
1070
    40
1040
15.0
1070
   271
1070
     0
1002
}
  0
DIMENSION
  5
6592
330
18
100
AcDbEntity
  8
KOTIERUNG
100
AcDbDimension
  2
*D70
 10
18635.78146510245
 20
-2981.946132100871
 30
0.0
 11
18607.25997806289
 21
-3031.946132100868
 31
0.0
 70
    32
 71
     5
 42
100.0
  3
ISO-25
100
AcDbAlignedDimension
 13
18532.86856231001
 23
-3081.946132100871
 33
0.0
 14
18334.77808997712
 24
-2981.946132100871
 34
0.0
 50
90.0
100
AcDbRotatedDimension
1001
ACAD
1000
DSTYLE
1002
{
1070
    40
1040
15.0
1070
   271
1070
     0
1002
}
  0
DIMENSION
  5
6595
330
18
100
AcDbEntity
  8
KOTIERUNG
100
AcDbDimension
  2
*D71
 10
18635.78146510245
 20
-3851.946132100871
 30
0.0
 11
18607.25997806289
 21
-3466.946132100868
 31
0.0
 70
    32
 71
     5
 42
770.0
  3
ISO-25
100
AcDbAlignedDimension
 13
18532.86856231001
 23
-3081.946132100871
 33
0.0
 14
18532.86856231001
 24
-3851.946132100871
 34
0.0
 50
90.0
100
AcDbRotatedDimension
1001
ACAD
1000
DSTYLE
1002
{
1070
    40
1040
15.0
1070
   271
1070
     0
1002
}
  0
DIMENSION
  5
6598
330
18
100
AcDbEntity
  8
KOTIERUNG
100
AcDbDimension
  2
*D65
 10
18121.28963761495
 20
-3851.946132100871
 30
0.0
 11
18121.28963761495
 21
-3310.718522006762
 31
0.0
 70
   160
 71
     5
 42
870.0
  3
ISO-25
100
AcDbAlignedDimension
 13
18334.77808997712
 23
-2981.946132100871
 33
0.0
 14
18027.22098388639
 24
-3851.946132100871
 34
0.0
 50
90.0
100
AcDbRotatedDimension
1001
ACAD
1000
DSTYLE
1002
{
1070
    40
1040
15.0
1070
    47
1040
40.0
1070
    48
1040
40.0
1070
    71
1070
     1
1070
   146
1040
0.75
1070
   283
1070
     1
1002
}
  0
DIMENSION
  5
6599
330
18
100
AcDbEntity
  8
KOTIERUNG
100
AcDbDimension
  2
*D66
 10
18392.86856231001
 20
-3521.099972788157
 30
0.0
 11
18317.86856231001
 21
-3492.578485748594
 31
0.0
 70
    32
  1
<>
 71
     5
 42
149.9999999999927
  3
ISO-25
100
AcDbAlignedDimension
 13
18242.86856231001
 23
-3336.942137857147
 33
0.0
 14
18392.86856231001
 24
-3379.064585727283
 34
0.0
100
AcDbRotatedDimension
1001
ACAD
1000
DSTYLE
1002
{
1070
    40
1040
15.0
1070
   271
1070
     0
1002
}
  0
DIMENSION
  5
659A
330
18
100
AcDbEntity
  8
KOTIERUNG
100
AcDbDimension
  2
*D67
 10
18635.78146510245
 20
-4403.558039344425
 30
0.0
 11
18607.25997806289
 21
-4127.752085722645
 31
0.0
 70
    32
  1
930
 71
     5
 42
551.6119072435535
  3
ISO-25
100
AcDbAlignedDimension
 13
18532.86856231001
 23
-3851.946132100871
 33
0.0
 14
18532.86856231001
 24
-4403.558039344425
 34
0.0
 50
90.0
100
AcDbRotatedDimension
1001
ACAD
1000
DSTYLE
1002
{
1070
    40
1040
15.0
1070
   271
1070
     0
1002
}
  0
DIMENSION
  5
659B
330
18
100
AcDbEntity
  8
KOTIERUNG
100
AcDbDimension
  2
*D68
 10
18532.86856231001
 20
-3521.099972788157
 30
0.0
 11
18462.86856231001
 21
-3492.578485748594
 31
0.0
 70
    32
 71
     5
 42
140.0
  3
ISO-25
100
AcDbAlignedDimension
 13
18392.86856231001
 23
-3371.901894499218
 33
0.0
 14
18532.86856231001
 24
-3371.901894499218
 34
0.0
100
AcDbRotatedDimension
1001
ACAD
1000
DSTYLE
1002
{
1070
    40
1040
15.0
1070
   271
1070
     0
1002
}
  0
LINE
  5
664F
330
18
100
AcDbEntity
  8
25
100
AcDbLine
 10
18388.91193149053
 20
-5408.694168983931
 30
0.0
 11
18388.91193149053
 21
-5464.994168983942
 31
0.0
  0
LINE
  5
6650
330
18
100
AcDbEntity
  8
25
100
AcDbLine
 10
18498.91193149053
 20
-5408.694168983931
 30
0.0
 11
18498.91193149053
 21
-5464.994168983942
 31
0.0
  0
LINE
  5
6651
330
18
100
AcDbEntity
  8
25
100
AcDbLine
 10
18388.91193149053
 20
-5408.694168983931
 30
0.0
 11
18498.91193149053
 21
-5408.694168983931
 31
0.0
  0
LINE
  5
6652
330
18
100
AcDbEntity
  8
25
100
AcDbLine
 10
16388.91193149053
 20
-5408.694168983931
 30
0.0
 11
16388.91193149053
 21
-5464.994168983942
 31
0.0
  0
LINE
  5
6653
330
18
100
AcDbEntity
  8
25
100
AcDbLine
 10
16498.91193149053
 20
-5408.694168983931
 30
0.0
 11
16498.91193149053
 21
-5464.994168983942
 31
0.0
  0
LINE
  5
6654
330
18
100
AcDbEntity
  8
25
100
AcDbLine
 10
16388.91193149053
 20
-5408.694168983931
 30
0.0
 11
16498.91193149053
 21
-5408.694168983931
 31
0.0
  0
LINE
  5
6655
330
18
100
AcDbEntity
  8
25
100
AcDbLine
 10
20388.91193149053
 20
-5408.694168983931
 30
0.0
 11
20388.91193149053
 21
-5464.994168983942
 31
0.0
  0
LINE
  5
6656
330
18
100
AcDbEntity
  8
25
100
AcDbLine
 10
20498.91193149053
 20
-5408.694168983931
 30
0.0
 11
20498.91193149053
 21
-5464.994168983942
 31
0.0
  0
LINE
  5
6657
330
18
100
AcDbEntity
  8
25
100
AcDbLine
 10
20388.91193149053
 20
-5408.694168983931
 30
0.0
 11
20498.91193149053
 21
-5408.694168983931
 31
0.0
  0
LINE
  5
6658
330
18
100
AcDbEntity
  8
25
100
AcDbLine
 10
20466.41193149053
 20
-5268.694168983931
 30
0.0
 11
20485.51483872722
 21
-5268.694168983931
 31
0.0
  0
ARC
  5
6659
330
18
100
AcDbEntity
  8
25
100
AcDbCircle
 10
20485.51483872722
 20
-5279.694168983931
 30
0.0
 40
11.0
100
AcDbArc
 50
354.396851670455
 51
90.0
  0
LINE
  5
665A
330
18
100
AcDbEntity
  8
25
100
AcDbLine
 10
20496.46228112788
 20
-5280.768182430811
 30
0.0
 11
20484.88573364828
 21
-5398.768182430811
 31
0.0
  0
ARC
  5
665B
330
18
100
AcDbEntity
  8
25
100
AcDbCircle
 10
20473.93829124761
 20
-5397.694168983933
 30
0.0
 40
10.99999999999858
100
AcDbArc
 50
270.0
 51
354.396851670455
  0
LINE
  5
665C
330
18
100
AcDbEntity
  8
25
100
AcDbLine
 10
20473.93829124761
 20
-5408.694168983931
 30
0.0
 11
20443.91193149053
 21
-5408.694168983931
 31
0.0
  0
LINE
  5
665D
330
18
100
AcDbEntity
  8
25
100
AcDbLine
 10
20443.91193149053
 20
-5408.694168983931
 30
0.0
 11
20413.88557173345
 21
-5408.694168983931
 31
0.0
  0
ARC
  5
665E
330
18
100
AcDbEntity
  8
25
100
AcDbCircle
 10
20413.88557173345
 20
-5397.694168983933
 30
0.0
 40
10.99999999999818
100
AcDbArc
 50
185.603148329545
 51
270.0
  0
LINE
  5
665F
330
18
100
AcDbEntity
  8
25
100
AcDbLine
 10
20402.93812933279
 20
-5398.768182430811
 30
0.0
 11
20391.36158185318
 21
-5280.768182430811
 31
0.0
  0
ARC
  5
6660
330
18
100
AcDbEntity
  8
25
100
AcDbCircle
 10
20402.30902425385
 20
-5279.694168983931
 30
0.0
 40
10.99999999999876
100
AcDbArc
 50
90.0
 51
185.603148329545
  0
LINE
  5
6661
330
18
100
AcDbEntity
  8
25
100
AcDbLine
 10
20402.30902425385
 20
-5268.694168983931
 30
0.0
 11
20421.41193149053
 21
-5268.694168983931
 31
0.0
  0
LINE
  5
6662
330
18
100
AcDbEntity
  8
18
  6
STRICHPUNKT
 48
0.2
100
AcDbLine
 10
20443.91193149053
 20
-5393.694168983931
 30
0.0
 11
20443.91193149053
 21
-5418.694168983932
 31
0.0
  0
VIEWPORT
  5
629E
102
{ACAD_XDICTIONARY
360
629F
102
}
330
6297
100
AcDbEntity
 67
     1
  8
0
100
AcDbViewport
 10
5.647083793099471
 20
3.865416556831419
 30
0.0
 40
15.64082456647378
 41
8.746133096049151
 68
     1
 69
     1
 12
5.647083793099471
 22
3.865416556831419
 13
0.0
 23
0.0
 14
10.0
 24
10.0
 15
10.0
 25
10.0
 16
0.0
 26
0.0
 36
1.0
 17
0.0
 27
0.0
 37
0.0
 42
50.0
 43
0.0
 44
0.0
 45
8.746133096049151
 50
0.0
 51
0.0
 72
   100
 90
   819232
  1

281
     0
 71
     1
 74
     0
110
0.0
120
0.0
130
0.0
111
1.0
121
0.0
131
0.0
112
0.0
122
1.0
132
0.0
 79
     0
146
0.0
170
     0
  0
ENDSEC
  0
SECTION
  2
OBJECTS
  0
DICTIONARY
  5
C
330
0
100
AcDbDictionary
281
     1
  3
ACAD_COLOR
350
1ACC
  3
ACAD_GROUP
350
D
  3
ACAD_IMAGE_DICT
350
1BA2
  3
ACAD_IMAGE_VARS
350
1BA3
  3
ACAD_LAYOUT
350
16EC
  3
ACAD_MATERIAL
350
1ACB
  3
ACAD_MLEADERSTYLE
350
54BE
  3
ACAD_MLINESTYLE
350
1B
  3
ACAD_PLOTSETTINGS
350
16ED
  3
ACAD_PLOTSTYLENAME
350
16EA
  3
ACAD_SCALELIST
350
549C
  3
ACAD_TABLESTYLE
350
4207
  3
ACAD_VISUALSTYLE
350
506D
  3
ACDB_RECOMPOSE_DATA
350
5867
  3
ACDBVARIABLEDICTIONARY
350
1109
  3
AEC_CLASSIFICATION_SYSTEM_DEFS
350
4AB9
  3
CONTENTDICTIONARY
350
23
  0
DICTIONARY
  5
5191
330
8
100
AcDbDictionary
280
     1
281
     1
  0
DICTIONARY
  5
421D
330
2
100
AcDbDictionary
280
     1
281
     1
  3
ACAD_LAYERFILTERS
360
51F7
  3
ACAD_LAYERSTATES
360
421E
  3
ACLYDICTIONARY
360
51F6
  0
DICTIONARY
  5
577B
330
E
100
AcDbDictionary
280
     1
281
     1
  3
ADSK_XREC_LAYER_RECONCILED
360
577C
  0
DICTIONARY
  5
577D
330
4A
100
AcDbDictionary
280
     1
281
     1
  3
ADSK_XREC_LAYER_RECONCILED
360
577E
  0
DICTIONARY
  5
577F
330
12F
100
AcDbDictionary
280
     1
281
     1
  3
ADSK_XREC_LAYER_RECONCILED
360
5780
  0
DICTIONARY
  5
5781
330
1DA
100
AcDbDictionary
280
     1
281
     1
  3
ADSK_XREC_LAYER_RECONCILED
360
5782
  0
DICTIONARY
  5
5783
330
224
100
AcDbDictionary
280
     1
281
     1
  3
ADSK_XREC_LAYER_RECONCILED
360
5784
  0
DICTIONARY
  5
5785
330
226
100
AcDbDictionary
280
     1
281
     1
  3
ADSK_XREC_LAYER_RECONCILED
360
5786
  0
DICTIONARY
  5
5787
330
425
100
AcDbDictionary
280
     1
281
     1
  3
ADSK_XREC_LAYER_RECONCILED
360
5788
  0
DICTIONARY
  5
5789
330
471
100
AcDbDictionary
280
     1
281
     1
  3
ADSK_XREC_LAYER_RECONCILED
360
578A
  0
DICTIONARY
  5
578B
330
474
100
AcDbDictionary
280
     1
281
     1
  3
ADSK_XREC_LAYER_RECONCILED
360
578C
  0
DICTIONARY
  5
578D
330
12F9
100
AcDbDictionary
280
     1
281
     1
  3
ADSK_XREC_LAYER_RECONCILED
360
578E
  0
DICTIONARY
  5
578F
330
14E1
100
AcDbDictionary
280
     1
281
     1
  3
ADSK_XREC_LAYER_RECONCILED
360
5790
  0
DICTIONARY
  5
5791
330
14EF
100
AcDbDictionary
280
     1
281
     1
  3
ADSK_XREC_LAYER_RECONCILED
360
5792
  0
DICTIONARY
  5
5793
330
18AE
100
AcDbDictionary
280
     1
281
     1
  3
ADSK_XREC_LAYER_RECONCILED
360
5794
  0
DICTIONARY
  5
5795
330
1A60
100
AcDbDictionary
280
     1
281
     1
  3
ADSK_XREC_LAYER_RECONCILED
360
5796
  0
DICTIONARY
  5
5797
330
1A61
100
AcDbDictionary
280
     1
281
     1
  3
ADSK_XREC_LAYER_RECONCILED
360
5798
  0
DICTIONARY
  5
5799
330
1D2D
100
AcDbDictionary
280
     1
281
     1
  3
ADSK_XREC_LAYER_RECONCILED
360
579A
  0
DICTIONARY
  5
579B
330
1D2E
100
AcDbDictionary
280
     1
281
     1
  3
ADSK_XREC_LAYER_RECONCILED
360
579C
  0
DICTIONARY
  5
572B
330
18
100
AcDbDictionary
280
     1
281
     1
  3
ACAD_SORTENTS
360
572C
  0
DICTIONARY
  5
674F
330
6130
100
AcDbDictionary
280
     1
281
     1
  3
ACAD_MTEXT_2008_RT
360
6750
  0
DICTIONARY
  5
676B
330
6668
100
AcDbDictionary
280
     1
281
     1
  3
ACAD_MTEXT_2008_RT
360
676C
  0
DICTIONARY
  5
6769
330
65F5
100
AcDbDictionary
280
     1
281
     1
  3
ACAD_MTEXT_2008_RT
360
676A
  0
DICTIONARY
  5
641F
330
641E
100
AcDbDictionary
280
     1
281
     1
  3
ACAD_DIMASSOC
360
6420
  0
DICTIONARY
  5
6422
330
6421
100
AcDbDictionary
280
     1
281
     1
  3
ACAD_DIMASSOC
360
6423
  0
DICTIONARY
  5
6433
330
6432
100
AcDbDictionary
280
     1
281
     1
  3
ACAD_DIMASSOC
360
6434
  0
DICTIONARY
  5
629F
330
629E
100
AcDbDictionary
280
     1
281
     1
  3
ASDK_XREC_ANNOTATION_SCALE_INFO
360
62A0
  0
DICTIONARY
  5
1ACC
102
{ACAD_REACTORS
330
C
102
}
330
C
100
AcDbDictionary
281
     1
  0
DICTIONARY
  5
D
102
{ACAD_REACTORS
330
C
102
}
330
C
100
AcDbDictionary
281
     1
  3
*A1
350
1B1
  3
*A10
350
46A
  3
*A11
350
46B
  3
*A12
350
95A
  3
*A13
350
1A48
  3
*A14
350
1A49
  3
*A2
350
1A4A
  3
*A3
350
1A4B
  3
*A4
350
95B
  3
*A5
350
95C
  3
*A6
350
95D
  3
*A7
350
1B2
  3
*A8
350
1C3
  3
*A9
350
1D2
  0
DICTIONARY
  5
1BA2
102
{ACAD_REACTORS
330
C
102
}
330
C
100
AcDbDictionary
281
     1
  3
C301 H2 Damm explosions_3D
350
3E29
  3
C301 H2 Damm_3D
350
3E26
  0
RASTERVARIABLES
  5
1BA3
102
{ACAD_REACTORS
330
C
102
}
330
C
100
AcDbRasterVariables
 90
        0
 70
     1
 71
     1
 72
     0
  0
DICTIONARY
  5
16EC
102
{ACAD_REACTORS
330
C
102
}
330
C
100
AcDbDictionary
281
     1
  3
Layout1
350
6298
  3
Model
350
16EE
  0
DICTIONARY
  5
1ACB
102
{ACAD_REACTORS
330
C
102
}
330
C
100
AcDbDictionary
281
     1
  3
ByBlock
350
506B
  3
ByLayer
350
506A
  3
Global
350
506C
  0
DICTIONARY
  5
54BE
102
{ACAD_REACTORS
330
C
102
}
330
C
100
AcDbDictionary
281
     1
  3
Standard
350
54BF
  0
DICTIONARY
  5
1B
102
{ACAD_REACTORS
330
C
102
}
330
C
100
AcDbDictionary
281
     1
  3
STANDARD
350
1C
  0
DICTIONARY
  5
16ED
102
{ACAD_REACTORS
330
C
102
}
330
C
100
AcDbDictionary
281
     1
  0
ACDBDICTIONARYWDFLT
  5
16EA
102
{ACAD_REACTORS
330
C
102
}
330
C
100
AcDbDictionary
281
     1
  3
Normal
350
16EB
100
AcDbDictionaryWithDefault
340
16EB
  0
DICTIONARY
  5
549C
102
{ACAD_REACTORS
330
C
102
}
330
C
100
AcDbDictionary
281
     1
  3
A0
350
549D
  3
A1
350
549E
  3
A2
350
549F
  3
A3
350
54A0
  3
A4
350
54A1
  3
A5
350
54A2
  3
A6
350
54A3
  3
A7
350
54A4
  3
A8
350
54A5
  3
A9
350
54A6
  3
B0
350
54A7
  3
B1
350
54A8
  3
B2
350
54A9
  3
B3
350
54AA
  3
B4
350
54AB
  3
B5
350
54AC
  3
B6
350
54AD
  3
B7
350
54AE
  3
B8
350
54AF
  3
B9
350
54B0
  3
C0
350
54B1
  3
C1
350
54B2
  3
C2
350
54B3
  3
C3
350
54B4
  3
C4
350
54B5
  3
C5
350
54B6
  3
C6
350
54B7
  3
C7
350
54B8
  3
C8
350
54B9
  3
C9
350
54BA
  3
D0
350
54BB
  3
D1
350
54BC
  3
D2
350
54BD
  0
DICTIONARY
  5
4207
102
{ACAD_REACTORS
330
C
102
}
330
C
100
AcDbDictionary
281
     1
  3
Standard
350
4208
  0
DICTIONARY
  5
506D
102
{ACAD_REACTORS
330
C
102
}
330
C
100
AcDbDictionary
281
     1
  3
2dWireframe
350
5073
  3
3D Hidden
350
5075
  3
3dWireframe
350
5074
  3
Basic
350
5072
  3
Brighten
350
5079
  3
ColorChange
350
507D
  3
Conceptual
350
5076
  3
Dim
350
5078
  3
Facepattern
350
507C
  3
Flat
350
506E
  3
FlatWithEdges
350
506F
  3
Gouraud
350
5070
  3
GouraudWithEdges
350
5071
  3
Linepattern
350
507B
  3
Realistic
350
5077
  3
Thicken
350
507A
  0
XRECORD
  5
5867
102
{ACAD_REACTORS
330
C
102
}
330
C
100
AcDbXrecord
280
     1
 90
        1
330
4208
  0
DICTIONARY
  5
1109
102
{ACAD_REACTORS
330
C
102
}
330
C
100
AcDbDictionary
281
     1
  3
CANNOSCALE
350
5891
  3
CMLEADERSTYLE
350
5890
  3
CTABLESTYLE
350
42C4
  3
SORTENTS
350
110A
  0
DICTIONARY
  5
4AB9
102
{ACAD_REACTORS
330
C
102
}
330
C
100
AcDbDictionary
281
     1
  0
DICTIONARY
  5
23
102
{ACAD_REACTORS
330
C
102
}
330
C
100
AcDbDictionary
281
     1
  0
DICTIONARY
  5
51F7
102
{ACAD_REACTORS
330
421D
102
}
330
421D
100
AcDbDictionary
281
     1
  0
DICTIONARY
  5
421E
102
{ACAD_REACTORS
330
421D
102
}
330
421D
100
AcDbDictionary
281
     1
  0
DICTIONARY
  5
51F6
102
{ACAD_REACTORS
330
421D
102
}
330
421D
100
AcDbDictionary
281
     1
1001
ACAD
1000
<All
  0
XRECORD
  5
577C
102
{ACAD_REACTORS
330
577B
102
}
330
577B
100
AcDbXrecord
280
     1
290
     1
  0
XRECORD
  5
577E
102
{ACAD_REACTORS
330
577D
102
}
330
577D
100
AcDbXrecord
280
     1
290
     1
  0
XRECORD
  5
5780
102
{ACAD_REACTORS
330
577F
102
}
330
577F
100
AcDbXrecord
280
     1
290
     1
  0
XRECORD
  5
5782
102
{ACAD_REACTORS
330
5781
102
}
330
5781
100
AcDbXrecord
280
     1
290
     1
  0
XRECORD
  5
5784
102
{ACAD_REACTORS
330
5783
102
}
330
5783
100
AcDbXrecord
280
     1
290
     1
  0
XRECORD
  5
5786
102
{ACAD_REACTORS
330
5785
102
}
330
5785
100
AcDbXrecord
280
     1
290
     1
  0
XRECORD
  5
5788
102
{ACAD_REACTORS
330
5787
102
}
330
5787
100
AcDbXrecord
280
     1
290
     1
  0
XRECORD
  5
578A
102
{ACAD_REACTORS
330
5789
102
}
330
5789
100
AcDbXrecord
280
     1
290
     1
  0
XRECORD
  5
578C
102
{ACAD_REACTORS
330
578B
102
}
330
578B
100
AcDbXrecord
280
     1
290
     1
  0
XRECORD
  5
578E
102
{ACAD_REACTORS
330
578D
102
}
330
578D
100
AcDbXrecord
280
     1
290
     1
  0
XRECORD
  5
5790
102
{ACAD_REACTORS
330
578F
102
}
330
578F
100
AcDbXrecord
280
     1
290
     1
  0
XRECORD
  5
5792
102
{ACAD_REACTORS
330
5791
102
}
330
5791
100
AcDbXrecord
280
     1
290
     1
  0
XRECORD
  5
5794
102
{ACAD_REACTORS
330
5793
102
}
330
5793
100
AcDbXrecord
280
     1
290
     1
  0
XRECORD
  5
5796
102
{ACAD_REACTORS
330
5795
102
}
330
5795
100
AcDbXrecord
280
     1
290
     1
  0
XRECORD
  5
5798
102
{ACAD_REACTORS
330
5797
102
}
330
5797
100
AcDbXrecord
280
     1
290
     1
  0
XRECORD
  5
579A
102
{ACAD_REACTORS
330
5799
102
}
330
5799
100
AcDbXrecord
280
     1
290
     1
  0
XRECORD
  5
579C
102
{ACAD_REACTORS
330
579B
102
}
330
579B
100
AcDbXrecord
280
     1
290
     1
  0
SORTENTSTABLE
  5
572C
102
{ACAD_REACTORS
330
572B
102
}
330
572B
100
AcDbSortentsTable
330
18
331
10E0
  5
10E0
  0
XRECORD
  5
6750
102
{ACAD_REACTORS
330
674F
102
}
330
674F
100
AcDbXrecord
280
     1
 40
5278.0
  1
\A1;20°
  0
XRECORD
  5
676C
102
{ACAD_REACTORS
330
676B
102
}
330
676B
100
AcDbXrecord
280
     1
 40
29105.0
  1
\A1;4000{\H93.750000;±7}
  0
XRECORD
  5
676A
102
{ACAD_REACTORS
330
6769
102
}
330
6769
100
AcDbXrecord
280
     1
 40
28739.0
  1
\A1;870{\H28.125000;±40}
  0
DIMASSOC
  5
6420
102
{ACAD_REACTORS
330
641F
102
}
330
641F
100
AcDbDimAssoc
330
641E
 90
        2
 70
     0
 71
     0
  1
AcDbOsnapPointRef
 72
    13
331
643D
 73
     2
 91
        0
 40
0.0
 10
0.0
 20
0.0
 30
2.000000000000000E+50
 75
     0
  0
DIMASSOC
  5
6423
102
{ACAD_REACTORS
330
6422
102
}
330
6422
100
AcDbDimAssoc
330
6421
 90
        2
 70
     0
 71
     0
  1
AcDbOsnapPointRef
 72
    13
331
6438
 73
     2
 91
        0
 40
0.0
 10
0.0
 20
0.0
 30
2.000000000000000E+50
 75
     0
  0
DIMASSOC
  5
6434
102
{ACAD_REACTORS
330
6433
102
}
330
6433
100
AcDbDimAssoc
330
6432
 90
        3
 70
     0
 71
     0
  1
AcDbOsnapPointRef
 72
    13
331
6438
 73
     2
 91
        0
 40
0.0
 10
0.0
 20
0.0
 30
2.000000000000000E+50
 75
     0
  1
AcDbOsnapPointRef
 72
    13
331
643D
 73
     2
 91
        0
 40
0.0
 10
0.0
 20
0.0
 30
2.000000000000000E+50
 75
     0
  0
XRECORD
  5
62A0
102
{ACAD_REACTORS
330
629F
102
}
330
629F
100
AcDbXrecord
280
     1
 90
        1
340
549D
  0
GROUP
  5
1B1
102
{ACAD_REACTORS
330
D
102
}
330
D
100
AcDbGroup
300

 70
     1
 71
     1
  0
GROUP
  5
46A
102
{ACAD_REACTORS
330
D
102
}
330
D
100
AcDbGroup
300

 70
     1
 71
     1
  0
GROUP
  5
46B
102
{ACAD_REACTORS
330
D
102
}
330
D
100
AcDbGroup
300

 70
     1
 71
     1
  0
GROUP
  5
95A
102
{ACAD_REACTORS
330
D
102
}
330
D
100
AcDbGroup
300

 70
     1
 71
     1
  0
GROUP
  5
1A48
102
{ACAD_REACTORS
330
D
102
}
330
D
100
AcDbGroup
300

 70
     1
 71
     1
  0
GROUP
  5
1A49
102
{ACAD_REACTORS
330
D
102
}
330
D
100
AcDbGroup
300

 70
     1
 71
     1
  0
GROUP
  5
1A4A
102
{ACAD_REACTORS
330
D
102
}
330
D
100
AcDbGroup
300

 70
     1
 71
     1
  0
GROUP
  5
1A4B
102
{ACAD_REACTORS
330
D
102
}
330
D
100
AcDbGroup
300

 70
     1
 71
     1
  0
GROUP
  5
95B
102
{ACAD_REACTORS
330
D
102
}
330
D
100
AcDbGroup
300

 70
     1
 71
     1
  0
GROUP
  5
95C
102
{ACAD_REACTORS
330
D
102
}
330
D
100
AcDbGroup
300

 70
     1
 71
     1
  0
GROUP
  5
95D
102
{ACAD_REACTORS
330
D
102
}
330
D
100
AcDbGroup
300

 70
     1
 71
     1
  0
GROUP
  5
1B2
102
{ACAD_REACTORS
330
D
102
}
330
D
100
AcDbGroup
300

 70
     1
 71
     1
  0
GROUP
  5
1C3
102
{ACAD_REACTORS
330
D
102
}
330
D
100
AcDbGroup
300

 70
     1
 71
     1
  0
GROUP
  5
1D2
102
{ACAD_REACTORS
330
D
102
}
330
D
100
AcDbGroup
300

 70
     1
 71
     1
  0
IMAGEDEF
  5
3E29
102
{ACAD_REACTORS
330
1BA2
102
}
330
1BA2
100
AcDbRasterImageDef
 90
        0
  1
T:\Prospekt\Leitschienen\Bitmaps\S3\KB3 RH2B explosions_3D.bmp
 10
2048.0
 20
1366.0
 11
0.4882812609139367
 21
0.4882812609139367
280
     1
281
     2
  0
IMAGEDEF
  5
3E26
102
{ACAD_REACTORS
330
1BA2
102
}
330
1BA2
100
AcDbRasterImageDef
 90
        0
  1
T:\Prospekt\Leitschienen\Bitmaps\S3\KB3 RH2B_3D.bmp
 10
2048.0
 20
1536.0
 11
0.4882812609139367
 21
0.4882812609139367
280
     1
281
     2
  0
LAYOUT
  5
6298
102
{ACAD_XDICTIONARY
360
62A8
102
}
102
{ACAD_REACTORS
330
16EC
102
}
330
16EC
100
AcDbPlotSettings
  1

  2
\\2217psvak001.voestalpine.root.local\2217PRVAKF009.vakf.net
  4
A4
  6

 40
6.805083274841308
 41
5.027085781097412
 42
6.974411010742187
 43
5.027069091796875
 44
209.9733276367187
 45
296.9259948730469
 46
0.0
 47
0.0
 48
0.0
 49
0.0
140
0.0
141
0.0
142
1.0
143
1.0
 70
   688
 72
     0
 73
     1
 74
     5
  7
monochrome.ctb
 75
    16
147
1.0
 76
     0
 77
     2
 78
   300
148
0.0
149
0.0
100
AcDbLayout
  1
Layout1
 70
     1
 71
     1
 10
-0.1979161059762549
 20
-0.2679166643638311
 11
11.4920836921752
 21
7.99874977802667
 12
0.0
 22
0.0
 32
0.0
 14
1.000000000000000E+20
 24
1.000000000000000E+20
 34
1.000000000000000E+20
 15
-1.000000000000000E+20
 25
-1.000000000000000E+20
 35
-1.000000000000000E+20
146
0.0
 13
0.0
 23
0.0
 33
0.0
 16
1.0
 26
0.0
 36
0.0
 17
0.0
 27
1.0
 37
0.0
 76
     0
330
6297
331
629E
1001
ACAD_PSEXT
1000
\\2217psvak001.voestalpine.root.local\2217PRVAKF009.vakf.net
1000
NRG DSm730 PCL 5e
1000
vakf - BG EG18 Gang - Straßensicherheit
1000
BG EG18 Gang / Zickbauer
1070
     0
  0
LAYOUT
  5
16EE
102
{ACAD_REACTORS
330
16EC
102
}
330
16EC
100
AcDbPlotSettings
  1

  2
none_device
  4
Letter_(8.50_x_11.00_Inches)
  6

 40
6.349999904632568
 41
6.349999904632568
 42
6.350006103515625
 43
6.350006103515625
 44
215.8999938964844
 45
279.3999938964844
 46
0.0
 47
0.0
 48
0.0
 49
0.0
140
0.0
141
0.0
142
1.0
143
1.0
 70
 11952
 72
     0
 73
     1
 74
     0
  7

 75
     0
147
1.0
 76
     0
 77
     2
 78
   300
148
-205442.5510303156
149
83059.70278648507
100
AcDbLayout
  1
Model
 70
     1
 71
     0
 10
0.0
 20
0.0
 11
12.0
 21
9.0
 12
0.0
 22
0.0
 32
0.0
 14
0.0
 24
0.0
 34
0.0
 15
0.0
 25
0.0
 35
0.0
146
0.0
 13
0.0
 23
0.0
 33
0.0
 16
1.0
 26
0.0
 36
0.0
 17
0.0
 27
1.0
 37
0.0
 76
     0
330
18
331
503B
  0
MATERIAL
  5
506B
102
{ACAD_XDICTIONARY
360
6745
102
}
102
{ACAD_REACTORS
330
1ACB
102
}
330
1ACB
100
AcDbMaterial
  1
ByBlock
 73
     1
 78
     1
172
     1
176
     1
270
     1
274
     1
  0
MATERIAL
  5
506A
102
{ACAD_XDICTIONARY
360
6743
102
}
102
{ACAD_REACTORS
330
1ACB
102
}
330
1ACB
100
AcDbMaterial
  1
ByLayer
 73
     1
 78
     1
172
     1
176
     1
270
     1
274
     1
  0
MATERIAL
  5
506C
102
{ACAD_XDICTIONARY
360
6747
102
}
102
{ACAD_REACTORS
330
1ACB
102
}
330
1ACB
100
AcDbMaterial
  1
Global
 73
     1
 78
     1
172
     1
176
     1
270
     1
274
     1
  0
MLEADERSTYLE
  5
54BF
102
{ACAD_REACTORS
330
54BE
102
}
330
54BE
100
AcDbMLeaderStyle
170
     2
171
     1
172
     0
 90
        2
 40
0.0
 41
0.0
173
     1
 91
-1056964608
340
12
 92
       -2
290
     1
 42
0.09
291
     1
 43
0.36
  3
Standard
 44
0.18
300

342
F
174
     1
178
     6
175
     1
176
     0
 93
-1056964608
 45
0.18
292
     0
297
     0
 46
0.18
 94
-1056964608
 47
1.0
 49
1.0
140
1.0
293
     1
141
0.0
294
     1
177
     0
142
1.0
295
     0
296
     0
143
0.125
1001
ACAD_MLEADERVER
1070
     2
  0
MLINESTYLE
  5
1C
102
{ACAD_REACTORS
330
1B
102
}
330
1B
100
AcDbMlineStyle
  2
STANDARD
 70
     0
  3

 62
   256
 51
90.0
 52
90.0
 71
     2
 49
0.5
 62
   256
  6
BYLAYER
 49
-0.5
 62
   256
  6
BYLAYER
  0
ACDBPLACEHOLDER
  5
16EB
102
{ACAD_REACTORS
330
16EA
102
}
330
16EA
  0
SCALE
  5
549D
102
{ACAD_REACTORS
330
549C
102
}
330
549C
100
AcDbScale
 70
     0
300
1:1
140
1.0
141
1.0
290
     1
  0
SCALE
  5
549E
102
{ACAD_REACTORS
330
549C
102
}
330
549C
100
AcDbScale
 70
     0
300
1:2
140
1.0
141
2.0
290
     0
  0
SCALE
  5
549F
102
{ACAD_REACTORS
330
549C
102
}
330
549C
100
AcDbScale
 70
     0
300
1:4
140
1.0
141
4.0
290
     0
  0
SCALE
  5
54A0
102
{ACAD_REACTORS
330
549C
102
}
330
549C
100
AcDbScale
 70
     0
300
1:5
140
1.0
141
5.0
290
     0
  0
SCALE
  5
54A1
102
{ACAD_REACTORS
330
549C
102
}
330
549C
100
AcDbScale
 70
     0
300
1:8
140
1.0
141
8.0
290
     0
  0
SCALE
  5
54A2
102
{ACAD_REACTORS
330
549C
102
}
330
549C
100
AcDbScale
 70
     0
300
1:10
140
1.0
141
10.0
290
     0
  0
SCALE
  5
54A3
102
{ACAD_REACTORS
330
549C
102
}
330
549C
100
AcDbScale
 70
     0
300
1:16
140
1.0
141
16.0
290
     0
  0
SCALE
  5
54A4
102
{ACAD_REACTORS
330
549C
102
}
330
549C
100
AcDbScale
 70
     0
300
1:20
140
1.0
141
20.0
290
     0
  0
SCALE
  5
54A5
102
{ACAD_REACTORS
330
549C
102
}
330
549C
100
AcDbScale
 70
     0
300
1:30
140
1.0
141
30.0
290
     0
  0
SCALE
  5
54A6
102
{ACAD_REACTORS
330
549C
102
}
330
549C
100
AcDbScale
 70
     0
300
1:40
140
1.0
141
40.0
290
     0
  0
SCALE
  5
54A7
102
{ACAD_REACTORS
330
549C
102
}
330
549C
100
AcDbScale
 70
     0
300
1:50
140
1.0
141
50.0
290
     0
  0
SCALE
  5
54A8
102
{ACAD_REACTORS
330
549C
102
}
330
549C
100
AcDbScale
 70
     0
300
1:100
140
1.0
141
100.0
290
     0
  0
SCALE
  5
54A9
102
{ACAD_REACTORS
330
549C
102
}
330
549C
100
AcDbScale
 70
     0
300
2:1
140
2.0
141
1.0
290
     0
  0
SCALE
  5
54AA
102
{ACAD_REACTORS
330
549C
102
}
330
549C
100
AcDbScale
 70
     0
300
4:1
140
4.0
141
1.0
290
     0
  0
SCALE
  5
54AB
102
{ACAD_REACTORS
330
549C
102
}
330
549C
100
AcDbScale
 70
     0
300
8:1
140
8.0
141
1.0
290
     0
  0
SCALE
  5
54AC
102
{ACAD_REACTORS
330
549C
102
}
330
549C
100
AcDbScale
 70
     0
300
10:1
140
10.0
141
1.0
290
     0
  0
SCALE
  5
54AD
102
{ACAD_REACTORS
330
549C
102
}
330
549C
100
AcDbScale
 70
     0
300
100:1
140
100.0
141
1.0
290
     0
  0
SCALE
  5
54AE
102
{ACAD_REACTORS
330
549C
102
}
330
549C
100
AcDbScale
 70
     0
300
1/128" = 1'-0"
140
0.0078125
141
12.0
290
     0
  0
SCALE
  5
54AF
102
{ACAD_REACTORS
330
549C
102
}
330
549C
100
AcDbScale
 70
     0
300
1/64" = 1'-0"
140
0.015625
141
12.0
290
     0
  0
SCALE
  5
54B0
102
{ACAD_REACTORS
330
549C
102
}
330
549C
100
AcDbScale
 70
     0
300
1/32" = 1'-0"
140
0.03125
141
12.0
290
     0
  0
SCALE
  5
54B1
102
{ACAD_REACTORS
330
549C
102
}
330
549C
100
AcDbScale
 70
     0
300
1/16" = 1'-0"
140
0.0625
141
12.0
290
     0
  0
SCALE
  5
54B2
102
{ACAD_REACTORS
330
549C
102
}
330
549C
100
AcDbScale
 70
     0
300
3/32" = 1'-0"
140
0.09375
141
12.0
290
     0
  0
SCALE
  5
54B3
102
{ACAD_REACTORS
330
549C
102
}
330
549C
100
AcDbScale
 70
     0
300
1/8" = 1'-0"
140
0.125
141
12.0
290
     0
  0
SCALE
  5
54B4
102
{ACAD_REACTORS
330
549C
102
}
330
549C
100
AcDbScale
 70
     0
300
3/16" = 1'-0"
140
0.1875
141
12.0
290
     0
  0
SCALE
  5
54B5
102
{ACAD_REACTORS
330
549C
102
}
330
549C
100
AcDbScale
 70
     0
300
1/4" = 1'-0"
140
0.25
141
12.0
290
     0
  0
SCALE
  5
54B6
102
{ACAD_REACTORS
330
549C
102
}
330
549C
100
AcDbScale
 70
     0
300
3/8" = 1'-0"
140
0.375
141
12.0
290
     0
  0
SCALE
  5
54B7
102
{ACAD_REACTORS
330
549C
102
}
330
549C
100
AcDbScale
 70
     0
300
1/2" = 1'-0"
140
0.5
141
12.0
290
     0
  0
SCALE
  5
54B8
102
{ACAD_REACTORS
330
549C
102
}
330
549C
100
AcDbScale
 70
     0
300
3/4" = 1'-0"
140
0.75
141
12.0
290
     0
  0
SCALE
  5
54B9
102
{ACAD_REACTORS
330
549C
102
}
330
549C
100
AcDbScale
 70
     0
300
1" = 1'-0"
140
1.0
141
12.0
290
     0
  0
SCALE
  5
54BA
102
{ACAD_REACTORS
330
549C
102
}
330
549C
100
AcDbScale
 70
     0
300
1-1/2" = 1'-0"
140
1.5
141
12.0
290
     0
  0
SCALE
  5
54BB
102
{ACAD_REACTORS
330
549C
102
}
330
549C
100
AcDbScale
 70
     0
300
3" = 1'-0"
140
3.0
141
12.0
290
     0
  0
SCALE
  5
54BC
102
{ACAD_REACTORS
330
549C
102
}
330
549C
100
AcDbScale
 70
     0
300
6" = 1'-0"
140
6.0
141
12.0
290
     0
  0
SCALE
  5
54BD
102
{ACAD_REACTORS
330
549C
102
}
330
549C
100
AcDbScale
 70
     0
300
1'-0" = 1'-0"
140
12.0
141
12.0
290
     0
  0
TABLESTYLE
  5
4208
102
{ACAD_XDICTIONARY
360
5865
102
}
102
{ACAD_REACTORS
330
4207
102
}
330
4207
100
AcDbTableStyle
  3
Standard
 70
     0
 71
     0
 40
0.06
 41
0.06
280
     0
281
     0
  7
STANDARD
140
0.18
170
     2
 62
     0
 63
     7
283
     0
274
    -2
284
     1
 64
     0
275
    -2
285
     1
 65
     0
276
    -2
286
     1
 66
     0
277
    -2
287
     1
 67
     0
278
    -2
288
     1
 68
     0
279
    -2
289
     1
 69
     0
  7
STANDARD
140
0.25
170
     5
 62
     0
 63
     7
283
     0
274
    -2
284
     1
 64
     0
275
    -2
285
     1
 65
     0
276
    -2
286
     1
 66
     0
277
    -2
287
     1
 67
     0
278
    -2
288
     1
 68
     0
279
    -2
289
     1
 69
     0
  7
STANDARD
140
0.18
170
     5
 62
     0
 63
     7
283
     0
274
    -2
284
     1
 64
     0
275
    -2
285
     1
 65
     0
276
    -2
286
     1
 66
     0
277
    -2
287
     1
 67
     0
278
    -2
288
     1
 68
     0
279
    -2
289
     1
 69
     0
  0
VISUALSTYLE
  5
5073
102
{ACAD_REACTORS
330
506D
102
}
330
506D
100
AcDbVisualStyle
  2
2dWireframe
 70
     4
 71
     0
 72
     2
 73
     0
 90
        0
 40
-0.6
 41
-30.0
 62
     5
 63
     7
421
 16777215
 74
     1
 91
        4
 64
     7
 65
   257
 75
     1
175
     1
 42
1.0
 92
        0
 66
   257
 43
1.0
 76
     1
 77
     6
 78
     2
 67
     7
 79
     5
170
     0
171
     0
290
     0
174
     0
 93
        1
 44
0.0
173
     0
291
     0
 45
0.0
1001
ACAD
1000
AcDbSavedByObjectVersion
1070
     0
  0
VISUALSTYLE
  5
5075
102
{ACAD_REACTORS
330
506D
102
}
330
506D
100
AcDbVisualStyle
  2
3D Hidden
 70
     6
 71
     1
 72
     2
 73
     2
 90
        0
 40
-0.6
 41
-30.0
 62
     5
 63
     7
421
 16777215
 74
     2
 91
        2
 64
     7
 65
   257
 75
     2
175
     1
 42
40.0
 92
        0
 66
   257
 43
1.0
 76
     1
 77
     6
 78
     2
 67
     7
 79
     3
170
     0
171
     0
290
     0
174
     0
 93
        1
 44
0.0
173
     0
291
     0
 45
0.0
1001
ACAD
1000
AcDbSavedByObjectVersion
1070
     0
  0
VISUALSTYLE
  5
5074
102
{ACAD_REACTORS
330
506D
102
}
330
506D
100
AcDbVisualStyle
  2
3dWireframe
 70
     5
 71
     0
 72
     2
 73
     0
 90
        0
 40
-0.6
 41
-30.0
 62
     5
 63
     7
421
 16777215
 74
     1
 91
        4
 64
     7
 65
   257
 75
     1
175
     1
 42
1.0
 92
        0
 66
   257
 43
1.0
 76
     1
 77
     6
 78
     2
 67
     7
 79
     5
170
     0
171
     0
290
     0
174
     0
 93
        1
 44
0.0
173
     0
291
     0
 45
0.0
1001
ACAD
1000
AcDbSavedByObjectVersion
1070
     0
  0
VISUALSTYLE
  5
5072
102
{ACAD_REACTORS
330
506D
102
}
330
506D
100
AcDbVisualStyle
  2
Basic
 70
     7
 71
     1
 72
     0
 73
     1
 90
        0
 40
-0.6
 41
-30.0
 62
     5
 63
     7
421
 16777215
 74
     0
 91
        4
 64
     7
 65
   257
 75
     1
175
     1
 42
1.0
 92
        8
 66
     7
 43
1.0
 76
     1
 77
     6
 78
     2
 67
     7
 79
     5
170
     0
171
     0
290
     0
174
     0
 93
        1
 44
0.0
173
     0
291
     1
 45
0.0
1001
ACAD
1000
AcDbSavedByObjectVersion
1070
     0
  0
VISUALSTYLE
  5
5079
102
{ACAD_REACTORS
330
506D
102
}
330
506D
100
AcDbVisualStyle
  2
Brighten
 70
    12
 71
     2
 72
     2
 73
     0
 90
        0
 40
-0.6
 41
-30.0
 62
     5
 63
     7
421
 16777215
 74
     1
 91
        4
 64
     7
 65
   257
 75
     1
175
     1
 42
1.0
 92
        8
 66
     7
 43
1.0
 76
     1
 77
     6
 78
     2
 67
     7
 79
     5
170
     0
171
     0
290
     0
174
     0
 93
        1
 44
50.0
173
     0
291
     1
 45
0.0
1001
ACAD
1000
AcDbSavedByObjectVersion
1070
     0
  0
VISUALSTYLE
  5
507D
102
{ACAD_REACTORS
330
506D
102
}
330
506D
100
AcDbVisualStyle
  2
ColorChange
 70
    16
 71
     2
 72
     2
 73
     3
 90
        0
 40
-0.6
 41
-30.0
 62
     5
 63
     8
421
  8421504
 74
     1
 91
        4
 64
     7
 65
   257
 75
     1
175
     1
 42
1.0
 92
        8
 66
     8
424
  8421504
 43
1.0
 76
     1
 77
     6
 78
     2
 67
     7
 79
     5
170
     0
171
     0
290
     0
174
     0
 93
        1
 44
0.0
173
     0
291
     1
 45
0.0
1001
ACAD
1000
AcDbSavedByObjectVersion
1070
     0
  0
VISUALSTYLE
  5
5076
102
{ACAD_REACTORS
330
506D
102
}
330
506D
100
AcDbVisualStyle
  2
Conceptual
 70
     9
 71
     3
 72
     2
 73
     0
 90
        0
 40
-0.6
 41
-30.0
 62
     5
 63
     7
421
 16777215
 74
     2
 91
        2
 64
     7
 65
   257
 75
     1
175
     1
 42
40.0
 92
        8
 66
     7
 43
1.0
 76
     1
 77
     6
 78
     2
 67
     7
 79
     3
170
     0
171
     0
290
     0
174
     0
 93
        1
 44
0.0
173
     0
291
     0
 45
0.0
1001
ACAD
1000
AcDbSavedByObjectVersion
1070
     0
  0
VISUALSTYLE
  5
5078
102
{ACAD_REACTORS
330
506D
102
}
330
506D
100
AcDbVisualStyle
  2
Dim
 70
    11
 71
     2
 72
     2
 73
     0
 90
        0
 40
-0.6
 41
-30.0
 62
     5
 63
     7
421
 16777215
 74
     1
 91
        4
 64
     7
 65
   257
 75
     1
175
     1
 42
1.0
 92
        8
 66
     7
 43
1.0
 76
     1
 77
     6
 78
     2
 67
     7
 79
     5
170
     0
171
     0
290
     0
174
     0
 93
        1
 44
-50.0
173
     0
291
     1
 45
0.0
1001
ACAD
1000
AcDbSavedByObjectVersion
1070
     0
  0
VISUALSTYLE
  5
507C
102
{ACAD_REACTORS
330
506D
102
}
330
506D
100
AcDbVisualStyle
  2
Facepattern
 70
    15
 71
     2
 72
     2
 73
     0
 90
        0
 40
-0.6
 41
-30.0
 62
     5
 63
     7
421
 16777215
 74
     1
 91
        4
 64
     7
 65
   257
 75
     1
175
     1
 42
1.0
 92
        8
 66
     7
 43
1.0
 76
     1
 77
     6
 78
     2
 67
     7
 79
     5
170
     0
171
     0
290
     0
174
     0
 93
        1
 44
0.0
173
     0
291
     1
 45
0.0
1001
ACAD
1000
AcDbSavedByObjectVersion
1070
     0
  0
VISUALSTYLE
  5
506E
102
{ACAD_REACTORS
330
506D
102
}
330
506D
100
AcDbVisualStyle
  2
Flat
 70
     0
 71
     2
 72
     1
 73
     1
 90
        2
 40
-0.6
 41
30.0
 62
     5
 63
     7
421
 16777215
 74
     0
 91
        4
 64
     7
 65
   257
 75
     1
175
     1
 42
1.0
 92
        8
 66
     7
 43
1.0
 76
     1
 77
     6
 78
     2
 67
     7
 79
     5
170
     0
171
     0
290
     0
174
     0
 93
       13
 44
0.0
173
     0
291
     1
 45
0.0
1001
ACAD
1000
AcDbSavedByObjectVersion
1070
     0
  0
VISUALSTYLE
  5
506F
102
{ACAD_REACTORS
330
506D
102
}
330
506D
100
AcDbVisualStyle
  2
FlatWithEdges
 70
     1
 71
     2
 72
     1
 73
     1
 90
        2
 40
-0.6
 41
30.0
 62
     5
 63
     7
421
 16777215
 74
     1
 91
        4
 64
     7
 65
   257
 75
     1
175
     1
 42
1.0
 92
        0
 66
   257
 43
1.0
 76
     1
 77
     6
 78
     2
 67
     7
 79
     5
170
     0
171
     0
290
     0
174
     0
 93
       13
 44
0.0
173
     0
291
     1
 45
0.0
1001
ACAD
1000
AcDbSavedByObjectVersion
1070
     0
  0
VISUALSTYLE
  5
5070
102
{ACAD_REACTORS
330
506D
102
}
330
506D
100
AcDbVisualStyle
  2
Gouraud
 70
     2
 71
     2
 72
     2
 73
     1
 90
        2
 40
-0.6
 41
30.0
 62
     5
 63
     7
421
 16777215
 74
     0
 91
        4
 64
     7
 65
   257
 75
     1
175
     1
 42
1.0
 92
        0
 66
     7
 43
1.0
 76
     1
 77
     6
 78
     2
 67
     7
 79
     5
170
     0
171
     0
290
     0
174
     0
 93
       13
 44
0.0
173
     0
291
     1
 45
0.0
1001
ACAD
1000
AcDbSavedByObjectVersion
1070
     0
  0
VISUALSTYLE
  5
5071
102
{ACAD_REACTORS
330
506D
102
}
330
506D
100
AcDbVisualStyle
  2
GouraudWithEdges
 70
     3
 71
     2
 72
     2
 73
     1
 90
        2
 40
-0.6
 41
30.0
 62
     5
 63
     7
421
 16777215
 74
     1
 91
        4
 64
     7
 65
   257
 75
     1
175
     1
 42
1.0
 92
        0
 66
   257
 43
1.0
 76
     1
 77
     6
 78
     2
 67
     7
 79
     5
170
     0
171
     0
290
     0
174
     0
 93
       13
 44
0.0
173
     0
291
     1
 45
0.0
1001
ACAD
1000
AcDbSavedByObjectVersion
1070
     0
  0
VISUALSTYLE
  5
507B
102
{ACAD_REACTORS
330
506D
102
}
330
506D
100
AcDbVisualStyle
  2
Linepattern
 70
    14
 71
     2
 72
     2
 73
     0
 90
        0
 40
-0.6
 41
-30.0
 62
     5
 63
     7
421
 16777215
 74
     1
 91
        4
 64
     7
 65
   257
 75
     7
175
     7
 42
1.0
 92
        8
 66
     7
 43
1.0
 76
     1
 77
     6
 78
     2
 67
     7
 79
     5
170
     0
171
     0
290
     0
174
     0
 93
        1
 44
0.0
173
     0
291
     1
 45
0.0
1001
ACAD
1000
AcDbSavedByObjectVersion
1070
     0
  0
VISUALSTYLE
  5
5077
102
{ACAD_REACTORS
330
506D
102
}
330
506D
100
AcDbVisualStyle
  2
Realistic
 70
     8
 71
     2
 72
     2
 73
     0
 90
        0
 40
-0.6
 41
-30.0
 62
     5
 63
     7
421
 16777215
 74
     1
 91
        0
 64
     7
 65
   257
 75
     1
175
     1
 42
1.0
 92
        8
 66
     8
424
  7895160
 43
1.0
 76
     1
 77
     6
 78
     2
 67
     7
 79
     5
170
     0
171
     0
290
     0
174
     0
 93
       13
 44
0.0
173
     0
291
     0
 45
0.0
1001
ACAD
1000
AcDbSavedByObjectVersion
1070
     0
  0
VISUALSTYLE
  5
507A
102
{ACAD_REACTORS
330
506D
102
}
330
506D
100
AcDbVisualStyle
  2
Thicken
 70
    13
 71
     2
 72
     2
 73
     0
 90
        0
 40
-0.6
 41
-30.0
 62
     5
 63
     7
421
 16777215
 74
     1
 91
        4
 64
     7
 65
   257
 75
     1
175
     1
 42
1.0
 92
       12
 66
     7
 43
1.0
 76
     1
 77
     6
 78
     2
 67
     7
 79
     5
170
     0
171
     0
290
     0
174
     0
 93
        1
 44
0.0
173
     0
291
     1
 45
0.0
1001
ACAD
1000
AcDbSavedByObjectVersion
1070
     0
  0
DICTIONARYVAR
  5
5891
102
{ACAD_REACTORS
330
1109
102
}
330
1109
100
DictionaryVariables
280
     0
  1
1:1
  0
DICTIONARYVAR
  5
5890
102
{ACAD_REACTORS
330
1109
102
}
330
1109
100
DictionaryVariables
280
     0
  1
STANDARD
  0
DICTIONARYVAR
  5
42C4
102
{ACAD_REACTORS
330
1109
102
}
330
1109
100
DictionaryVariables
280
     0
  1
STANDARD
  0
DICTIONARYVAR
  5
110A
102
{ACAD_REACTORS
330
1109
102
}
330
1109
100
DictionaryVariables
280
     0
  1
96
  0
DICTIONARY
  5
62A8
330
6298
100
AcDbDictionary
280
     1
281
     1
  3
ADSK_XREC_LAYOUTTHUMBNAIL
360
62A9
  0
DICTIONARY
  5
6745
330
506B
100
AcDbDictionary
280
     1
281
     1
  3
ACAD_XREC_ROUNDTRIP
360
6746
  0
DICTIONARY
  5
6743
330
506A
100
AcDbDictionary
280
     1
281
     1
  3
ACAD_XREC_ROUNDTRIP
360
6744
  0
DICTIONARY
  5
6747
330
506C
100
AcDbDictionary
280
     1
281
     1
  3
ACAD_XREC_ROUNDTRIP
360
6748
  0
DICTIONARY
  5
5865
330
4208
100
AcDbDictionary
280
     1
281
     1
  3
ACAD_ROUNDTRIP_2008_TABLESTYLE_CELLSTYLEMAP
360
6741
  3
ACAD_XREC_ROUNDTRIP
360
6742
  0
XRECORD
  5
62A9
102
{ACAD_REACTORS
330
62A8
102
}
330
62A8
100
AcDbXrecord
280
     1
310
28000000B40000007F00000001000800000000004C59000000000000000000000001000000000000FFFFFF0000000000FFFFFF000000000000000000000000000000000000000000000000000000000000000000330000006600000099000000CC000000FF00000000330000333300006633000099330000CC330000FF3300
310
0000660000336600006666000099660000CC660000FF66000000990000339900006699000099990000CC990000FF99000000CC000033CC000066CC000099CC0000CCCC0000FFCC000000FF000033FF000066FF000099FF0000CCFF0000FFFF000000003300330033006600330099003300CC003300FF003300003333003333
310
33006633330099333300CC333300FF33330000663300336633006666330099663300CC663300FF66330000993300339933006699330099993300CC993300FF99330000CC330033CC330066CC330099CC3300CCCC3300FFCC330000FF330033FF330066FF330099FF3300CCFF3300FFFF330000006600330066006600660099
310
006600CC006600FF00660000336600333366006633660099336600CC336600FF33660000666600336666006666660099666600CC666600FF66660000996600339966006699660099996600CC996600FF99660000CC660033CC660066CC660099CC6600CCCC6600FFCC660000FF660033FF660066FF660099FF6600CCFF6600
310
FFFF660000009900330099006600990099009900CC009900FF00990000339900333399006633990099339900CC339900FF33990000669900336699006666990099669900CC669900FF66990000999900339999006699990099999900CC999900FF99990000CC990033CC990066CC990099CC9900CCCC9900FFCC990000FF99
310
0033FF990066FF990099FF9900CCFF9900FFFF99000000CC003300CC006600CC009900CC00CC00CC00FF00CC000033CC003333CC006633CC009933CC00CC33CC00FF33CC000066CC003366CC006666CC009966CC00CC66CC00FF66CC000099CC003399CC006699CC009999CC00CC99CC00FF99CC0000CCCC0033CCCC0066CC
310
CC0099CCCC00CCCCCC00FFCCCC0000FFCC0033FFCC0066FFCC0099FFCC00CCFFCC00FFFFCC000000FF003300FF006600FF009900FF00CC00FF00FF00FF000033FF003333FF006633FF009933FF00CC33FF00FF33FF000066FF003366FF006666FF009966FF00CC66FF00FF66FF000099FF003399FF006699FF009999FF00CC
310
99FF00FF99FF0000CCFF0033CCFF0066CCFF0099CCFF00CCCCFF00FFCCFF0000FFFF0033FFFF0066FFFF0099FFFF00CCFFFF00FFFFFF00000000000D0D0D001A1A1A00282828003535350043434300505050005D5D5D006B6B6B00787878008686860093939300A1A1A100AEAEAE00BBBBBB00C9C9C900D6D6D600E4E4E400
310
F1F1F100FFFFFF0000000000000000000000000000000000000000000000000000000000000000000000000000000000E2E2E2E2E2E2E2E2E2E2E2E2E2E2E2E2E2E2E2E2E2E2E2E2E2E2E2E2E2E2E2E2E2E2E2E2E2E2E2E2E2E2E2E2E2E2E2E2E2E2E2E2E2E2E2E2E2E2E2E2E2E2E2E2E2E2E2E2E2E2E2E2E2E2E2E2E2E2E2
310
E2E2E2E2E2E2E2E2E2E2E2E2E2E2E2E2E2E2E2E2E2E2E2E2E2E2E2E2E2E2E2E2E2E2E2E2E2E2E2E2E2E2E2E2E2E2E2E2E2E2E2E2E2E2E2E2E2E2E2E2E2E2E2E2E2E2E2E2E2E2E2E2E2E2E2E2E2E2E2E2E2E2E2E2E2E2E2E2E2E2E2E2E2E2E2E2E2E2E2E2E2E2F5F5F5F5F5F5F5F5F5F5F5F5F5F5F5F5F5F5F5F5F5F5F5F5F5
310
F5F5F5F5F5F5F5F5F5F5F5F5F5F5F5F5F5F5F5F5F5F5F5F5F5F5F5F5F5F5F5F5F5F5F5F5F5F5F5F5F5F5F5F5F5F5F5F5F5F5F5F5F5F5F5F5F5F5F5F5F5F5F5F5F5F5F5F5F5F5F5F5F5F5F5F5F5F5F5F5F5F5F5F5F5F5F5F5F5F5F5F5F5F5F5F5F5F5F5F5F5F5F5F5F5F5F5F5F5F5F5F5F5F5F5F5F5F5F5F5F5F5F5F5F5F5F5
310
F5F5F5F5F5F5F5F5F5F5F5F5F5F5F5F5F5F5F5F5F5F5F5F5F5E2E2E2F5F5F5F5F5F5F5F5F5F5F5F5F5F5F5F5F5F5F5F5F5F5F5F5F5F5F5F5F5F5F5F5F5F5F5F5F5F5F5F5F5F5F5F5F5F5F5F5F5F5F5F5F5F5F5F5F5F5F5F5F5F5F5F5F5F5F5F5F5F5F5F5F5F5F5F5F5F5F5F5F5F5F5F5F5F5F5F5F5F5F5F5F5F5F5F5F5F5F5
310
F5F5F5F5F5F5F5F5F5F5F5F5F5F5F5F5F5F5F5F5F5F5F5F5F5F5F5F5F5F5F5F5F5F5F5F5F5F5F5F5F5F5F5F5F5F5F5F5F5F5F5F5F5F5F5F5F5F5F5F5F5F5F5F5F5F5F5F5F5F5F5F5F5F5F5F5F5F5E2E2E2F5F5F5F5F5F5F5F5F5F5F5F5F5F5F5F5F5F5F5F5F5F5F5F5F5F5F5F5F5F5F5F5F5F5F5F5F5F5F5F5F5F5F5F5F5F5
310
F5F5F5F5F5F5F5F5F5F5F5F5F5F5F5F5F5F5F5F5F5F5F5F5F5F5F5F5F5F5F5F5F5F5F5F5F5F5F5F5F5F5F5F5F5F5F5F5F5F5F5F5F5F5F5F5F5F5F5F5F5F5F5F5F5F5F5F5F5F5F5F5F5F5F5F5F5F5F5F5F5F5F5F5F5F5F5F5F5F5F5F5F5F5F5F5F5F5F5F5F5F5F5F5F5F5F5F5F5F5F5F5F5F5F5F5F5F5F5F5F5F5F5F5F5F5F5
310
F5F5F5F5E2E2E2F5F5E2E2E2E2E2E2E2E2F5F5F5F5F5F5F5F5F5E2E2E2E2E2E2E2E2E2E2E2E2E2E2E2E2F5F5F5F5F5F5F5F5F5E2E2E2E2E2E2E2E2E2E2E2E2E2E2E2E2F5F5F5F5F5F5F5F5E2E2E2E2E2E2E2E2E2E2E2E2E2E2E2E2F5F5F5F5F5F5F5F5F5E2E2E2E2E2E2E2E2E2E2E2E2E2E2E2E2F5F5F5F5F5F5F5F5E2E2E2
310
E2E2E2E2E2E2E2E2E2E2E2E2E2F5F5F5F5F5F5F5F5F5E2E2E2E2E2E2E2E2E2E2E2E2E2E2E2E2F5F5F5F5F5F5F5F5F5E2E2E2E2E2E2E2E2F5F5E2E2E2F5F5E2F5F5F5F5F5F5F5F5F5F5F5F5F5F5F5F5F5F5F5F5F5F5F5F5F5F5F5F5F5F5F5F5F5F5F5F5F5F5F5F5F5F5F5F5F5F5F5F5F5F5F5F5F5F5F5F5F5F5F5F5F5F5F5F5
310
F5F5F5F5F5F5F5F5F5F5F5F5F5F5F5F5F5F5F5F5F5F5F5F5F5F5F5F5F5F5F5F5F5F5F5F5F5F5F5F5F5F5F5F5F5F5F5F5F5F5F5F5F5F5F5F5F5F5F5F5F5F5F5F5F5F5F5F5F5F5F5F5F5F5F5F5F5F5F5F5F5F5F5F5F5F5F5F5F5F5F5F5F5F5F5F5F5F5F5F5F5F5F5F5F5F5F5E2F5F5E2E2E2F5F5E2F5F5F5F5F5F5F5F5F5F5F5
310
F5F5F5F5F5F5F5F5F5F5F5F5F5F5F5F5F5F5F5F5F5F5F5F5F5F5F5F5F5F5F5F5F5F5F5F5F5F5F5F5F5F5F5F5F5F5F5F5F5F5F5F5F5F5F5F5F5F5F5F5F5F5F5F5F5F5F5F5F5F5F5F5F5F5F5F5F5F5F5F5F5F5F5F5F5F5F5F5F5F5F5F5F5F5F5F5F5F5F5F5F5F5F5F5F5F5F5F5F5F5F5F5F5F5F5F5F5F5F5F5F5F5F5F5F5F5F5
310
F5F5F5F5F5F5F5F5F5F5F5F5F5F5F5F5F5F5F5F5F5F5F5F5F5F5F5F5F5F5F5F5F5E2F5F5E2E2E2F5F5E2F5F5F5F5F5F5F5F5F5F5F5F5F5F5F5F5F5F5F5F5F5F5F5F5F5F5F5F5F5F5F5F5F5F5F5F5F5F5F5F5F5F5F5F5F5F5F5F5F5F5F5F5F5F5F5F5F5F5F5F5F5F5F5F5F5F5F5F5F5F5F5F5F5F5F5F5F5F5F5F5F5F5F5F5F5
310
F5F5F5F5F5F5F5F5F5F5F5F5F5F5F5F5F5F5F5F5F5F5F5F5F5F5F5F5F5F5F5F5F5F5F5F5F5F5F5F5F5F5F5F5F5F5F5F5F5F5F5F5F5F5F5F5F5F5F5F5F5F5F5F5F5F5F5F5F5F5F5F5F5F5F5F5F5F5F5F5F5F5F5F5F5F5E2F5F5E2E2E2F5F5E2F5F5F5F5F5F5F5F5F5F5F5F5F5F5F5F5F5F5F5F5F5F5F5F5F5F5F5F5F5F5F5F5
310
F5F5F5F5F5F5F5F5F5F5F5F5F5F5F5F5F5F5F5F5F5F5F5F5F5F5F5F5F5F5F5F5F5F5F5F5F5F5F5F5F5F5F5F5F5F5F5F5F5F5F5F5F5F5F5F5F5F5F5F5F5F5F5F5F5F5F5F5F5F5F5F5F5F5F5F5F5F5F5F5F5F5F5F5F5F5F5F5F5F5F5F5F5F5F5F5F5F5F5F5F5F5F5F5F5F5F5F5F5F5F5F5F5F5F5F5F5F5F5F5F5F5F5F5F5F5F5
310
F5F5F5F5F5F5F5F5F5F5F5F5E2F5F5E2E2E2F5F5E2F5F5F5F5F5F5F5F5F5F5F5F5F5F5F5F5F5F5F5F5F5F5F5F5F5F5F5F5F5F5F5F5F5F5F5F5F5F5F5F5F5F5F5F5F5F5F5F5F5F5F5F5F5F5F5F5F5F5F5F5F5F5F5F5F5F5F5F5F5F5F5F5F5F5F5F5F5F5F5F5F5F5F5F5F5F5F5F5F5F5F5F5F5F5F5F5F5F5F5F5F5F5F5F5F5F5
310
F5F5F5F5F5F5F5F5F5F5F5F5F5F5F5F5F5F5F5F5F5F5F5F5F5F5F5F5F5F5F5F5F5F5F5F5F5F5F5F5F5F5F5F5F5F5F5F5F5F5F5F5F5F5F5F5F5F5F5F5F5F5F5F5F5E2F5F5E2E2E2F5F5E2F5F5F5F5F5F5F5F5F5F5F5F5F5F5F5F5F5F5F5F5F5F5F5F5F5F5F5F5F5F5F5F5F5F5F5F5F5F5F5F5F5F5F5F5F5F5F5F5F5F5F5F5F5
310
F5F5F5F5F5F5F5F5F5F5F5F5F5F5F5F5F5F5F5F5F5F5F5F5F5F5F5F5F5F5F5F5F5F5F5F5F5F5F5F5F5F5F5F5F5F5F5F5F5F5F5F5F5F5F5F5F5F5F5F5F5F5F5F5F5F5F5F5F5F5F5F5F5F5F5F5F5F5F5F5F5F5F5F5F5F5F5F5F5F5F5F5F5F5F5F5F5F5F5F5F5F5F5F5F5F5F5F5F5F5F5F5F5F5F5F5F5F5E2F5F5E2E2E2F5F5E2
310
F5F5F5F5F5F5F5F5F5F5F5F5F5F5F5F5F5F5F5F5F5F5F5F5F5F5F5F5F5F5F5F5F5F5F5F5F5F5F5F5F5F5F5F5F5F5F5F5F5F5F5F5F5F5F5F5F5F5F5F5F5F5F5F5F5F5F5F5F5F5F5F5F5F5F5F5F5F5F5F5F5F5F5F5F5F5F5F5F5F5F5F5F5F5F5F5F5F5F5F5F5F5F5F5F5F5F5F5F5F5F5F5F5F5F5F5F5F5F5F5F5F5F5F5F5F5F5
310
F5F5F5F5F5F5F5F5F5F5F5F5F5F5F5F5F5F5F5F5F5F5F5F5F5F5F5F5F5F5F5F5F5F5F5F5F5F5F5F5F5F5F5F5E2F5F5E2E2E2F5F5F5F5F5F5F5F5F5F5F5F5F5F5F5F5F5F5F5F5F5F5F5F5F5F5F5F5F5F5F5F5F5F5F5F5F5F5F5F5F5F5F5F5F5F5F5F5F5F5F5F5F5F5F5F5F5F5F5F5F5F5F5F5F5F5F5F5F5F5F5F5F5F5F5F5F5
310
F5F5F5F5F5F5F5F5F5F5F5F5F5F5F5F5F5F5F5F5F5F5F5F5F5F5F5F5F5F5F5F5F5F5F5F5F5F5F5F5F5F5F5F5F5F5F5F5F5F5F5F5F5F5F5F5F5F5F5F5F5F5F5F5F5F5F5F5F5F5F5F5F5F5F5F5F5F5F5F5F5F5F5F5F5F5F5F5F5F5F5F5F5F5F5F5F5F5F5F5E2E2E2F5F5F5F5F5F5F5F5F5F5F5F5F5F5F5F5F5F5F5F5F5F5F5F5
310
F5F5F5F5F5F5F5F5F5F5F5F5F5F5F5F5F5F5F5F5F5F5F5F5F5F5F5F5F5F5F5F5F5F5F5F5F5F5F5F5F5F5F5F5F5F5F5F5F5F5F5F5F5F5F5F5F5F5F5F5F5F5F5F5F5F5F5F5F5F5F5F5F5F5F5F5F5F5F5F5F5F5F5F5F5F5F5F5F5F5F5F5F5F5F5F5F5F5F5F5F5F5F5F5F5F5F5F5F5F5F5F5F5F5F5F5F5F5F5F5F5F5F5F5F5F5F5
310
F5F5F5F5F5F5F5F5F5F5F5F5F5F5F5F5F5F5F5F5F5F5F5F5F5F5E2E2E2F5F5F5F5F5F5F5F5F5F5F5F5F5F5F5F5F5F5F5F5F5F5F5F5F5F5F5F5F5F5F5F5F5F5F5F5F5F5F5F5F5F5F5F5F5F5F5F5F5F5F5F5F5F5F5F5F5F5F5F5F5F5F5F5F5F5F5F5F5F5F5F5F5F5F5F5F5F5F5F5F5F5F5F5F5F5F5F5F5F5F5F5F5F5F5F5F5F5
310
F5F5F5F5F5F5F5F5F5F5F5F5F5F5F5F5F5F5F5F5F5F5F5F5F5F5F5F5F5F5F5F5F5F5F5F5F5F5F5F5F5F5F5F5F5F5F5F5F5F5F5F5F5F5F5F5F5F5F5F5F5F5F5F5F5F5F5F5F5F5F5F5F5F5F5F5F5F5F5E2E2E2F5F5F5F5F5F5F5F5F5F5F5F5F5F5F5F5F5F5F5F5F5F5F5F5F5F5F5F5F5F5F5F5F5F5F5F5F5F5F5F5F5F5F5F5F5
310
F5F5F5F5F5F5F5F5F5F5F5F5F5F5F5F5F5F5F5F5F5F5F5F5F5F5F5F5F5F5F5F5F5F5F5F5F5F5F5F5F5F5F5F5F5F5F5F5F5F5F5F5F5F5F5F5F5F5F5F5F5F5F5F5F5F5F5F5F5F5F5F5F5F5F5F5F5F5F5F5F5F5F5F5F5F5F5F5F5F5F5F5F5F5F5F5F5F5F5F5F5F5F5F5F5F5F5F5F5F5F5F5F5F5F5F5F5F5F5F5F5F5F5F5F5F5F5
310
F5F5F5F5F5E2E2E2F5F5F5F5F5F5F5F5F5F5F5F5F5F5F5F5F5F5F5F5F5F5F5F5F5F5F5F5F5F5F5F5F5F5F5F5F5F5F5F5F5F5F5F5F5F5F5F5F5F5F5F5F5F5F5F5F5F5F5F5F5F5F5F5F5F5F5F5F5F5F5F5F5F5F5F5F5F5F5F5F5F5F5F5F5F5F5F5F5F5F5F5F5F5F5F5F5F5F5F5F5F5F5F5F5F5F5F5F5F5F5F5F5F5F5F5F5F5F5
310
F5F5F5F5F5F5F5F5F5F5F5F5F5F5F5F5F5F5F5F5F5F5F5F5F5F5F5F5F5F5F5F5F5F5F5F5F5F5F5F5F5F5F5F5F5F5F5F5F5F5F5F5F5F5F5F5F5F5E2E2E2F5F5F5F5F5F5F5F5F5F5F5F5F5F5F5F5F5F5F5F5F5F5F5F5F5F5F5F5F5F5F5F5F5F5F5F5F5F5F5F5F5F5F5F5F5F5F5F5F5F5F5F5F5F5F5F5F5F5F5F5F5F5F5F5F5F5
310
F5F5F5F5F5F5F5F5F5F5F5F5F5F5F5F5F5F5F5F5F5F5F5F5F5F5F5F5F5F5F5F5F5F5F5F5F5F5F5F5F5F5F5F5F5F5F5F5F5F5F5F5F5F5F5F5F5F5F5F5F5F5F5F5F5F5F5F5F5F5F5F5F5F5F5F5F5F5F5F5F5F5F5F5F5F5F5F5F5F5F5F5F5F5F5F5F5F5F5F5F5F5F5F5F5F5F5F5F5F5F5E2E2E2F5F5F5F5F5F5F5F5F5F5F5F5F5
310
F5F5F5F5F5F5F5F5F5F5F5F5F5F5F5F5F5F5F5F5F5F5F5F5F5F5F5F5F5F5F5F5F5F5F5F5F5F5F5F5F5F5F5F5F5F5F5F5F5F5F5F5F5F5F5F5F5F5F5F5F5F5F5F5F5F5F5F5F5F5F5F5F5F5F5F5F5F5F5F5F5F5F5F5F5F5F5F5F5F5F5F5F5F5F5F5F5F5F5F5F5F5F5F5F5F5F5F5F5F5F5F5F5F5F5F5F5F5F5F5F5F5F5F5F5F5F5
310
F5F5F5F5F5F5F5F5F5F5F5F5F5F5F5F5F5F5F5F5F5F5F5F5F5F5F5F5F5F5F5F5F5F5F5F5F5E2E2E2F5F5F5F5F5F5F5F5F5F5F5F5F5F5F5F5F5F5F5F5F5F5F5F5F5F5F5F5F5F5F5F5F5F5F5F5F5F5F5F5F5F5F5F5F5F5F5F5F5F5F5F5F5F5F5F5F5F5F5F5F5F5F5F5F5F5F5F5F5F5F5F5F5F5F5F5F5F5F5F5F5F5F5F5F5F5F5
310
F5F5F5F5F5F5F5F5F5F5F5F5F5F5F5F5F5F5F5F5F5F5F5F5F5F5F5F5F5F5F5F5F5F5F5F5F5F5F5F5F5F5F5F5F5F5F5F5F5F5F5F5F5F5F5F5F5F5F5F5F5F5F5F5F5F5F5F5F5F5F5F5F5F5F5F5F5F5F5F5F5F5F5F5F5F5F5F5F5F5E2E2E2F5F5F5F5F5F5F5F5F5F5F5F5F5F5F5F5F5F5F5F5F5F5F5F5F5F5F5F5F5F5F5F5F5F5
310
F5F5F5F5F5F5F5F5F5F5F5F5F5F5F5F5F5F5F5F5F5F5F5F5F5F5F5F5F5F5F5F5F5F5F5F5F5F5F5F5F5F5F5F5F5F5F5F5F5F5F5F5F5F5F5F5F5F5F5F5F5F5F5F5F5F5F5F5F5F5F5F5F5F5F5F5F5F5F5F5F5F5F5F5F5F5F5F5F5F5F5F5F5F5F5F5F5F5F5F5F5F5F5F5F5F5F5F5F5F5F5F5F5F5F5F5F5F5F5F5F5F5F5F5F5F5F5
310
F5F5F5F5F5F5F5F5F5F5F5F5F5F5F5F5E2E2E2F5F5E2F5F5F5F5F5F5F5F5F5F5F5F5F5F5F5F5F5F5F5F5F5F5F5F5F5F5F5F5F5F5F5F5F5F5F5F5F5F5F5F5F5F5F5F5F5F5F5F5F5F5F5F5F5F5F5F5F5F5F5F5F5F5F5F5F5F5F5F5F5F5F5F5F5F5F5F5F5F5F5F5F5F5F5F5F5F5F5F5F5F5F5F5F5F5F5F5F5F5F5F5F5F5F5F5F5
310
F5F5F5F5F5F5F5F5F5F5F5F5F5F5F5F5F5F5F5F5F5F5F5F5F5F5F5F5F5F5F5F5F5F5F5F5F5F5F5F5F5F5F5F5F5F5F5F5F5F5F5F5F5F5F5F5F5F5F5F5F5F5F5F5F5F5E2F5F5E2E2E2F5F5E2F5F5F5F5F5F5F5F5F5F5F5F5F5F5F5F5F5F5F5F5F5F5F5F5F5F5F5F5F5F5F5F5F5F5F5F5F5F5F5F5F5F5F5F5F5F5F5F5F5F5F5F5
310
F5F5F5F5F5F5F5F5F5F5F5F5F5F5F5F5F5F5F5F5F5F5F5F5F5F5F5F5F5F5F5F5F5F5F5F5F5F5F5F5F5F5F5F5F5F5F5F5F5F5F5F5F5F5F5F5F5F5F5F5F5F5F5F5F5F5F5F5F5F5F5F5F5F5F5F5F5F5F5F5F5F5F5F5F5F5F5F5F5F5F5F5F5F5F5F5F5F5F5F5F5F5F5F5F5F5F5F5F5F5F5F5F5F5F5F5F5F5F5E2F5F5E2E2E2F5F5
310
E2F5F5F5F5F5F5F5F5F5F5F5F5F5F5F5F5F5F5F5F5F5F5F5F5F5F5F5F5F5F5F5F5F5F5F5F5F5F5F5F5F5F5F5F5F5F5F5F5F5F5F5F5F5F5F5F5F5F5F5F5F5F5F5F5F5F5F5F5F5F5F5F5F5F5F5F5F5F5F5F5F5F5F5F5F5F5F5F5F5F5F5F5F5F5F5F5F5F5F5F5F5F5F5F5F5F5F5F5F5F5F5F5F5F5F5F5F5F5F5F5F5F5F5F5F5F5
310
F5F5F5F5F5F5F5F5F5F5F5F5F5F5F5F5F5F5F5F5F5F5F5F5F5F5F5F5F5F5F5F5F5F5F5F5F5F5F5F5F5F5F5F5F5E2F5F5E2E2E2F5F5E2F5F5F5F5F5F5F5F5F5F5F5F5F5F5F5F5F5F5F5F5F5F5F5F5F5F5F5F5F5F5F5F5F5F5F5F5F5F5F5F5F5F5F5F5F5F5F5F5F5F5F5F5F5F5F5F5F5F5F5F5F5F5F5F5F5F5F5F5F5F5F5F5F5
310
F5F5F5F5F5F5F5F5F5F5F5F5F5F5F5F5F5F5F5F5F5F5F5F5F5F5F5F5F5F5F5F5F5F5F5F5F5F5F5F5F5F5F5F5F5F5F5F5F5F5F5F5F5F5F5F5F5F5F5F5F5F5F5F5F5F5F5F5F5F5F5F5F5F5F5F5F5F5F5F5F5F5F5F5F5F5F5F5F5F5F5F5F5F5F5F5F5F5E2F5F5E2E2E2F5F5E2F5F5F5F5F5F5F5F5F5F5F5F5F5F5F5F5F5F5F5F5
310
F5F5F5F5F5F5F5F5F5F5F5F5F5F5F5F5F5F5F5F5F5F5F5F5F5F5F5F5F5F5F5F5F5F5F5F5F5F5F5F5F5F5F5F5F5F5F5F5F5F5F5F5F5F5F5F5F5F5F5F5F5F5F5F5F5F5F5F5F5F5F5F5F5F5F5F5F5F5F5F5F5F5F5F5F5F5F5F5F5F5F5F5F5F5F5F5F5F5F5F5F5F5F5F5F5F5F5F5F5F5F5F5F5F5F5F5F5F5F5F5F5F5F5F5F5F5F5
310
F5F5F5F5F5F5F5F5F5F5F5F5F5F5F5F5F5F5F5F5F5F5F5F5E2F5F5E2E2E2F5F5E2F5F5F5F5F5F5F5F5F5F5F5F5F5F5F5F5F5F5F5F5F5F5F5F5F5F5F5F5F5F5F5F5F5F5F5F5F5F5F5F5F5F5F5F5F5F5F5F5F5F5F5F5F5F5F5F5F5F5F5F5F5F5F5F5F5F5F5F5F5F5F5F5F5F5F5F5F5F5F5F5F5F5F5F5F5F5F5F5F5F5F5F5F5F5
310
F5F5F5F5F5F5F5F5F5F5F5F5F5F5F5F5F5F5F5F5F5F5F5F5F5F5F5F5F5F5F5F5F5F5F5F5F5F5F5F5F5F5F5F5F5F5F5F5F5F5F5F5F5F5F5F5F5F5F5F5F5F5F5F5F5F5F5F5F5F5F5F5F5F5F5F5F5E2F5F5E2E2E2F5F5E2F5F5F5F5F5F5F5F5F5F5F5F5F5F5F5F5F5F5F5F5F5F5F5F5F5F5F5F5F5F5F5F5F5F5F5F5F5F5F5F5F5
310
F5F5F5F5F5F5F5F5F5F5F5F5F5F5F5F5F5F5F5F5F5F5F5F5F5F5F5F5F5F5F5F5F5F5F5F5F5F5F5F5F5F5F5F5F5F5F5F5F5F5F5F5F5F5F5F5F5F5F5F5F5F5F5F5F5F5F5F5F5F5F5F5F5F5F5F5F5F5F5F5F5F5F5F5F5F5F5F5F5F5F5F5F5F5F5F5F5F5F5F5F5F5F5F5F5F5F5F5F5F5F5F5F5F5F5F5F5F5F5F5F5F5F5F5F5F5F5
310
F5F5F5E2F5F5E2E2E2F5F5E2F5F5F5F5F5F5F5F5F5F5F5F5F5F5F5F5F5F5F5F5F5F5F5F5F5F5F5F5F5F5F5F5F5F5F5F5F5F5F5F5F5F5F5F5F5F5F5F5F5F5F5F5F5F5F5F5F5F5F5F5F5F5F5F5F5F5F5F5F5F5F5F5F5F5F5F5F5F5F5F5F5F5F5F5F5F5F5F5F5F5F5F5F5F5F5F5F5F5F5F5F5F5F5F5F5F5F5F5F5F5F5F5F5F5F5
310
F5F5F5F5F5F5F5F5F5F5F5F5F5F5F5F5F5F5F5F5F5F5F5F5F5F5F5F5F5F5F5F5F5F5F5F5F5F5F5F5F5F5F5F5F5F5F5F5F5F5F5F5F5F5F5F5E2F5F5E2E2E2F5F5E2F5F5F5F5F5F5F5F5F5F5F5F5F5F5F5F5F5F5F5F5F5F5F5F5F5F5F5F5F5F5F5F5F5F5F5F5F5F5F5F5F5F5F5F5F5F5F5F5F5F5F5F5F5F5F5F5F5F5F5F5F5F5
310
F5F5F5F5F5F5F5F5F5F5F5F5F5F5F5F5F5F5F5F5F5F5F5F5F5F5F5F5F5F5F5F5F5F5F5F5F5F5F5F5F5F5F5F5F5F5F5F5F5F5F5F5F5F5F5F5F5F5F5F5F5F5F5F5F5F5F5F5F5F5F5F5F5F5F5F5F5F5F5F5F5F5F5F5F5F5F5F5F5F5F5F5F5F5F5F5F5F5F5F5F5F5F5F5F5F5F5F5F5E2F5F5E2E2E2F5F5E2F5F5F5F5F5F5F5F5F5
310
F5F5F5F5F5F5F5F5F5F5F5F5F5F5F5F5F5F5F5F5F5F5F5F5F5F5F5F5F5F5F5F5F5F5F5F5F5F5F5F5F5F5F5F5F5F5F5F5F5F5F5F5F5F5F5F5F5F5F5F5F5F5F5F5F5F5F5F5F5F5F5F5F5F5F5F5F5F5F5F5F5F5F5F5F5F5F5F5F5F5F5F5F5F5F5F5F5F5F5F5F5F5F5F5F5F5F5F5F5F5F5F5F5F5F5F5F5F5F5F5F5F5F5F5F5F5F5
310
F5F5F5F5F5F5F5F5F5F5F5F5F5F5F5F5F5F5F5F5F5F5F5F5F5F5F5F5F5F5F5F5F5F5F5E2F5F5E2E2E2F5F5E2F5F5F5F5F5F5F5F5F5F5F5F5F5F5F5F5F5F5F5F5F5F5F5F5F5F5F5F5F5F5F5F5F5F5F5F5F5F5F5F5F5F5F5F5F5F5F5F5F5F5F5F5F5F5F5F5F5F5F5F5F5F5F5F5F5F5F5F5F5F5F5F5F5F5F5F5F5F5F5F5F5F5F5
310
F5F5F5F5F5F5F5F5F5F5F5F5F5F5F5F5F5F5F5F5F5F5F5F5F5F5F5F5F5F5F5F5F5F5F5F5F5F5F5F5F5F5F5F5F5F5F5F5F5F5F5F5F5F5F5F5F5F5F5F5F5F5F5F5F5F5F5F5F5F5F5F5F5F5F5F5F5F5F5F5F5F5F5F5F5F5F5F5E2F5F5E2E2E2F5F5E2F5F5F5F5F5F5F5F5F5F5F5F5F5F5F5F5F5F5F5F5F5F5F5F5F5F5F5F5F5F5
310
F5F5F5F5F5F5F5F5F5F5F5F5F5F5F5F5F5F5F5F5F5F5F5F5F5F5F5F5F5F5F5F5F5F5F5F5F5F5F5F5F5F5F5F5F5F5F5F5F5F5F5F5F5F5F5F5F5F5F5F5F5F5F5F5F5F5F5F5F5F5F5F5F5F5F5F5F5F5F5F5F5F5F5F5F5F5F5F5F5F5F5F5F5F5F5F5F5F5F5F5F5F5F5F5F5F5F5F5F5F5F5F5F5F5F5F5F5F5F5F5F5F5F5F5F5F5F5
310
F5F5F5F5F5F5F5F5F5F5F5F5F5F5E2F5F5E2E2E2F5F5E2F5F5F5F5F5F5F5F5F5F5F5F5F5F5F5F5F5F5F5F5F5F5F5F5F5F5F5F5F5F5F5F5F5F5F5F5F5F5F5F5F5F5F5F5F5F5F5F5F5F5F5F5F5F5F5F5F5F5F5F5F5F5F5F5F5F5F5F5F5F5F5F5F5F5F5F5F5F5F5F5F5F5F5F5F5F5F5F5F5F5F5F5F5F5F5F5F5F5F5F5F5F5F5F5
310
F5F5F5F5F5F5F5F5F5F5F5F5F5F5F5F5F5F5F5F5F5F5F5F5F5F5F5F5F5F5F5F5F5F5F5F5F5F5F5F5F5F5F5F5F5F5F5F5F5F5F5F5F5F5F5F5F5F5F5F5F5F5F5F5F5F5F5E2F5F5E2E2E2F5F5E2F5F5F5F5F5F5F5F5F5F5F5F5F5F5F5F5F5F5F5F5F5F5F5F5F5F5F5F5F5F5F5F5F5F5F5F5F5F5F5F5F5F5F5F5F5F5F5F5F5F5F5
310
F5F5F5F5F5F5F5F5F5F5F5F5F5F5F5F5F5F5F5F5F5F5F5F5F5F5F5F5F5F5F5F5F5F5F5F5F5F5F5F5F5F5F5F5F5F5F5F5F5F5F5F5F5F5F5F5F5F5F5F5F5F5F5F5F5F5F5F5F5F5F5F5F5F5F5F5F5F5F5F5F5F5F5F5F5F5F5F5F5F5F5F5F5F5F5F5F5F5F5F5F5F5F5F5F5F5F5F5F5F5F5F5F5F5F5F5F5F5F5F5E2F5F5E2E2E2F5
310
F5E2F5F5F5F5F5F5F5F5F5F5F5F5F5F5F5F5F5F5F5F5F5F5F5F5F5F5F5F5F5F5F5F5F5F5F5F5F5F5F5F5F5F5F5F5F5F5F5F5F5F5F5F5F5F5F5F5F5F5F5F5F5F5F5F5F5F5F5F5F5F5F5F5F5F5F5F5F5F5F5F5F5F5F5F5F5F5F5F5F5F5F5F5F5F5F5F5F5F5F5F5F5F5F5F5F5F5F5F5F5F5F5F5F5F5F5F5F5F5F5F5F5F5F5F5F5
310
F5F5F5F5F5F5F5F5F5F5F5F5F5F5F5F5F5F5F5F5F5F5F5F5F5F5F5F5F5F5F5F5F5F5F5F5F5F5F5F5F5F5F5F5F5F5E2F5F5E2E2E2F5F5F5F5F5F5F5F5F5F5F5F5F5F5F5F5F5F5F5F5F5F5F5F5F5F5F5F5F5F5F5F5F5F5F5F5F5F5F5F5F5F5F5F5F5F5F5F5F5F5F5F5F5F5F5F5F5F5F5F5F5F5F5F5F5F5F5F5F5F5F5F5F5F5F5
310
F5F5F5F5F5F5F5F5F5F5F5F5F5F5F5F5F5F5F5F5F5F5F5F5F5F5F5F5F5F5F5F5F5F5F5F5F5F5F5F5F5F5F5F5F5F5F5F5F5F5F5F5F5F5F5F5F5F5F5F5F5F5F5F5F5F5F5F5F5F5F5F5F5F5F5F5F5F5F5F5F5F5F5F5F5F5F5F5F5F5F5F5F5F5F5F5F5F5F5F5F5F5E2E2E2F5F5F5F5F5F5F5F5F5F5F5F5F5F5F5F5F5F5F5F5F5F5
310
F5F5F5F5F5F5F5F5F5F5F5F5F5F5F5F5F5F5F5F5F5F5F5F5F5F5F5F5F5F5F5F5F5F5F5F5F5F5F5F5F5F5F5F5F5F5F5F5F5F5F5F5F5F5F5F5F5F5F5F5F5F5F5F5F5F5F5F5F5F5F5F5F5F5F5F5F5F5F5F5F5F5F5F5F5F5F5F5F5F5F5F5F5F5F5F5F5F5F5F5F5F5F5F5F5F5F5F5F5F5F5F5F5F5F5F5F5F5F5F5F5F5F5F5F5F5F5
310
F5F5F5F5F5F5F5F5F5F5F5F5F5F5F5F5F5F5F5F5F5F5F5F5F5F5F5F5E2E2E2F5F5F5F5F5F5F5F5F5F5F5F5F5F5F5F5F5F5F5F5F5F5F5F5F5F5F5F5F5F5F5F5F5F5F5F5F5F5F5F5F5F5F5F5F5F5F5F5F5F5F5F5F5F5F5F5F5F5F5F5F5F5F5F5F5F5F5F5F5F5F5F5F5F5F5F5F5F5F5F5F5F5F5F5F5F5F5F5F5F5F5F5F5F5F5F5
310
F5F5F5F5F5F5F5F5F5F5F5F5F5F5F5F5F5F5F5F5F5F5F5F5F5F5F5F5F5F5F5F5F5F5F5F5F5F5F5F5F5F5F5F5F5F5F5F5F5F5F5F5F5F5F5F5F5F5F5F5F5F5F5F5F5F5F5F5F5F5F5F5F5F5F5F5F5F5F5F5F5E2E2E2F5F5F5F5F5F5F5F5F5F5F5F5F5F5F5F5F5F5F5F5F5F5F5F5F5F5F5F5F5F5F5F5F5F5F5F5F5F5F5F5F5F5F5
310
F5F5F5F5F5F5F5F5F5F5F5F5F5F5F5F5F5F5F5F5F5F5F5F5F5F5F5F5F5F5F5F5F5F5F5F5F5F5F5F5F5F5F5F5F5F5F5F5F5F5F5F5F5F5F5F5F5F5F5F5F5F5F5F5F5F5F5F5F5F5F5F5F5F5F5F5F5F5F5F5F5F5F5F5F5F5F5F5F5F5F5F5F5F5F5F5F5F5F5F5F5F5F5F5F5F5F5F5F5F5F5F5F5F5F5F5F5F5F5F5F5F5F5F5F5F5F5
310
F5F5F5F5F5F5F5E2E2E2F5F5F5F5F5F5F5F5F5F5F5F5F5F5F5F5F5F5F5F5F5F5F5F5F5F5F5F5F5F5F5F5F5F5F5F5F5F5F5F5F5F5F5F5F5F5F5F5F5F5F5F5F5F5F5F5F5F5F5F5F5F5F5F5F5F5F5F5F5F5F5F5F5F5F5F5F5F5F5F5F5F5F5F5F5F5F5F5F5F5F5F5F5F5F5F5F5F5F5F5F5F5F5F5F5F5F5F5F5F5F5F5F5F5F5F5F5
310
F5F5F5F5F5F5F5F5F5F5F5F5F5F5F5F5F5F5F5F5F5F5F5F5F5F5F5F5F5F5F5F5F5F5F5F5F5F5F5F5F5F5F5F5F5F5F5F5F5F5F5F5F5F5F5F5F5F5F5F5E2E2E2F5F5F5F5F5F5F5F5F5F5F5F5F5F5F5F5F5F5F5F5F5F5F5F5F5F5F5F5F5F5F5F5F5F5F5F5F5F5F5F5F5F5F5F5F5F5F5F5F5F5F5F5F5F5F5F5F5F5F5F5F5F5F5F5
310
F5F5F5F5F5F5F5F5F5F5F5F5F5F5F5F5F5F5F5F5F5F5F5F5F5F5F5F5F5F5F5F5F5F5F5F5F5F5F5F5F5F5F5F5F5F5F5F5F5F5F5F5F5F5F5F5F5F5F5F5F5F5F5F5F5F5F5F5F5F5F5F5F5F5F5F5F5F5F5F5F5F5F5F5F5F5F5F5F5F5F5F5F5F5F5F5F5F5F5F5F5F5F5F5F5F5F5F5F5F5F5F5F5E2E2E2F5F5F5F5F5F5F5F5F5F5F5
310
F5F5F5F5F5F5F5F5F5F5F5F5F5F5F5F5F5F5F5F5F5F5F5F5F5F5F5F5F5F5F5F5F5F5F5F5F5F5F5F5F5F5F5F5F5F5F5F5F5F5F5F5F5F5F5F5F5F5F5F5F5F5F5F5F5F5F5F5F5F5F5F5F5F5F5F5F5F5F5F5F5F5F5F5F5F5F5F5F5F5F5F5F5F5F5F5F5F5F5F5F5F5F5F5F5F5F5F5F5F5F5F5F5F5F5F5F5F5F5F5F5F5F5F5F5F5F5
310
F5F5F5F5F5F5F5F5F5F5F5F5F5F5F5F5F5F5F5F5F5F5F5F5F5F5F5F5F5F5F5F5F5F5F5F5F5F5F5E2E2E2F5F5F5F5F5F5F5F5F5F5F5F5F5F5F5F5F5F5F5F5F5F5F5F5F5F5F5F5F5F5F5F5F5F5F5F5F5F5F5F5F5F5F5F5F5F5F5F5F5F5F5F5F5F5F5F5F5F5F5F5F5F5F5F5F5F5F5F5F5F5F5F5F5F5F5F5F5F5F5F5F5F5F5F5F5
310
F5F5F5F5F5F5F5F5F5F5F5F5F5F5F5F5F5F5F5F5F5F5F5F5F5F5F5F5F5F5F5F5F5F5F5F5F5F5F5F5F5F5F5F5F5F5F5F5F5F5F5F5F5F5F5F5F5F5F5F5F5F5F5F5F5F5F5F5F5F5F5F5F5F5F5F5F5F5F5F5F5F5F5F5F5F5F5F5F5F5F5F5E2E2E2F5F5E2F5F5F5F5F5F5F5F5F5F5F5F5F5F5F5F5F5F5F5F5F5F5F5F5F5F5F5F5F5
310
F5F5F5F5F5F5F5F5F5F5F5F5F5F5F5F5F5F5F5F5F5F5F5F5F5F5F5F5F5F5F5F5F5F5F5F5F5F5F5F5F5F5F5F5F5F5F5F5F5F5F5F5F5F5F5F5F5F5F5F5F5F5F5F5F5F5F5F5F5F5F5F5F5F5F5F5F5F5F5F5F5F5F5F5F5F5F5F5F5F5F5F5F5F5F5F5F5F5F5F5F5F5F5F5F5F5F5F5F5F5F5F5F5F5F5F5F5F5F5F5F5F5F5F5F5F5F5
310
F5F5F5F5F5F5F5F5F5F5F5F5F5F5F5E2F5F5E2E2E2F5F5E2F5F5F5F5F5F5F5F5F5F5F5F5F5F5F5F5F5F5F5F5F5F5F5F5F5F5F5F5F5F5F5F5F5F5F5F5F5F5F5F5F5F5F5F5F5F5F5F5F5F5F5F5F5F5F5F5F5F5F5F5F5F5F5F5F5F5F5F5F5F5F5F5F5F5F5F5F5F5F5F5F5F5F5F5F5F5F5F5F5F5F5F5F5F5F5F5F5F5F5F5F5F5F5
310
F5F5F5F5F5F5F5F5F5F5F5F5F5F5F5F5F5F5F5F5F5F5F5F5F5F5F5F5F5F5F5F5F5F5F5F5F5F5F5F5F5F5F5F5F5F5F5F5F5F5F5F5F5F5F5F5F5F5F5F5F5F5F5F5F5F5F5F5E2F5F5E2E2E2F5F5E2F5F5F5F5F5F5F5F5F5F5F5F5F5F5F5F5F5F5F5F5F5F5F5F5F5F5F5F5F5F5F5F5F5F5F5F5F5F5F5F5F5F5F5F5F5F5F5F5F5F5
310
F5F5F5F5F5F5F5F5F5F5F5F5F5F5F5F5F5F5F5F5F5F5F5F5F5F5F5F5F5F5F5F5F5F5F5F5F5F5F5F5F5F5F5F5F5F5F5F5F5F5F5F5F5F5F5F5F5F5F5F5F5F5F5F5F5F5F5F5F5F5F5F5F5F5F5F5F5F5F5F5F5F5F5F5F5F5F5F5F5F5F5F5F5F5F5F5F5F5F5F5F5F5F5F5F5F5F5F5F5F5F5F5F5F5F5F5F5F5F5F5F5E2F5F5E2E2E2
310
F5F5E2F5F5F5F5F5F5F5F5F5F5F5F5F5F5F5F5F5F5F5F5F5F5F5F5F5F5F5F5F5F5F5F5F5F5F5F5F5F5F5F5F5F5F5F5F5F5F5F5F5F5F5F5F5F5F5F5F5F5F5F5F5F5F5F5F5F5F5F5F5F5F5F5F5F5F5F5F5F5F5F5F5F5F5F5F5F5F5F5F5F5F5F5F5F5F5F5F5F5F5F5F5F5F5F5F5F5F5F5F5F5F5F5F5F5F5F5F5F5F5F5F5F5F5F5
310
F5F5F5F5F5F5F5F5F5F5F5F5F5F5F5F5F5F5F5F5F5F5F5F5F5F5F5F5F5F5F5F5F5F5F5F5F5F5F5F5F5F5F5F5F5F5F5E2F5F5E2E2E2F5F5E2F5F5F5F5F5F5F5F5F5F5F5F5F5F5F5F5F5F5F5F5F5F5F5F5F5F5F5F5F5F5F5F5F5F5F5F5F5F5F5F5F5F5F5F5F5F5F5F5F5F5F5F5F5F5F5F5F5F5F5F5F5F5F5F5F5F5F5F5F5F5F5
310
F5F5F5F5F5F5F5F5F5F5F5F5F5F5F5F5F5F5F5F5F5F5F5F5F5F5F5F5F5F5F5F5F5F5F5F5F5F5F5F5F5F5F5F5F5F5F5F5F5F5F5F5F5F5F5F5F5F5F5F5F5F5F5F5F5F5F5F5F5F5F5F5F5F5F5F5F5F5F5F5F5F5F5F5F5F5F5F5F5F5F5F5F5F5F5F5F5F5F5F5E2F5F5E2E2E2F5F5E2F5F5F5F5F5F5F5F5F5F5F5F5F5F5F5F5F5F5
310
F5F5F5F5F5F5F5F5F5F5F5F5F5F5F5F5F5F5F5F5F5F5F5F5F5F5F5F5F5F5F5F5F5F5F5F5F5F5F5F5F5F5F5F5F5F5F5F5F5F5F5F5F5F5F5F5F5F5F5F5F5F5F5F5F5F5F5F5F5F5F5F5F5F5F5F5F5F5F5F5F5F5F5F5F5F5F5F5F5F5F5F5F5F5F5F5F5F5F5F5F5F5F5F5F5F5F5F5F5F5F5F5F5F5F5F5F5F5F5F5F5F5F5F5F5F5F5
310
F5F5F5F5F5F5F5F5F5F5F5F5F5F5F5F5F5F5F5F5F5F5F5F5F5F5E2F5F5E2E2E2F5F5E2F5F5F5F5F5F5F5F5F5F5F5F5F5F5F5F5F5F5F5F5F5F5F5F5F5F5F5F5F5F5F5F5F5F5F5F5F5F5F5F5F5F5F5F5F5F5F5F5F5F5F5F5F5F5F5F5F5F5F5F5F5F5F5F5F5F5F5F5F5F5F5F5F5F5F5F5F5F5F5F5F5F5F5F5F5F5F5F5F5F5F5F5
310
F5F5F5F5F5F5F5F5F5F5F5F5F5F5F5F5F5F5F5F5F5F5F5F5F5F5F5F5F5F5F5F5F5F5F5F5F5F5F5F5F5F5F5F5F5F5F5F5F5F5F5F5F5F5F5F5F5F5F5F5F5F5F5F5F5F5F5F5F5F5F5F5F5F5F5F5F5F5F5E2F5F5E2E2E2F5F5E2F5F5F5F5F5F5F5F5F5F5F5F5F5F5F5F5F5F5F5F5F5F5F5F5F5F5F5F5F5F5F5F5F5F5F5F5F5F5F5
310
F5F5F5F5F5F5F5F5F5F5F5F5F5F5F5F5F5F5F5F5F5F5F5F5F5F5F5F5F5F5F5F5F5F5F5F5F5F5F5F5F5F5F5F5F5F5F5F5F5F5F5F5F5F5F5F5F5F5F5F5F5F5F5F5F5F5F5F5F5F5F5F5F5F5F5F5F5F5F5F5F5F5F5F5F5F5F5F5F5F5F5F5F5F5F5F5F5F5F5F5F5F5F5F5F5F5F5F5F5F5F5F5F5F5F5F5F5F5F5F5F5F5F5F5F5F5F5
310
F5F5F5F5F5E2F5F5E2E2E2F5F5E2F5F5F5F5F5F5F5F5F5F5F5F5F5F5F5F5F5F5F5F5F5F5F5F5F5F5F5F5F5F5F5F5F5F5F5F5F5F5F5F5F5F5F5F5F5F5F5F5F5F5F5F5F5F5F5F5F5F5F5F5F5F5F5F5F5F5F5F5F5F5F5F5F5F5F5F5F5F5F5F5F5F5F5F5F5F5F5F5F5F5F5F5F5F5F5F5F5F5F5F5F5F5F5F5F5F5F5F5F5F5F5F5F5
310
F5F5F5F5F5F5F5F5F5F5F5F5F5F5F5F5F5F5F5F5F5F5F5F5F5F5F5F5F5F5F5F5F5F5F5F5F5F5F5F5F5F5F5F5F5F5F5F5F5F5F5F5F5F5F5F5F5F5E2F5F5E2E2E2F5F5E2F5F5F5F5F5F5F5F5F5F5F5F5F5F5F5F5F5F5F5F5F5F5F5F5F5F5F5F5F5F5F5F5F5F5F5F5F5F5F5F5F5F5F5F5F5F5F5F5F5F5F5F5F5F5F5F5F5F5F5F5
310
F5F5F5F5F5F5F5F5F5F5F5F5F5F5F5F5F5F5F5F5F5F5F5F5F5F5F5F5F5F5F5F5F5F5F5F5F5F5F5F5F5F5F5F5F5F5F5F5F5F5F5F5F5F5F5F5F5F5F5F5F5F5F5F5F5F5F5F5F5F5F5F5F5F5F5F5F5F5F5F5F5F5F5F5F5F5F5F5F5F5F5F5F5F5F5F5F5F5F5F5F5F5F5F5F5F5F5F5F5F5F5E2F5F5E2E2E2F5F5E2F5F5F5F5F5F5F5
310
F5F5F5F5F5F5F5F5F5F5F5F5F5F5F5F5F5F5F5F5F5F5F5F5F5F5F5F5F5F5F5F5F5F5F5F5F5F5F5F5F5F5F5F5F5F5F5F5F5F5F5F5F5F5F5F5F5F5F5F5F5F5F5F5F5F5F5F5F5F5F5F5F5F5F5F5F5F5F5F5F5F5F5F5F5F5F5F5F5F5F5F5F5F5F5F5F5F5F5F5F5F5F5F5F5F5F5F5F5F5F5F5F5F5F5F5F5F5F5F5F5F5F5F5F5F5F5
310
F5F5F5F5F5F5F5F5F5F5F5F5F5F5F5F5F5F5F5F5F5F5F5F5F5F5F5F5F5F5F5F5F5F5F5F5F5E2F5F5E2E2E2F5F5E2F5F5F5F5F5F5F5F5F5F5F5F5F5F5F5F5F5F5F5F5F5F5F5F5F5F5F5F5F5F5F5F5F5F5F5F5F5F5F5F5F5F5F5F5F5F5F5F5F5F5F5F5F5F5F5F5F5F5F5F5F5F5F5F5F5F5F5F5F5F5F5F5F5F5F5F5F5F5F5F5F5
310
F5F5F5F5F5F5F5F5F5F5F5F5F5F5F5F5F5F5F5F5F5F5F5F5F5F5F5F5F5F5F5F5F5F5F5F5F5F5F5F5F5F5F5F5F5F5F5F5F5F5F5F5F5F5F5F5F5F5F5F5F5F5F5F5F5F5F5F5F5F5F5F5F5F5F5F5F5F5F5F5F5F5F5F5F5F5F5F5F5F5E2F5F5E2E2E2F5F5E2F5F5F5F5F5F5F5F5F5F5F5F5F5F5F5F5F5F5F5F5F5F5F5F5F5F5F5F5
310
F5F5F5F5F5F5F5F5F5F5F5F5F5F5F5F5F5F5F5F5F5F5F5F5F5F5F5F5F5F5F5F5F5F5F5F5F5F5F5F5F5F5F5F5F5F5F5F5F5F5F5F5F5F5F5F5F5F5F5F5F5F5F5F5F5F5F5F5F5F5F5F5F5F5F5F5F5F5F5F5F5F5F5F5F5F5F5F5F5F5F5F5F5F5F5F5F5F5F5F5F5F5F5F5F5F5F5F5F5F5F5F5F5F5F5F5F5F5F5F5F5F5F5F5F5F5F5
310
F5F5F5F5F5F5F5F5F5F5F5F5F5F5F5F5E2F5F5E2E2E2F5F5E2F5F5F5F5F5F5F5F5F5F5F5F5F5F5F5F5F5F5F5F5F5F5F5F5F5F5F5F5F5F5F5F5F5F5F5F5F5F5F5F5F5F5F5F5F5F5F5F5F5F5F5F5F5F5F5F5F5F5F5F5F5F5F5F5F5F5F5F5F5F5F5F5F5F5F5F5F5F5F5F5F5F5F5F5F5F5F5F5F5F5F5F5F5F5F5F5F5F5F5F5F5F5
310
F5F5F5F5F5F5F5F5F5F5F5F5F5F5F5F5F5F5F5F5F5F5F5F5F5F5F5F5F5F5F5F5F5F5F5F5F5F5F5F5F5F5F5F5F5F5F5F5F5F5F5F5F5F5F5F5F5F5F5F5F5F5F5F5F5F5F5F5F5E2F5F5E2E2E2F5F5E2F5F5F5F5F5F5F5F5F5F5F5F5F5F5F5F5F5F5F5F5F5F5F5F5F5F5F5F5F5F5F5F5F5F5F5F5F5F5F5F5F5F5F5F5F5F5F5F5F5
310
F5F5F5F5F5F5F5F5F5F5F5F5F5F5F5F5F5F5F5F5F5F5F5F5F5F5F5F5F5F5F5F5F5F5F5F5F5F5F5F5F5F5F5F5F5F5F5F5F5F5F5F5F5F5F5F5F5F5F5F5F5F5F5F5F5F5F5F5F5F5F5F5F5F5F5F5F5F5F5F5F5F5F5F5F5F5F5F5F5F5F5F5F5F5F5F5F5F5F5F5F5F5F5F5F5F5F5F5F5F5F5F5F5F5F5F5F5F5F5F5F5F5E2F5F5E2E2
310
E2F5F5F5F5F5F5F5F5F5F5F5F5F5F5F5F5F5F5F5F5F5F5F5F5F5F5F5F5F5F5F5F5F5F5F5F5F5F5F5F5F5F5F5F5F5F5F5F5F5F5F5F5F5F5F5F5F5F5F5F5F5F5F5F5F5F5F5F5F5F5F5F5F5F5F5F5F5F5F5F5F5F5F5F5F5F5F5F5F5F5F5F5F5F5F5F5F5F5F5F5F5F5F5F5F5F5F5F5F5F5F5F5F5F5F5F5F5F5F5F5F5F5F5F5F5F5
310
F5F5F5F5F5F5F5F5F5F5F5F5F5F5F5F5F5F5F5F5F5F5F5F5F5F5F5F5F5F5F5F5F5F5F5F5F5F5F5F5F5F5F5F5F5F5F5F5F5F5F5E2E2E2F5F5F5F5F5F5F5F5F5F5F5F5F5F5F5F5F5F5F5F5F5F5F5F5F5F5F5F5F5F5F5F5F5F5F5F5F5F5F5F5F5F5F5F5F5F5F5F5F5F5F5F5F5F5F5F5F5F5F5F5F5F5F5F5F5F5F5F5F5F5F5F5F5
310
F5F5F5F5F5F5F5F5F5F5F5F5F5F5F5F5F5F5F5F5F5F5F5F5F5F5F5F5F5F5F5F5F5F5F5F5F5F5F5F5F5F5F5F5F5F5F5F5F5F5F5F5F5F5F5F5F5F5F5F5F5F5F5F5F5F5F5F5F5F5F5F5F5F5F5F5F5F5F5F5F5F5F5F5F5F5F5F5F5F5F5F5F5F5F5F5F5F5F5F5F5F5F5F5E2E2E2F5F5F5F5F5F5F5F5F5F5F5F5F5F5F5F5F5F5F5F5
310
F5F5F5F5F5F5F5F5F5F5F5F5F5F5F5F5F5F5F5F5F5F5F5F5F5F5F5F5F5F5F5F5F5F5F5F5F5F5F5F5F5F5F5F5F5F5F5F5F5F5F5F5F5F5F5F5F5F5F5F5F5F5F5F5F5F5F5F5F5F5F5F5F5F5F5F5F5F5F5F5F5F5F5F5F5F5F5F5F5F5F5F5F5F5F5F5F5F5F5F5F5F5F5F5F5F5F5F5F5F5F5F5F5F5F5F5F5F5F5F5F5F5F5F5F5F5F5
310
F5F5F5F5F5F5F5F5F5F5F5F5F5F5F5F5F5F5F5F5F5F5F5F5F5F5F5F5F5F5E2E2E2F5F5F5F5F5F5F5F5F5F5F5F5F5F5F5F5F5F5F5F5F5F5F5F5F5F5F5F5F5F5F5F5F5F5F5F5F5F5F5F5F5F5F5F5F5F5F5F5F5F5F5F5F5F5F5F5F5F5F5F5F5F5F5F5F5F5F5F5F5F5F5F5F5F5F5F5F5F5F5F5F5F5F5F5F5F5F5F5F5F5F5F5F5F5
310
F5F5F5F5F5F5F5F5F5F5F5F5F5F5F5F5F5F5F5F5F5F5F5F5F5F5F5F5F5F5F5F5F5F5F5F5F5F5F5F5F5F5F5F5F5F5F5F5F5F5F5F5F5F5F5F5F5F5F5F5F5F5F5F5F5F5F5F5F5F5F5F5F5F5F5F5F5F5F5F5F5F5F5E2E2E2F5F5F5F5F5F5F5F5F5F5F5F5F5F5F5F5F5F5F5F5F5F5F5F5F5F5F5F5F5F5F5F5F5F5F5F5F5F5F5F5F5
310
F5F5F5F5F5F5F5F5F5F5F5F5F5F5F5F5F5F5F5F5F5F5F5F5F5F5F5F5F5F5F5F5F5F5F5F5F5F5F5F5F5F5F5F5F5F5F5F5F5F5F5F5F5F5F5F5F5F5F5F5F5F5F5F5F5F5F5F5F5F5F5F5F5F5F5F5F5F5F5F5F5F5F5F5F5F5F5F5F5F5F5F5F5F5F5F5F5F5F5F5F5F5F5F5F5F5F5F5F5F5F5F5F5F5F5F5F5F5F5F5F5F5F5F5F5F5F5
310
F5F5F5F5F5F5F5F5F5E2E2E2F5F5F5F5F5F5F5F5F5F5F5F5F5F5F5F5F5F5F5F5F5F5F5F5F5F5F5F5F5F5F5F5F5F5F5F5F5F5F5F5F5F5F5F5F5F5F5F5F5F5F5F5F5F5F5F5F5F5F5F5F5F5F5F5F5F5F5F5F5F5F5F5F5F5F5F5F5F5F5F5F5F5F5F5F5F5F5F5F5F5F5F5F5F5F5F5F5F5F5F5F5F5F5F5F5F5F5F5F5F5F5F5F5F5F5
310
F5F5F5F5F5F5F5F5F5F5F5F5F5F5F5F5F5F5F5F5F5F5F5F5F5F5F5F5F5F5F5F5F5F5F5F5F5F5F5F5F5F5F5F5F5F5F5F5F5F5F5F5F5F5F5F5F5F5F5F5F5F5E2E2E2F5F5F5F5F5F5F5F5F5F5F5F5F5F5F5F5F5F5F5F5F5F5F5F5F5F5F5F5F5F5F5F5F5F5F5F5F5F5F5F5F5F5F5F5F5F5F5F5F5F5F5F5F5F5F5F5F5F5F5F5F5F5
310
F5F5F5F5F5F5F5F5F5F5F5F5F5F5F5F5F5F5F5F5F5F5F5F5F5F5F5F5F5F5F5F5F5F5F5F5F5F5F5F5F5F5F5F5F5F5F5F5F5F5F5F5F5F5F5F5F5F5F5F5F5F5F5F5F5F5F5F5F5F5F5F5F5F5F5F5F5F5F5F5F5F5F5F5F5F5F5F5F5F5F5F5F5F5F5F5F5F5F5F5F5F5F5F5F5F5F5F5F5F5F5F5F5F5F5E2E2E2F5F5F5F5F5F5F5F5F5
310
F5F5F5F5F5F5F5F5F5F5F5F5F5F5F5F5F5F5F5F5F5F5F5F5F5F5F5F5F5F5F5F5F5F5F5F5F5F5F5F5F5F5F5F5F5F5F5F5F5F5F5F5F5F5F5F5F5F5F5F5F5F5F5F5F5F5F5F5F5F5F5F5F5F5F5F5F5F5F5F5F5F5F5F5F5F5F5F5F5F5F5F5F5F5F5F5F5F5F5F5F5F5F5F5F5F5F5F5F5F5F5F5F5F5F5F5F5F5F5F5F5F5F5F5F5F5F5
310
F5F5F5F5F5F5F5F5F5F5F5F5F5F5F5F5F5F5F5F5F5F5F5F5F5F5F5F5F5F5F5F5F5F5F5F5F5F5F5F5F5E2E2E2F5F5F5F5F5F5F5F5F5F5F5F5F5F5F5F5F5F5F5F5F5F5F5F5F5F5F5F5F5F5F5F5F5F5F5F5F5F5F5F5F5F5F5F5F5F5F5F5F5F5F5F5F5F5F5F5F5F5F5F5F5F5F5F5F5F5F5F5F5F5F5F5F5F5F5F5F5F5F5F5F5F5F5
310
F5F5F5F5F5F5F5F5F5F5F5F5F5F5F5F5F5F5F5F5F5F5F5F5F5F5F5F5F5F5F5F5F5F5F5F5F5F5F5F5F5F5F5F5F5F5F5F5F5F5F5F5F5F5F5F5F5F5F5F5F5F5F5F5F5F5F5F5F5F5F5F5F5F5F5F5F5F5F5F5F5F5F5F5F5F5F5F5F5F5F5F5F5F5E2E2E2F5F5E2F5F5F5F5F5F5F5F5F5F5F5F5F5F5F5F5F5F5F5F5F5F5F5F5F5F5F5
310
F5F5F5F5F5F5F5F5F5F5F5F5F5F5F5F5F5F5F5F5F5F5F5F5F5F5F5F5F5F5F5F5F5F5F5F5F5F5F5F5F5F5F5F5F5F5F5F5F5F5F5F5F5F5F5F5F5F5F5F5F5F5F5F5F5F5F5F5F5F5F5F5F5F5F5F5F5F5F5F5F5F5F5F5F5F5F5F5F5F5F5F5F5F5F5F5F5F5F5F5F5F5F5F5F5F5F5F5F5F5F5F5F5F5F5F5F5F5F5F5F5F5F5F5F5F5F5
310
F5F5F5F5F5F5F5F5F5F5F5F5F5F5F5F5F5E2F5F5E2E2E2F5F5E2F5F5F5F5F5F5F5F5F5F5F5F5F5F5F5F5F5F5F5F5F5F5F5F5F5F5F5F5F5F5F5F5F5F5F5F5F5F5F5F5F5F5F5F5F5F5F5F5F5F5F5F5F5F5F5F5F5F5F5F5F5F5F5F5F5F5F5F5F5F5F5F5F5F5F5F5F5F5F5F5F5F5F5F5F5F5F5F5F5F5F5F5F5F5F5F5F5F5F5F5F5
310
F5F5F5F5F5F5F5F5F5F5F5F5F5F5F5F5F5F5F5F5F5F5F5F5F5F5F5F5F5F5F5F5F5F5F5F5F5F5F5F5F5F5F5F5F5F5F5F5F5F5F5F5F5F5F5F5F5F5F5F5F5F5F5F5F5F5F5F5F5F5E2F5F5E2E2E2F5F5E2F5F5F5F5F5F5F5F5F5F5F5F5F5F5F5F5F5F5F5F5F5F5F5F5F5F5F5F5F5F5F5F5F5F5F5F5F5F5F5F5F5F5F5F5F5F5F5F5
310
F5F5F5F5F5F5F5F5F5F5F5F5F5F5F5F5F5F5F5F5F5F5F5F5F5F5F5F5F5F5F5F5F5F5F5F5F5F5F5F5F5F5F5F5F5F5F5F5F5F5F5F5F5F5F5F5F5F5F5F5F5F5F5F5F5F5F5F5F5F5F5F5F5F5F5F5F5F5F5F5F5F5F5F5F5F5F5F5F5F5F5F5F5F5F5F5F5F5F5F5F5F5F5F5F5F5F5F5F5F5F5F5F5F5F5F5F5F5F5F5F5F5F5E2F5F5E2
310
E2E2F5F5E2F5F5F5F5F5F5F5F5F5F5F5F5F5F5F5F5F5F5F5F5F5F5F5F5F5F5F5F5F5F5F5F5F5F5F5F5F5F5F5F5F5F5F5F5F5F5F5F5F5F5F5F5F5F5F5F5F5F5F5F5F5F5F5F5F5F5F5F5F5F5F5F5F5F5F5F5F5F5F5F5F5F5F5F5F5F5F5F5F5F5F5F5F5F5F5F5F5F5F5F5F5F5F5F5F5F5F5F5F5F5F5F5F5F5F5F5F5F5F5F5F5F5
310
F5F5F5F5F5F5F5F5F5F5F5F5F5F5F5F5F5F5F5F5F5F5F5F5F5F5F5F5F5F5F5F5F5F5F5F5F5F5F5F5F5F5F5F5F5F5F5F5F5E2F5F5E2E2E2F5F5E2F5F5F5F5F5F5F5F5F5F5F5F5F5F5F5F5F5F5F5F5F5F5F5F5F5F5F5F5F5F5F5F5F5F5F5F5F5F5F5F5F5F5F5F5F5F5F5F5F5F5F5F5F5F5F5F5F5F5F5F5F5F5F5F5F5F5F5F5F5
310
F5F5F5F5F5F5F5F5F5F5F5F5F5F5F5F5F5F5F5F5F5F5F5F5F5F5F5F5F5F5F5F5F5F5F5F5F5F5F5F5F5F5F5F5F5F5F5F5F5F5F5F5F5F5F5F5F5F5F5F5F5F5F5F5F5F5F5F5F5F5F5F5F5F5F5F5F5F5F5F5F5F5F5F5F5F5F5F5F5F5F5F5F5F5F5F5F5F5F5F5F5F5E2F5F5E2E2E2F5F5E2F5F5F5F5F5F5F5F5F5F5F5F5F5F5F5F5
310
F5F5F5F5F5F5F5F5F5F5F5F5F5F5F5F5F5F5F5F5F5F5F5F5F5F5F5F5F5F5F5F5F5F5F5F5F5F5F5F5F5F5F5F5F5F5F5F5F5F5F5F5F5F5F5F5F5F5F5F5F5F5F5F5F5F5F5F5F5F5F5F5F5F5F5F5F5F5F5F5F5F5F5F5F5F5F5F5F5F5F5F5F5F5F5F5F5F5F5F5F5F5F5F5F5F5F5F5F5F5F5F5F5F5F5F5F5F5F5F5F5F5F5F5F5F5F5
310
F5F5F5F5F5F5F5F5F5F5F5F5F5F5F5F5F5F5F5F5F5F5F5F5F5F5F5F5E2F5F5E2E2E2F5F5E2F5F5F5F5F5F5F5F5F5F5F5F5F5F5F5F5F5F5F5F5F5F5F5F5F5F5F5F5F5F5F5F5F5F5F5F5F5F5F5F5F5F5F5F5F5F5F5F5F5F5F5F5F5F5F5F5F5F5F5F5F5F5F5F5F5F5F5F5F5F5F5F5F5F5F5F5F5F5F5F5F5F5F5F5F5F5F5F5F5F5
310
F5F5F5F5F5F5F5F5F5F5F5F5F5F5F5F5F5F5F5F5F5F5F5F5F5F5F5F5F5F5F5F5F5F5F5F5F5F5F5F5F5F5F5F5F5F5F5F5F5F5F5F5F5F5F5F5F5F5F5F5F5F5F5F5F5F5F5F5F5F5F5F5F5F5F5F5F5F5F5F5F5E2F5F5E2E2E2F5F5E2F5F5F5F5F5F5F5F5F5F5F5F5F5F5F5F5F5F5F5F5F5F5F5F5F5F5F5F5F5F5F5F5F5F5F5F5F5
310
F5F5F5F5F5F5F5F5F5F5F5F5F5F5F5F5F5F5F5F5F5F5F5F5F5F5F5F5F5F5F5F5F5F5F5F5F5F5F5F5F5F5F5F5F5F5F5F5F5F5F5F5F5F5F5F5F5F5F5F5F5F5F5F5F5F5F5F5F5F5F5F5F5F5F5F5F5F5F5F5F5F5F5F5F5F5F5F5F5F5F5F5F5F5F5F5F5F5F5F5F5F5F5F5F5F5F5F5F5F5F5F5F5F5F5F5F5F5F5F5F5F5F5F5F5F5F5
310
F5F5F5F5F5F5F5E2F5F5E2E2E2F5F5E2F5F5F5F5F5F5F5F5F5F5F5F5F5F5F5F5F5F5F5F5F5F5F5F5F5F5F5F5F5F5F5F5F5F5F5F5F5F5F5F5F5F5F5F5F5F5F5F5F5F5F5F5F5F5F5F5F5F5F5F5F5F5F5F5F5F5F5F5F5F5F5F5F5F5F5F5F5F5F5F5F5F5F5F5F5F5F5F5F5F5F5F5F5F5F5F5F5F5F5F5F5F5F5F5F5F5F5F5F5F5F5
310
F5F5F5F5F5F5F5F5F5F5F5F5F5F5F5F5F5F5F5F5F5F5F5F5F5F5F5F5F5F5F5F5F5F5F5F5F5F5F5F5F5F5F5F5F5F5F5F5F5F5F5F5F5F5F5F5F5F5F5F5E2F5F5E2E2E2F5F5E2F5F5F5F5F5F5F5F5F5F5F5F5F5F5F5F5F5F5F5F5F5F5F5F5F5F5F5F5F5F5F5F5F5F5F5F5F5F5F5F5F5F5F5F5F5F5F5F5F5F5F5F5F5F5F5F5F5F5
310
F5F5F5F5F5F5F5F5F5F5F5F5F5F5F5F5F5F5F5F5F5F5F5F5F5F5F5F5F5F5F5F5F5F5F5F5F5F5F5F5F5F5F5F5F5F5F5F5F5F5F5F5F5F5F5F5F5F5F5F5F5F5F5F5F5F5F5F5F5F5F5F5F5F5F5F5F5F5F5F5F5F5F5F5F5F5F5F5F5F5F5F5F5F5F5F5F5F5F5F5F5F5F5F5F5F5F5F5F5F5F5F5F5E2F5F5E2E2E2F5F5E2F5F5F5F5F5
310
F5F5F5F5F5F5F5F5F5F5F5F5F5F5F5F5F5F5F5F5F5F5F5F5F5F5F5F5F5F5F5F5F5F5F5F5F5F5F5F5F5F5F5F5F5F5F5F5F5F5F5F5F5F5F5F5F5F5F5F5F5F5F5F5F5F5F5F5F5F5F5F5F5F5F5F5F5F5F5F5F5F5F5F5F5F5F5F5F5F5F5F5F5F5F5F5F5F5F5F5F5F5F5F5F5F5F5F5F5F5F5F5F5F5F5F5F5F5F5F5F5F5F5F5F5F5F5
310
F5F5F5F5F5F5F5F5F5F5F5F5F5F5F5F5F5F5F5F5F5F5F5F5F5F5F5F5F5F5F5F5F5F5F5F5F5F5F5E2F5F5E2E2E2F5F5E2F5F5F5F5F5F5F5F5F5F5F5F5F5F5F5F5F5F5F5F5F5F5F5F5F5F5F5F5F5F5F5F5F5F5F5F5F5F5F5F5F5F5F5F5F5F5F5F5F5F5F5F5F5F5F5F5F5F5F5F5F5F5F5F5F5F5F5F5F5F5F5F5F5F5F5F5F5F5F5
310
F5F5F5F5F5F5F5F5F5F5F5F5F5F5F5F5F5F5F5F5F5F5F5F5F5F5F5F5F5F5F5F5F5F5F5F5F5F5F5F5F5F5F5F5F5F5F5F5F5F5F5F5F5F5F5F5F5F5F5F5F5F5F5F5F5F5F5F5F5F5F5F5F5F5F5F5F5F5F5F5F5F5F5F5F5F5F5F5F5F5F5F5E2F5F5E2E2E2F5F5E2F5F5F5F5F5F5F5F5F5F5F5F5F5F5F5F5F5F5F5F5F5F5F5F5F5F5
310
F5F5F5F5F5F5F5F5F5F5F5F5F5F5F5F5F5F5F5F5F5F5F5F5F5F5F5F5F5F5F5F5F5F5F5F5F5F5F5F5F5F5F5F5F5F5F5F5F5F5F5F5F5F5F5F5F5F5F5F5F5F5F5F5F5F5F5F5F5F5F5F5F5F5F5F5F5F5F5F5F5F5F5F5F5F5F5F5F5F5F5F5F5F5F5F5F5F5F5F5F5F5F5F5F5F5F5F5F5F5F5F5F5F5F5F5F5F5F5F5F5F5F5F5F5F5F5
310
F5F5F5F5F5F5F5F5F5F5F5F5F5F5F5F5F5F5E2F5F5E2E2E2F5F5E2F5F5F5F5F5F5F5F5F5F5F5F5F5F5F5F5F5F5F5F5F5F5F5F5F5F5F5F5F5F5F5F5F5F5F5F5F5F5F5F5F5F5F5F5F5F5F5F5F5F5F5F5F5F5F5F5F5F5F5F5F5F5F5F5F5F5F5F5F5F5F5F5F5F5F5F5F5F5F5F5F5F5F5F5F5F5F5F5F5F5F5F5F5F5F5F5F5F5F5F5
310
F5F5F5F5F5F5F5F5F5F5F5F5F5F5F5F5F5F5F5F5F5F5F5F5F5F5F5F5F5F5F5F5F5F5F5F5F5F5F5F5F5F5F5F5F5F5F5F5F5F5F5F5F5F5F5F5F5F5F5F5F5F5F5F5F5F5F5F5F5F5F5E2F5F5E2E2E2F5F5E2F5F5F5F5F5F5F5F5F5F5F5F5F5F5F5F5F5F5F5F5F5F5F5F5F5F5F5F5F5F5F5F5F5F5F5F5F5F5F5F5F5F5F5F5F5F5F5
310
F5F5F5F5F5F5F5F5F5F5F5F5F5F5F5F5F5F5F5F5F5F5F5F5F5F5F5F5F5F5F5F5F5F5F5F5F5F5F5F5F5F5F5F5F5F5F5F5F5F5F5F5F5F5F5F5F5F5F5F5F5F5F5F5F5F5F5F5F5F5F5F5F5F5F5F5F5F5F5F5F5F5F5F5F5F5F5F5F5F5F5F5F5F5F5F5F5F5F5F5F5F5F5F5F5F5F5F5F5F5F5F5F5F5F5F5F5F5F5F5F5F5F5F5E2F5F5
310
E2E2E2F5F5F5F5F5F5F5F5F5F5F5F5F5F5F5F5F5F5F5F5F5F5F5F5F5F5F5F5F5F5F5F5F5F5F5F5F5F5F5F5F5F5F5F5F5F5F5F5F5F5F5F5F5F5F5F5F5F5F5F5F5F5F5F5F5F5F5F5F5F5F5F5F5F5F5F5F5F5F5F5F5F5F5F5F5F5F5F5F5F5F5F5F5F5F5F5F5F5F5F5F5F5F5F5F5F5F5F5F5F5F5F5F5F5F5F5F5F5F5F5F5F5F5F5
310
F5F5F5F5F5F5F5F5F5F5F5F5F5F5F5F5F5F5F5F5F5F5F5F5F5F5F5F5F5F5F5F5F5F5F5F5F5F5F5F5F5F5F5F5F5F5F5F5F5F5F5F5F5E2E2E2F5F5F5F5F5F5F5F5F5F5F5F5F5F5F5F5F5F5F5F5F5F5F5F5F5F5F5F5F5F5F5F5F5F5F5F5F5F5F5F5F5F5F5F5F5F5F5F5F5F5F5F5F5F5F5F5F5F5F5F5F5F5F5F5F5F5F5F5F5F5F5
310
F5F5F5F5F5F5F5F5F5F5F5F5F5F5F5F5F5F5F5F5F5F5F5F5F5F5F5F5F5F5F5F5F5F5F5F5F5F5F5F5F5F5F5F5F5F5F5F5F5F5F5F5F5F5F5F5F5F5F5F5F5F5F5F5F5F5F5F5F5F5F5F5F5F5F5F5F5F5F5F5F5F5F5F5F5F5F5F5F5F5F5F5F5F5F5F5F5F5F5F5F5F5F5F5F5F5E2E2E2F5F5F5F5F5F5F5F5F5F5F5F5F5F5F5F5F5F5
310
F5F5F5F5F5F5F5F5F5F5F5F5F5F5F5F5F5F5F5F5F5F5F5F5F5F5F5F5F5F5F5F5F5F5F5F5F5F5F5F5F5F5F5F5F5F5F5F5F5F5F5F5F5F5F5F5F5F5F5F5F5F5F5F5F5F5F5F5F5F5F5F5F5F5F5F5F5F5F5F5F5F5F5F5F5F5F5F5F5F5F5F5F5F5F5F5F5F5F5F5F5F5F5F5F5F5F5F5F5F5F5F5F5F5F5F5F5F5F5F5F5F5F5F5F5F5F5
310
F5F5F5F5F5F5F5F5F5F5F5F5F5F5F5F5F5F5F5F5F5F5F5F5F5F5F5F5F5F5F5F5E2E2E2F5F5F5F5F5F5F5F5F5F5F5F5F5F5F5F5F5F5F5F5F5F5F5F5F5F5F5F5F5F5F5F5F5F5F5F5F5F5F5F5F5F5F5F5F5F5F5F5F5F5F5F5F5F5F5F5F5F5F5F5F5F5F5F5F5F5F5F5F5F5F5F5F5F5F5F5F5F5F5F5F5F5F5F5F5F5F5F5F5F5F5F5
310
F5F5F5F5F5F5F5F5F5F5F5F5F5F5F5F5F5F5F5F5F5F5F5F5F5F5F5F5F5F5F5F5F5F5F5F5F5F5F5F5F5F5F5F5F5F5F5F5F5F5F5F5F5F5F5F5F5F5F5F5F5F5F5F5F5F5F5F5F5F5F5F5F5F5F5F5F5F5F5F5F5F5F5F5F5E2E2E2F5F5F5F5F5F5F5F5F5F5F5F5F5F5F5F5F5F5F5F5F5F5F5F5F5F5F5F5F5F5F5F5F5F5F5F5F5F5F5
310
F5F5F5F5F5F5F5F5F5F5F5F5F5F5F5F5F5F5F5F5F5F5F5F5F5F5F5F5F5F5F5F5F5F5F5F5F5F5F5F5F5F5F5F5F5F5F5F5F5F5F5F5F5F5F5F5F5F5F5F5F5F5F5F5F5F5F5F5F5F5F5F5F5F5F5F5F5F5F5F5F5F5F5F5F5F5F5F5F5F5F5F5F5F5F5F5F5F5F5F5F5F5F5F5F5F5F5F5F5F5F5F5F5F5F5F5F5F5F5F5F5F5F5F5F5F5F5
310
F5F5F5F5F5F5F5F5F5F5F5E2E2E2F5F5F5F5F5F5F5F5F5F5F5F5F5F5F5F5F5F5F5F5F5F5F5F5F5F5F5F5F5F5F5F5F5F5F5F5F5F5F5F5F5F5F5F5F5F5F5F5F5F5F5F5F5F5F5F5F5F5F5F5F5F5F5F5F5F5F5F5F5F5F5F5F5F5F5F5F5F5F5F5F5F5F5F5F5F5F5F5F5F5F5F5F5F5F5F5F5F5F5F5F5F5F5F5F5F5F5F5F5F5F5F5F5
310
F5F5F5F5F5F5F5F5F5F5F5F5F5F5F5F5F5F5F5F5F5F5F5F5F5F5F5F5F5F5F5F5F5F5F5F5F5F5F5F5F5F5F5F5F5F5F5F5F5F5F5F5F5F5F5F5F5F5F5F5F5F5F5F5E2E2E2F5F5F5F5F5F5F5F5F5F5F5F5F5F5F5F5F5F5F5F5F5F5F5F5F5F5F5F5F5F5F5F5F5F5F5F5F5F5F5F5F5F5F5F5F5F5F5F5F5F5F5F5F5F5F5F5F5F5F5F5
310
F5F5F5F5F5F5F5F5F5F5F5F5F5F5F5F5F5F5F5F5F5F5F5F5F5F5F5F5F5F5F5F5F5F5F5F5F5F5F5F5F5F5F5F5F5F5F5F5F5F5F5F5F5F5F5F5F5F5F5F5F5F5F5F5F5F5F5F5F5F5F5F5F5F5F5F5F5F5F5F5F5F5F5F5F5F5F5F5F5F5F5F5F5F5F5F5F5F5F5F5F5F5F5F5F5F5F5F5F5F5F5F5F5F5F5F5F5E2E2E2F5F5F5F5F5F5F5
310
F5F5F5F5F5F5F5F5F5F5F5F5F5F5F5F5F5F5F5F5F5F5F5F5F5F5F5F5F5F5F5F5F5F5F5F5F5F5F5F5F5F5F5F5F5F5F5F5F5F5F5F5F5F5F5F5F5F5F5F5F5F5F5F5F5F5F5F5F5F5F5F5F5F5F5F5F5F5F5F5F5F5F5F5F5F5F5F5F5F5F5F5F5F5F5F5F5F5F5F5F5F5F5F5F5F5F5F5F5F5F5F5F5F5F5F5F5F5F5F5F5F5F5F5F5F5F5
310
F5F5F5F5F5F5F5F5F5F5F5F5F5F5F5F5F5F5F5F5F5F5F5F5F5F5F5F5F5F5F5F5F5F5F5F5F5F5F5F5F5F5F5E2E2E2F5F5E2F5F5F5F5F5F5F5F5F5F5F5F5F5F5F5F5F5F5F5F5F5F5F5F5F5F5F5F5F5F5F5F5F5F5F5F5F5F5F5F5F5F5F5F5F5F5F5F5F5F5F5F5F5F5F5F5F5F5F5F5F5F5F5F5F5F5F5F5F5F5F5F5F5F5F5F5F5F5
310
F5F5F5F5F5F5F5F5F5F5F5F5F5F5F5F5F5F5F5F5F5F5F5F5F5F5F5F5F5F5F5F5F5F5F5F5F5F5F5F5F5F5F5F5F5F5F5F5F5F5F5F5F5F5F5F5F5F5F5F5F5F5F5F5F5F5F5F5F5F5F5F5F5F5F5F5F5F5F5F5F5F5F5F5F5F5F5F5F5F5F5F5F5E2F5F5E2E2E2F5F5E2F5F5F5F5F5F5F5F5F5F5F5F5F5F5F5F5F5F5F5F5F5F5F5F5F5
310
F5F5F5F5F5F5F5F5F5F5F5F5F5F5F5F5F5F5F5F5F5F5F5F5F5F5F5F5F5F5F5F5F5F5F5F5F5F5F5F5F5F5F5F5F5F5F5F5F5F5F5F5F5F5F5F5F5F5F5F5F5F5F5F5F5F5F5F5F5F5F5F5F5F5F5F5F5F5F5F5F5F5F5F5F5F5F5F5F5F5F5F5F5F5F5F5F5F5F5F5F5F5F5F5F5F5F5F5F5F5F5F5F5F5F5F5F5F5F5F5F5F5F5F5F5F5F5
310
F5F5F5F5F5F5F5F5F5F5F5F5F5F5F5F5F5F5F5E2F5F5E2E2E2F5F5E2F5F5F5F5F5F5F5F5F5F5F5F5F5F5F5F5F5F5F5F5F5F5F5F5F5F5F5F5F5F5F5F5F5F5F5F5F5F5F5F5F5F5F5F5F5F5F5F5F5F5F5F5F5F5F5F5F5F5F5F5F5F5F5F5F5F5F5F5F5F5F5F5F5F5F5F5F5F5F5F5F5F5F5F5F5F5F5F5F5F5F5F5F5F5F5F5F5F5F5
310
F5F5F5F5F5F5F5F5F5F5F5F5F5F5F5F5F5F5F5F5F5F5F5F5F5F5F5F5F5F5F5F5F5F5F5F5F5F5F5F5F5F5F5F5F5F5F5F5F5F5F5F5F5F5F5F5F5F5F5F5F5F5F5F5F5F5F5F5F5F5F5F5E2F5F5E2E2E2F5F5E2F5F5F5F5F5F5F5F5F5F5F5F5F5F5F5F5F5F5F5F5F5F5F5F5F5F5F5F5F5F5F5F5F5F5F5F5F5F5F5F5F5F5F5F5F5F5
310
F5F5F5F5F5F5F5F5F5F5F5F5F5F5F5F5F5F5F5F5F5F5F5F5F5F5F5F5F5F5F5F5F5F5F5F5F5F5F5F5F5F5F5F5F5F5F5F5F5F5F5F5F5F5F5F5F5F5F5F5F5F5F5F5F5F5F5F5F5F5F5F5F5F5F5F5F5F5F5F5F5F5F5F5F5F5F5F5F5F5F5F5F5F5F5F5F5F5F5F5F5F5F5F5F5F5F5F5F5F5F5F5F5F5F5F5F5F5F5F5F5F5F5F5F5E2F5
310
F5E2E2E2F5F5E2F5F5F5F5F5F5F5F5F5F5F5F5F5F5F5F5F5F5F5F5F5F5F5F5F5F5F5F5F5F5F5F5F5F5F5F5F5F5F5F5F5F5F5F5F5F5F5F5F5F5F5F5F5F5F5F5F5F5F5F5F5F5F5F5F5F5F5F5F5F5F5F5F5F5F5F5F5F5F5F5F5F5F5F5F5F5F5F5F5F5F5F5F5F5F5F5F5F5F5F5F5F5F5F5F5F5F5F5F5F5F5F5F5F5F5F5F5F5F5F5
310
F5F5F5F5F5F5F5F5F5F5F5F5F5F5F5F5F5F5F5F5F5F5F5F5F5F5F5F5F5F5F5F5F5F5F5F5F5F5F5F5F5F5F5F5F5F5F5F5F5F5F5E2F5F5E2E2E2F5F5E2F5F5F5F5F5F5F5F5F5F5F5F5F5F5F5F5F5F5F5F5F5F5F5F5F5F5F5F5F5F5F5F5F5F5F5F5F5F5F5F5F5F5F5F5F5F5F5F5F5F5F5F5F5F5F5F5F5F5F5F5F5F5F5F5F5F5F5
310
F5F5F5F5F5F5F5F5F5F5F5F5F5F5F5F5F5F5F5F5F5F5F5F5F5F5F5F5F5F5F5F5F5F5F5F5F5F5F5F5F5F5F5F5F5F5F5F5F5F5F5F5F5F5F5F5F5F5F5F5F5F5F5F5F5F5F5F5F5F5F5F5F5F5F5F5F5F5F5F5F5F5F5F5F5F5F5F5F5F5F5F5F5F5F5F5F5F5F5F5F5F5F5F5E2F5F5E2E2E2F5F5E2F5F5F5F5F5F5F5F5F5F5F5F5F5F5
310
F5F5F5F5F5F5F5F5F5F5F5F5F5F5F5F5F5F5F5F5F5F5F5F5F5F5F5F5F5F5F5F5F5F5F5F5F5F5F5F5F5F5F5F5F5F5F5F5F5F5F5F5F5F5F5F5F5F5F5F5F5F5F5F5F5F5F5F5F5F5F5F5F5F5F5F5F5F5F5F5F5F5F5F5F5F5F5F5F5F5F5F5F5F5F5F5F5F5F5F5F5F5F5F5F5F5F5F5F5F5F5F5F5F5F5F5F5F5F5F5F5F5F5F5F5F5F5
310
F5F5F5F5F5F5F5F5F5F5F5F5F5F5F5F5F5F5F5F5F5F5F5F5F5F5F5F5F5F5E2F5F5E2E2E2F5F5E2F5F5F5F5F5F5F5F5F5F5F5F5F5F5F5F5F5F5F5F5F5F5F5F5F5F5F5F5F5F5F5F5F5F5F5F5F5F5F5F5F5F5F5F5F5F5F5F5F5F5F5F5F5F5F5F5F5F5F5F5F5F5F5F5F5F5F5F5F5F5F5F5F5F5F5F5F5F5F5F5F5F5F5F5F5F5F5F5
310
F5F5F5F5F5F5F5F5F5F5F5F5F5F5F5F5F5F5F5F5F5F5F5F5F5F5F5F5F5F5F5F5F5F5F5F5F5F5F5F5F5F5F5F5F5F5F5F5F5F5F5F5F5F5F5F5F5F5F5F5F5F5F5F5F5F5F5F5F5F5F5F5F5F5F5F5F5F5F5F5F5F5F5E2F5F5E2E2E2F5F5E2F5F5F5F5F5F5F5F5F5F5F5F5F5F5F5F5F5F5F5F5F5F5F5F5F5F5F5F5F5F5F5F5F5F5F5
310
F5F5F5F5F5F5F5F5F5F5F5F5F5F5F5F5F5F5F5F5F5F5F5F5F5F5F5F5F5F5F5F5F5F5F5F5F5F5F5F5F5F5F5F5F5F5F5F5F5F5F5F5F5F5F5F5F5F5F5F5F5F5F5F5F5F5F5F5F5F5F5F5F5F5F5F5F5F5F5F5F5F5F5F5F5F5F5F5F5F5F5F5F5F5F5F5F5F5F5F5F5F5F5F5F5F5F5F5F5F5F5F5F5F5F5F5F5F5F5F5F5F5F5F5F5F5F5
310
F5F5F5F5F5F5F5F5F5E2F5F5E2E2E2F5F5E2F5F5F5F5F5F5F5F5F5F5F5F5F5F5F5F5F5F5F5F5F5F5F5F5F5F5F5F5F5F5F5F5F5F5F5F5F5F5F5F5F5F5F5F5F5F5F5F5F5F5F5F5F5F5F5F5F5F5F5F5F5F5F5F5F5F5F5F5F5F5F5F5F5F5F5F5F5F5F5F5F5F5F5F5F5F5F5F5F5F5F5F5F5F5F5F5F5F5F5F5F5F5F5F5F5F5F5F5F5
310
F5F5F5F5F5F5F5F5F5F5F5F5F5F5F5F5F5F5F5F5F5F5F5F5F5F5F5F5F5F5F5F5F5F5F5F5F5F5F5F5F5F5F5F5F5F5F5F5F5F5F5F5F5F5F5F5F5F5F5F5F5F5E2F5F5E2E2E2F5F5E2F5F5F5F5F5F5F5F5F5F5F5F5F5F5F5F5F5F5F5F5F5F5F5F5F5F5F5F5F5F5F5F5F5F5F5F5F5F5F5F5F5F5F5F5F5F5F5F5F5F5F5F5F5F5F5F5
310
F5F5F5F5F5F5F5F5F5F5F5F5F5F5F5F5F5F5F5F5F5F5F5F5F5F5F5F5F5F5F5F5F5F5F5F5F5F5F5F5F5F5F5F5F5F5F5F5F5F5F5F5F5F5F5F5F5F5F5F5F5F5F5F5F5F5F5F5F5F5F5F5F5F5F5F5F5F5F5F5F5F5F5F5F5F5F5F5F5F5F5F5F5F5F5F5F5F5F5F5F5F5F5F5F5F5F5F5F5F5F5F5F5F5F5E2F5F5E2E2E2F5F5E2F5F5F5
310
F5F5F5F5F5F5F5F5F5F5F5F5F5F5F5F5F5F5F5F5F5F5F5F5F5F5F5F5F5F5F5F5F5F5F5F5F5F5F5F5F5F5F5F5F5F5F5F5F5F5F5F5F5F5F5F5F5F5F5F5F5F5F5F5F5F5F5F5F5F5F5F5F5F5F5F5F5F5F5F5F5F5F5F5F5F5F5F5F5F5F5F5F5F5F5F5F5F5F5F5F5F5F5F5F5F5F5F5F5F5F5F5F5F5F5F5F5F5F5F5F5F5F5F5F5F5F5
310
F5F5F5F5F5F5F5F5F5F5F5F5F5F5F5F5F5F5F5F5F5F5F5F5F5F5F5F5F5F5F5F5F5F5F5F5F5F5F5F5F5E2F5F5E2E2E2F5F5E2F5F5F5F5F5F5F5F5F5F5F5F5F5F5F5F5F5F5F5F5F5F5F5F5F5F5F5F5F5F5F5F5F5F5F5F5F5F5F5F5F5F5F5F5F5F5F5F5F5F5F5F5F5F5F5F5F5F5F5F5F5F5F5F5F5F5F5F5F5F5F5F5F5F5F5F5F5
310
F5F5F5F5F5F5F5F5F5F5F5F5F5F5F5F5F5F5F5F5F5F5F5F5F5F5F5F5F5F5F5F5F5F5F5F5F5F5F5F5F5F5F5F5F5F5F5F5F5F5F5F5F5F5F5F5F5F5F5F5F5F5F5F5F5F5F5F5F5F5F5F5F5F5F5F5F5F5F5F5F5F5F5F5F5F5F5F5F5F5F5F5F5F5E2F5F5E2E2E2F5F5E2F5F5F5F5F5F5F5F5F5F5F5F5F5F5F5F5F5F5F5F5F5F5F5F5
310
F5F5F5F5F5F5F5F5F5F5F5F5F5F5F5F5F5F5F5F5F5F5F5F5F5F5F5F5F5F5F5F5F5F5F5F5F5F5F5F5F5F5F5F5F5F5F5F5F5F5F5F5F5F5F5F5F5F5F5F5F5F5F5F5F5F5F5F5F5F5F5F5F5F5F5F5F5F5F5F5F5F5F5F5F5F5F5F5F5F5F5F5F5F5F5F5F5F5F5F5F5F5F5F5F5F5F5F5F5F5F5F5F5F5F5F5F5F5F5F5F5F5F5F5F5F5F5
310
F5F5F5F5F5F5F5F5F5F5F5F5F5F5F5F5F5F5F5F5E2F5F5E2E2E2F5F5E2F5F5F5F5F5F5F5F5F5F5F5F5F5F5F5F5F5F5F5F5F5F5F5F5F5F5F5F5F5F5F5F5F5F5F5F5F5F5F5F5F5F5F5F5F5F5F5F5F5F5F5F5F5F5F5F5F5F5F5F5F5F5F5F5F5F5F5F5F5F5F5F5F5F5F5F5F5F5F5F5F5F5F5F5F5F5F5F5F5F5F5F5F5F5F5F5F5F5
310
F5F5F5F5F5F5F5F5F5F5F5F5F5F5F5F5F5F5F5F5F5F5F5F5F5F5F5F5F5F5F5F5F5F5F5F5F5F5F5F5F5F5F5F5F5F5F5F5F5F5F5F5F5F5F5F5F5F5F5F5F5F5F5F5F5F5F5F5F5F5F5F5F5E2F5F5E2E2E2F5F5F5F5F5F5F5F5F5F5F5F5F5F5F5F5F5F5F5F5F5F5F5F5F5F5F5F5F5F5F5F5F5F5F5F5F5F5F5F5F5F5F5F5F5F5F5F5
310
F5F5F5F5F5F5F5F5F5F5F5F5F5F5F5F5F5F5F5F5F5F5F5F5F5F5F5F5F5F5F5F5F5F5F5F5F5F5F5F5F5F5F5F5F5F5F5F5F5F5F5F5F5F5F5F5F5F5F5F5F5F5F5F5F5F5F5F5F5F5F5F5F5F5F5F5F5F5F5F5F5F5F5F5F5F5F5F5F5F5F5F5F5F5F5F5F5F5F5F5F5F5F5F5F5F5F5F5F5F5F5F5F5F5F5F5F5F5F5F5F5F5F5F5F5F5F5
310
F5F5E2E2E2F5F5F5F5F5F5F5F5F5F5F5F5F5F5F5F5F5F5F5F5F5F5F5F5F5F5F5F5F5F5F5F5F5F5F5F5F5F5F5F5F5F5F5F5F5F5F5F5F5F5F5F5F5F5F5F5F5F5F5F5F5F5F5F5F5F5F5F5F5F5F5F5F5F5F5F5F5F5F5F5F5F5F5F5F5F5F5F5F5F5F5F5F5F5F5F5F5F5F5F5F5F5F5F5F5F5F5F5F5F5F5F5F5F5F5F5F5F5F5F5F5F5
310
F5F5F5F5F5F5F5F5F5F5F5F5F5F5F5F5F5F5F5F5F5F5F5F5F5F5F5F5F5F5F5F5F5F5F5F5F5F5F5F5F5F5F5F5F5F5F5F5F5F5F5F5F5F5F5E2E2E2F5F5F5F5F5F5F5F5F5F5F5F5F5F5F5F5F5F5F5F5F5F5F5F5F5F5F5F5F5F5F5F5F5F5F5F5F5F5F5F5F5F5F5F5F5F5F5F5F5F5F5F5F5F5F5F5F5F5F5F5F5F5F5F5F5F5F5F5F5
310
F5F5F5F5F5F5F5F5F5F5F5F5F5F5F5F5F5F5F5F5F5F5F5F5F5F5F5F5F5F5F5F5F5F5F5F5F5F5F5F5F5F5F5F5F5F5F5F5F5F5F5F5F5F5F5F5F5F5F5F5F5F5F5F5F5F5F5F5F5F5F5F5F5F5F5F5F5F5F5F5F5F5F5F5F5F5F5F5F5F5F5F5F5F5F5F5F5F5F5F5F5F5F5F5F5F5F5F5E2E2E2F5F5F5F5F5F5F5F5F5F5F5F5F5F5F5F5
310
F5F5F5F5F5F5F5F5F5F5F5F5F5F5F5F5F5F5F5F5F5F5F5F5F5F5F5F5F5F5F5F5F5F5F5F5F5F5F5F5F5F5F5F5F5F5F5F5F5F5F5F5F5F5F5F5F5F5F5F5F5F5F5F5F5F5F5F5F5F5F5F5F5F5F5F5F5F5F5F5F5F5F5F5F5F5F5F5F5F5F5F5F5F5F5F5F5F5F5F5F5F5F5F5F5F5F5F5F5F5F5F5F5F5F5F5F5F5F5F5F5F5F5F5F5F5F5
310
F5F5F5F5F5F5F5F5F5F5F5F5F5F5F5F5F5F5F5F5F5F5F5F5F5F5F5F5F5F5F5F5F5F5E2E2E2F5F5F5F5F5F5F5F5F5F5F5F5F5F5F5F5F5F5F5F5F5F5F5F5F5F5F5F5F5F5F5F5F5F5F5F5F5F5F5F5F5F5F5F5F5F5F5F5F5F5F5F5F5F5F5F5F5F5F5F5F5F5F5F5F5F5F5F5F5F5F5F5F5F5F5F5F5F5F5F5F5F5F5F5F5F5F5F5F5F5
310
F5F5F5F5F5F5F5F5F5F5F5F5F5F5F5F5F5F5F5F5F5F5F5F5F5F5F5F5F5F5F5F5F5F5F5F5F5F5F5F5F5F5F5F5F5F5F5F5F5F5F5F5F5F5F5F5F5F5F5F5F5F5F5F5F5F5F5F5F5F5F5F5F5F5F5F5F5F5F5F5F5F5F5F5F5F5F5E2E2E2F5F5F5F5F5F5F5F5F5F5F5F5F5F5F5F5F5F5F5F5F5F5F5F5F5F5F5F5F5F5F5F5F5F5F5F5F5
310
F5F5F5F5F5F5F5F5F5F5F5F5F5F5F5F5F5F5F5F5F5F5F5F5F5F5F5F5F5F5F5F5F5F5F5F5F5F5F5F5F5F5F5F5F5F5F5F5F5F5F5F5F5F5F5F5F5F5F5F5F5F5F5F5F5F5F5F5F5F5F5F5F5F5F5F5F5F5F5F5F5F5F5F5F5F5F5F5F5F5F5F5F5F5F5F5F5F5F5F5F5F5F5F5F5F5F5F5F5F5F5F5F5F5F5F5F5F5F5F5F5F5F5F5F5F5F5
310
F5F5F5F5F5F5F5F5F5F5F5F5F5E2E2E2F5F5F5F5F5F5F5F5F5F5F5F5F5F5F5F5F5F5F5F5F5F5F5F5F5F5F5F5F5F5F5F5F5F5F5F5F5F5F5F5F5F5F5F5F5F5F5F5F5F5F5F5F5F5F5F5F5F5F5F5F5F5F5F5F5F5F5F5F5F5F5F5F5F5F5F5F5F5F5F5F5F5F5F5F5F5F5F5F5F5F5F5F5F5F5F5F5F5F5F5F5F5F5F5F5F5F5F5F5F5F5
310
F5F5F5F5F5F5F5F5F5F5F5F5F5F5F5F5F5F5F5F5F5F5F5F5F5F5F5F5F5F5F5F5F5F5F5F5F5F5F5F5F5F5F5F5F5F5F5F5F5F5F5F5F5F5F5F5F5F5F5F5F5F5F5F5F5F5E2E2E2F5F5F5F5F5F5F5F5F5F5F5F5F5F5F5F5F5F5F5F5F5F5F5F5F5F5F5F5F5F5F5F5F5F5F5F5F5F5F5F5F5F5F5F5F5F5F5F5F5F5F5F5F5F5F5F5F5F5
310
F5F5F5F5F5F5F5F5F5F5F5F5F5F5F5F5F5F5F5F5F5F5F5F5F5F5F5F5F5F5F5F5F5F5F5F5F5F5F5F5F5F5F5F5F5F5F5F5F5F5F5F5F5F5F5F5F5F5F5F5F5F5F5F5F5F5F5F5F5F5F5F5F5F5F5F5F5F5F5F5F5F5F5F5F5F5F5F5F5F5F5F5F5F5F5F5F5F5F5F5F5F5F5F5F5F5F5F5F5F5F5F5F5F5F5F5F5F5F5E2E2E2F5F5F5F5F5
310
F5F5F5F5F5F5F5F5F5F5F5F5F5F5F5F5F5F5F5F5F5F5F5F5F5F5F5F5F5F5F5F5F5F5F5F5F5F5F5F5F5F5F5F5F5F5F5F5F5F5F5F5F5F5F5F5F5F5F5F5F5F5F5F5F5F5F5F5F5F5F5F5F5F5F5F5F5F5F5F5F5F5F5F5F5F5F5F5F5F5F5F5F5F5F5F5F5F5F5F5F5F5F5F5F5F5F5F5F5F5F5F5F5F5F5F5F5F5F5F5F5F5F5F5F5F5F5
310
F5F5F5F5F5F5F5F5F5F5F5F5F5F5F5F5F5F5F5F5F5F5F5F5F5F5F5F5F5F5F5F5F5F5F5F5F5F5F5F5F5F5F5F5F5E2E2E2F5F5E2F5F5F5F5F5F5F5F5F5F5F5F5F5F5F5F5F5F5F5F5F5F5F5F5F5F5F5F5F5F5F5F5F5F5F5F5F5F5F5F5F5F5F5F5F5F5F5F5F5F5F5F5F5F5F5F5F5F5F5F5F5F5F5F5F5F5F5F5F5F5F5F5F5F5F5F5
310
F5F5F5F5F5F5F5F5F5F5F5F5F5F5F5F5F5F5F5F5F5F5F5F5F5F5F5F5F5F5F5F5F5F5F5F5F5F5F5F5F5F5F5F5F5F5F5F5F5F5F5F5F5F5F5F5F5F5F5F5F5F5F5F5F5F5F5F5F5F5F5F5F5F5F5F5F5F5F5F5F5F5F5F5F5F5F5F5F5F5F5F5F5F5F5E2F5F5E2E2E2F5F5E2F5F5F5F5F5F5F5F5F5F5F5F5F5F5F5F5F5F5F5F5F5F5F5
310
F5F5F5F5F5F5F5F5F5F5F5F5F5F5F5F5F5F5F5F5F5F5F5F5F5F5F5F5F5F5F5F5F5F5F5F5F5F5F5F5F5F5F5F5F5F5F5F5F5F5F5F5F5F5F5F5F5F5F5F5F5F5F5F5F5F5F5F5F5F5F5F5F5F5F5F5F5F5F5F5F5F5F5F5F5F5F5F5F5F5F5F5F5F5F5F5F5F5F5F5F5F5F5F5F5F5F5F5F5F5F5F5F5F5F5F5F5F5F5F5F5F5F5F5F5F5F5
310
F5F5F5F5F5F5F5F5F5F5F5F5F5F5F5F5F5F5F5F5F5E2F5F5E2E2E2F5F5E2F5F5F5F5F5F5F5F5F5F5F5F5F5F5F5F5F5F5F5F5F5F5F5F5F5F5F5F5F5F5F5F5F5F5F5F5F5F5F5F5F5F5F5F5F5F5F5F5F5F5F5F5F5F5F5F5F5F5F5F5F5F5F5F5F5F5F5F5F5F5F5F5F5F5F5F5F5F5F5F5F5F5F5F5F5F5F5F5F5F5F5F5F5F5F5F5F5
310
F5F5F5F5F5F5F5F5F5F5F5F5F5F5F5F5F5F5F5F5F5F5F5F5F5F5F5F5F5F5F5F5F5F5F5F5F5F5F5F5F5F5F5F5F5F5F5F5F5F5F5F5F5F5F5F5F5F5F5F5F5F5F5F5F5F5F5F5F5F5F5F5F5F5E2F5F5E2E2E2F5F5E2F5F5F5F5F5F5F5F5F5F5F5F5F5F5F5F5F5F5F5F5F5F5F5F5F5F5F5F5F5F5F5F5F5F5F5F5F5F5F5F5F5F5F5F5
310
F5F5F5F5F5F5F5F5F5F5F5F5F5F5F5F5F5F5F5F5F5F5F5F5F5F5F5F5F5F5F5F5F5F5F5F5F5F5F5F5F5F5F5F5F5F5F5F5F5F5F5F5F5F5F5F5F5F5F5F5F5F5F5F5F5F5F5F5F5F5F5F5F5F5F5F5F5F5F5F5F5F5F5F5F5F5F5F5F5F5F5F5F5F5F5F5F5F5F5F5F5F5F5F5F5F5F5F5F5F5F5F5F5F5F5F5F5F5F5F5F5F5F5F5F5F5F5
310
E2F5F5E2E2E2F5F5E2F5F5F5F5F5F5F5F5F5F5F5F5F5F5F5F5F5F5F5F5F5F5F5F5F5F5F5F5F5F5F5F5F5F5F5F5F5F5F5F5F5F5F5F5F5F5F5F5F5F5F5F5F5F5F5F5F5F5F5F5F5F5F5F5F5F5F5F5F5F5F5F5F5F5F5F5F5F5F5F5F5F5F5F5F5F5F5F5F5F5F5F5F5F5F5F5F5F5F5F5F5F5F5F5F5F5F5F5F5F5F5F5F5F5F5F5F5F5
310
F5F5F5F5F5F5F5F5F5F5F5F5F5F5F5F5F5F5F5F5F5F5F5F5F5F5F5F5F5F5F5F5F5F5F5F5F5F5F5F5F5F5F5F5F5F5F5F5F5F5F5F5F5E2F5F5E2E2E2F5F5E2F5F5F5F5F5F5F5F5F5F5F5F5F5F5F5F5F5F5F5F5F5F5F5F5F5F5F5F5F5F5F5F5F5F5F5F5F5F5F5F5F5F5F5F5F5F5F5F5F5F5F5F5F5F5F5F5F5F5F5F5F5F5F5F5F5
310
F5F5F5F5F5F5F5F5F5F5F5F5F5F5F5F5F5F5F5F5F5F5F5F5F5F5F5F5F5F5F5F5F5F5F5F5F5F5F5F5F5F5F5F5F5F5F5F5F5F5F5F5F5F5F5F5F5F5F5F5F5F5F5F5F5F5F5F5F5F5F5F5F5F5F5F5F5F5F5F5F5F5F5F5F5F5F5F5F5F5F5F5F5F5F5F5F5F5F5F5F5F5F5F5F5F5E2F5F5E2E2E2F5F5E2F5F5F5F5F5F5F5F5F5F5F5F5
310
F5F5F5F5F5F5F5F5F5F5F5F5F5F5F5F5F5F5F5F5F5F5F5F5F5F5F5F5F5F5F5F5F5F5F5F5F5F5F5F5F5F5F5F5F5F5F5F5F5F5F5F5F5F5F5F5F5F5F5F5F5F5F5F5F5F5F5F5F5F5F5F5F5F5F5F5F5F5F5F5F5F5F5F5F5F5F5F5F5F5F5F5F5F5F5F5F5F5F5F5F5F5F5F5F5F5F5F5F5F5F5F5F5F5F5F5F5F5F5F5F5F5F5F5F5F5F5
310
F5F5F5F5F5F5F5F5F5F5F5F5F5F5F5F5F5F5F5F5F5F5F5F5F5F5F5F5F5F5F5F5E2F5F5E2E2E2F5F5E2E2E2E2E2E2E2E2F5F5F5F5F5F5F5F5F5E2E2E2E2E2E2E2E2E2E2E2E2E2E2E2E2F5F5F5F5F5F5F5F5F5E2E2E2E2E2E2E2E2E2E2E2E2E2E2E2E2F5F5F5F5F5F5F5F5E2E2E2E2E2E2E2E2E2E2E2E2E2E2E2E2F5F5F5F5F5
310
F5F5F5F5E2E2E2E2E2E2E2E2E2E2E2E2E2E2E2E2F5F5F5F5F5F5F5F5E2E2E2E2E2E2E2E2E2E2E2E2E2E2E2E2F5F5F5F5F5F5F5F5F5E2E2E2E2E2E2E2E2E2E2E2E2E2E2E2E2F5F5F5F5F5F5F5F5F5E2E2E2E2E2E2E2E2F5F5E2E2E2F5F5F5F5F5F5F5F5F5F5F5F5F5F5F5F5F5F5F5F5F5F5F5F5F5F5F5F5F5F5F5F5F5F5F5F5
310
F5F5F5F5F5F5F5F5F5F5F5F5F5F5F5F5F5F5F5F5F5F5F5F5F5F5F5F5F5F5F5F5F5F5F5F5F5F5F5F5F5F5F5F5F5F5F5F5F5F5F5F5F5F5F5F5F5F5F5F5F5F5F5F5F5F5F5F5F5F5F5F5F5F5F5F5F5F5F5F5F5F5F5F5F5F5F5F5F5F5F5F5F5F5F5F5F5F5F5F5F5F5F5F5F5F5F5F5F5F5F5F5F5F5F5F5F5F5F5F5F5F5F5F5F5F5F5
310
F5F5F5F5F5F5F5F5F5F5F5F5F5F5E2E2E2F5F5F5F5F5F5F5F5F5F5F5F5F5F5F5F5F5F5F5F5F5F5F5F5F5F5F5F5F5F5F5F5F5F5F5F5F5F5F5F5F5F5F5F5F5F5F5F5F5F5F5F5F5F5F5F5F5F5F5F5F5F5F5F5F5F5F5F5F5F5F5F5F5F5F5F5F5F5F5F5F5F5F5F5F5F5F5F5F5F5F5F5F5F5F5F5F5F5F5F5F5F5F5F5F5F5F5F5F5F5
310
F5F5F5F5F5F5F5F5F5F5F5F5F5F5F5F5F5F5F5F5F5F5F5F5F5F5F5F5F5F5F5F5F5F5F5F5F5F5F5F5F5F5F5F5F5F5F5F5F5F5F5F5F5F5F5F5F5F5F5F5F5F5F5F5F5F5F5E2E2E2F5F5F5F5F5F5F5F5F5F5F5F5F5F5F5F5F5F5F5F5F5F5F5F5F5F5F5F5F5F5F5F5F5F5F5F5F5F5F5F5F5F5F5F5F5F5F5F5F5F5F5F5F5F5F5F5F5
310
F5F5F5F5F5F5F5F5F5F5F5F5F5F5F5F5F5F5F5F5F5F5F5F5F5F5F5F5F5F5F5F5F5F5F5F5F5F5F5F5F5F5F5F5F5F5F5F5F5F5F5F5F5F5F5F5F5F5F5F5F5F5F5F5F5F5F5F5F5F5F5F5F5F5F5F5F5F5F5F5F5F5F5F5F5F5F5F5F5F5F5F5F5F5F5F5F5F5F5F5F5F5F5F5F5F5F5F5F5F5F5F5F5F5F5F5F5F5F5F5E2EFE2E2E2E2E2
310
E2E2E2E2E2E2E2E2E2E2E2E2E2E2E2E2E2E2E2E2E2E2E2E2E2E2E2E2E2E2E2E2E2E2E2E2E2E2E2E2E2E2E2E2E2E2E2E2E2E2E2E2E2E2E2E2E2E2E2E2E2E2E2E2E2E2E2E2E2E2E2E2E2E2E2E2E2E2E2E2E2E2E2E2E2E2E2E2E2E2E2E2E2E2E2E2E2E2E2E2E2E2E2E2E2E2E2E2E2E2E2E2E2E2E2E2E2E2E2E2E2E2E2E2E2E2E2
310
E2E2E2E2E2E2E2E2E2E2E2E2E2E2E2E2E2E2E2E2E2E2E2E2E2E2E2E2E2E2E2E2E2E2E2E2E2E2E2E2E2E2E2E2E2E2E2EF
  0
XRECORD
  5
6746
102
{ACAD_REACTORS
330
6745
102
}
330
6745
100
AcDbXrecord
280
     1
102
MATERIAL
148
0.0
149
0.0
149
0.0
 93
        0
 94
       63
282
     0
 72
     1
 77
     1
171
     1
175
     1
179
     1
273
     0
  0
XRECORD
  5
6744
102
{ACAD_REACTORS
330
6743
102
}
330
6743
100
AcDbXrecord
280
     1
102
MATERIAL
148
0.0
149
0.0
149
0.0
 93
        0
 94
       63
282
     0
 72
     1
 77
     1
171
     1
175
     1
179
     1
273
     0
  0
XRECORD
  5
6748
102
{ACAD_REACTORS
330
6747
102
}
330
6747
100
AcDbXrecord
280
     1
102
MATERIAL
148
0.0
149
0.0
149
0.0
 93
        0
 94
       63
282
     0
 72
     1
 77
     1
171
     1
175
     1
179
     1
273
     0
  0
CELLSTYLEMAP
  5
6741
102
{ACAD_REACTORS
330
5865
102
}
330
5865
100
AcDbCellStyleMap
 90
        3
300
CELLSTYLE
  1
TABLEFORMAT_BEGIN
 90
        5
170
     1
 91
        0
 92
    32768
 62
   257
 93
        1
300
CONTENTFORMAT
  1
CONTENTFORMAT_BEGIN
 90
        0
 91
        0
 92
        4
 93
        0
300

 40
0.0
140
1.0
 94
        5
 62
     0
340
F
144
0.25
309
CONTENTFORMAT_END
171
     0
 94
        6
 95
        1
302
GRIDFORMAT
  1
GRIDFORMAT_BEGIN
 90
        0
 91
        1
 62
     0
 92
       -2
340
0
 93
        0
 40
0.045
309
GRIDFORMAT_END
 95
        2
302
GRIDFORMAT
  1
GRIDFORMAT_BEGIN
 90
        0
 91
        1
 62
     0
 92
       -2
340
0
 93
        0
 40
0.045
309
GRIDFORMAT_END
 95
        4
302
GRIDFORMAT
  1
GRIDFORMAT_BEGIN
 90
        0
 91
        1
 62
     0
 92
       -2
340
0
 93
        0
 40
0.045
309
GRIDFORMAT_END
 95
        8
302
GRIDFORMAT
  1
GRIDFORMAT_BEGIN
 90
        0
 91
        1
 62
     0
 92
       -2
340
0
 93
        0
 40
0.045
309
GRIDFORMAT_END
 95
       16
302
GRIDFORMAT
  1
GRIDFORMAT_BEGIN
 90
        0
 91
        1
 62
     0
 92
       -2
340
0
 93
        0
 40
0.045
309
GRIDFORMAT_END
 95
       32
302
GRIDFORMAT
  1
GRIDFORMAT_BEGIN
 90
        0
 91
        1
 62
     0
 92
       -2
340
0
 93
        0
 40
0.045
309
GRIDFORMAT_END
309
TABLEFORMAT_END
  1
CELLSTYLE_BEGIN
 90
        1
 91
        1
300
_TITLE
309
CELLSTYLE_END
300
CELLSTYLE
  1
TABLEFORMAT_BEGIN
 90
        5
170
     1
 91
        0
 92
        0
 62
   257
 93
        1
300
CONTENTFORMAT
  1
CONTENTFORMAT_BEGIN
 90
        0
 91
        0
 92
        4
 93
        0
300

 40
0.0
140
1.0
 94
        5
 62
     0
340
F
144
0.18
309
CONTENTFORMAT_END
171
     0
 94
        6
 95
        1
302
GRIDFORMAT
  1
GRIDFORMAT_BEGIN
 90
        0
 91
        1
 62
     0
 92
       -2
340
0
 93
        0
 40
0.045
309
GRIDFORMAT_END
 95
        2
302
GRIDFORMAT
  1
GRIDFORMAT_BEGIN
 90
        0
 91
        1
 62
     0
 92
       -2
340
0
 93
        0
 40
0.045
309
GRIDFORMAT_END
 95
        4
302
GRIDFORMAT
  1
GRIDFORMAT_BEGIN
 90
        0
 91
        1
 62
     0
 92
       -2
340
0
 93
        0
 40
0.045
309
GRIDFORMAT_END
 95
        8
302
GRIDFORMAT
  1
GRIDFORMAT_BEGIN
 90
        0
 91
        1
 62
     0
 92
       -2
340
0
 93
        0
 40
0.045
309
GRIDFORMAT_END
 95
       16
302
GRIDFORMAT
  1
GRIDFORMAT_BEGIN
 90
        0
 91
        1
 62
     0
 92
       -2
340
0
 93
        0
 40
0.045
309
GRIDFORMAT_END
 95
       32
302
GRIDFORMAT
  1
GRIDFORMAT_BEGIN
 90
        0
 91
        1
 62
     0
 92
       -2
340
0
 93
        0
 40
0.045
309
GRIDFORMAT_END
309
TABLEFORMAT_END
  1
CELLSTYLE_BEGIN
 90
        2
 91
        1
300
_HEADER
309
CELLSTYLE_END
300
CELLSTYLE
  1
TABLEFORMAT_BEGIN
 90
        5
170
     1
 91
        0
 92
        0
 62
   257
 93
        1
300
CONTENTFORMAT
  1
CONTENTFORMAT_BEGIN
 90
        0
 91
        0
 92
        4
 93
        0
300

 40
0.0
140
1.0
 94
        2
 62
     0
340
F
144
0.18
309
CONTENTFORMAT_END
171
     0
 94
        6
 95
        1
302
GRIDFORMAT
  1
GRIDFORMAT_BEGIN
 90
        0
 91
        1
 62
     0
 92
       -2
340
0
 93
        0
 40
0.045
309
GRIDFORMAT_END
 95
        2
302
GRIDFORMAT
  1
GRIDFORMAT_BEGIN
 90
        0
 91
        1
 62
     0
 92
       -2
340
0
 93
        0
 40
0.045
309
GRIDFORMAT_END
 95
        4
302
GRIDFORMAT
  1
GRIDFORMAT_BEGIN
 90
        0
 91
        1
 62
     0
 92
       -2
340
0
 93
        0
 40
0.045
309
GRIDFORMAT_END
 95
        8
302
GRIDFORMAT
  1
GRIDFORMAT_BEGIN
 90
        0
 91
        1
 62
     0
 92
       -2
340
0
 93
        0
 40
0.045
309
GRIDFORMAT_END
 95
       16
302
GRIDFORMAT
  1
GRIDFORMAT_BEGIN
 90
        0
 91
        1
 62
     0
 92
       -2
340
0
 93
        0
 40
0.045
309
GRIDFORMAT_END
 95
       32
302
GRIDFORMAT
  1
GRIDFORMAT_BEGIN
 90
        0
 91
        1
 62
     0
 92
       -2
340
0
 93
        0
 40
0.045
309
GRIDFORMAT_END
309
TABLEFORMAT_END
  1
CELLSTYLE_BEGIN
 90
        3
 91
        2
300
_DATA
309
CELLSTYLE_END
  0
XRECORD
  5
6742
102
{ACAD_REACTORS
330
5865
102
}
330
5865
100
AcDbXrecord
280
     1
102
ACAD_ROUNDTRIP_PRE2007_TABLESTYLE
 90
        4
 91
        0
  1

 92
        4
 93
        0
  2

 94
        4
 95
        0
  3

  0
ENDSEC
  0
EOF
